Subcategories

Tommy Bolin - Whips And Roses I & II (2006)

Posted By: popsakov
Tommy Bolin - Whips And Roses I & II (2006)

Tommy Bolin - Whips And Roses I & II (2006)
EAC Rip | FLAC (Tracks) + Cue + m3u + Log ~ 1,12 Gb | MP3 CBR320 ~ 431 Mb
Scans Included | 01:18:17 + 01:14:33 | RAR 5% Recovery
Jazz Rock / Hard Rock / Classic Rock / Guitar Virtuoso
Steamhammer #SPV 78582 CD / SPV 78622 CD

Whips and Roses is a collection of previously unreleased material from the 1975 rock album Teaser by Tommy Bolin. Released on April 25, 2006, it features newly discovered takes from songs found on Teaser as well as several instrumental jams heard for the first time on this album. Several songs on Whips and Roses were originally released on the album Teaser. These versions are remixed from alternate takes remaining from the Teaser sessions. Many of these new renditions feature extended arrangements and radically alternate guitar solos from the original album.

***************

Tommy Bolin - Whips And Roses I & II (2006)

Since the release of 1996's stellar From the Archives, Vol. 1, it's understandable to say that Tommy Bolin Archives subsequently went a bit overboard (it seemed like they released every single piece of tape they could get their hands on – regardless of the sound quality). But when Tommy's younger brother, John Bolin, discovered a box full of forgotten tapes, the finest archival release since Archives, Vol. 1 was in place – 2006's Whips and Roses. Featuring both strong alternate takes of Teaser classics and several previously unheard instrumental jams, Whips and Roses is unquestionably the best-sounding Bolin CD ever released (the project's producer, Greg Hampton, should certainly be commended). New versions of the hard-rocking "Teaser" and the Wes Montgomery-esque "Savannah Woman" come close to matching the officially released versions (adding grit to the playing improves the sometimes too-smooth sounds of Teaser). And out of the instrumentals, a killer take of "Crazed Fandango" (titled here as simply "Fandango") and "Cookoo" (which contains traces of the Teaser instrumental "Homeward Strut") are certainly standouts. It's rare that a compilation of outtakes could serve as a fine introduction for the new fan, but the material on Whips and Roses is so strong that it comes close to accomplishing this feat. A fine sampling of one of rock's all-time great guitarists.

~ Greg Prato, All Music

Track List CD1 - Whips And Roses:

01. Teaser [4:49]
02. Fandango [6:13]
03. Wild Dogs [8:31]
04. Cookoo [4:55]
05. Savannah Woman [3:47]
06. Marching Powder [5:50]
07. Flying Fingers [15:57]
08. Dreamer [5:23]
09. Just Don't Fall Down [10:43]
10. Blowin Your Cookies [12:09]

EAC extraction logfile from 11. August 2007, 15:47 for CD
Tommy Bolin / Whips And Roses

Used drive : SAMSUNG CD-R/RW SW-248B Adapter: 1 ID: 0
Read mode : Secure with NO C2, accurate stream, disable cache
Read offset correction : 733
Overread into Lead-In and Lead-Out : No

Used output format : C:\Programmi\FLAC\flac.exe (User Defined Encoder)
128 kBit/s
Additional command line options : -V -8 -T "artist=%a" -T "title=%t" -T "album=%g" -T "date=%y" -T "tracknumber=%n" -T "genre=%m" %s

Other options :
Fill up missing offset samples with silence : Yes
Delete leading and trailing silent blocks : No
Native Win32 interface for Win NT & 2000


Track 1
Filename F:\SAVED RIP\Nuova cartella\01 - Teaser.wav

Pre-gap length 0:00:02.00

Peak level 96.6 %
Track quality 100.0 %
Test CRC C48BE3EE
Copy CRC C48BE3EE
Copy OK

Track 2
Filename F:\SAVED RIP\Nuova cartella\02 - Fandango.wav

Peak level 96.6 %
Track quality 100.0 %
Test CRC A14F0135
Copy CRC A14F0135
Copy OK

Track 3
Filename F:\SAVED RIP\Nuova cartella\03 - Wild Dogs.wav

Peak level 96.6 %
Track quality 100.0 %
Test CRC C1EA58D3
Copy CRC C1EA58D3
Copy OK

Track 4
Filename F:\SAVED RIP\Nuova cartella\04 - Cookoo.wav

Peak level 96.6 %
Track quality 100.0 %
Test CRC 069A69A6
Copy CRC 069A69A6
Copy OK

Track 5
Filename F:\SAVED RIP\Nuova cartella\05 - Savannah Woman.wav

Peak level 96.6 %
Track quality 100.0 %
Test CRC BBFAC18A
Copy CRC BBFAC18A
Copy OK

Track 6
Filename F:\SAVED RIP\Nuova cartella\06 - Marching Powder.wav

Peak level 96.6 %
Track quality 100.0 %
Test CRC EE202787
Copy CRC EE202787
Copy OK

Track 7
Filename F:\SAVED RIP\Nuova cartella\07 - Flying Fingers.wav

Peak level 96.6 %
Track quality 100.0 %
Test CRC ABACB311
Copy CRC ABACB311
Copy OK

Track 8
Filename F:\SAVED RIP\Nuova cartella\08 - Dreamer.wav

Peak level 96.6 %
Track quality 100.0 %
Test CRC 569F78C4
Copy CRC 569F78C4
Copy OK

Track 9
Filename F:\SAVED RIP\Nuova cartella\09 - Just Don't Fall Down.wav

Peak level 96.6 %
Track quality 100.0 %
Test CRC 6BBA54E9
Copy CRC 6BBA54E9
Copy OK

Track 10
Filename F:\SAVED RIP\Nuova cartella\10 - Blowin Your Cookies.wav

Peak level 96.6 %
Track quality 100.0 %
Test CRC 9A52F42A
Copy CRC 9A52F42A
Copy OK

No errors occured


End of status report

[CUETools log; Date: 09.04.2020 20:26:04; Version: 2.1.6]
[CTDB TOCID: rbeAHTfOSeaKUd08kSjW24Am71U-] found.
Track | CTDB Status
1 | (41/43) Accurately ripped
2 | (42/43) Accurately ripped
3 | (42/43) Accurately ripped
4 | (42/43) Accurately ripped
5 | (42/43) Accurately ripped
6 | (42/43) Accurately ripped
7 | (42/43) Accurately ripped
8 | (42/43) Accurately ripped
9 | (41/43) Accurately ripped
10 | (40/43) Accurately ripped
[AccurateRip ID: 00198c3f-00d2fdea-8a12580a] found.
Track [ CRC | V2 ] Status
01 [28d926cc|50b510a7] (09+22/44) Accurately ripped
02 [e69cba36|fa04cd87] (09+22/44) Accurately ripped
03 [be23f0f6|6dfd7739] (09+22/44) Accurately ripped
04 [bb91bfc1|f0327325] (09+22/45) Accurately ripped
05 [1862576d|0eb750b3] (09+22/44) Accurately ripped
06 [dd22ef87|3bf7024d] (09+22/44) Accurately ripped
07 [0837b355|df6eb766] (09+22/45) Accurately ripped
08 [c1f1116d|9330fec7] (09+22/44) Accurately ripped
09 [11f9bcb7|01b03289] (09+22/44) Accurately ripped
10 [3e15da97|416b367b] (09+22/44) Accurately ripped
Offsetted by -634:
01 [d84ec20c] (04/44) Accurately ripped
02 [2866c01a] (04/44) Accurately ripped
03 [64fbd052] (04/44) Accurately ripped
04 [477d9055] (04/45) Accurately ripped
05 [fa3f427d] (04/44) Accurately ripped
06 [bdb5e59b] (04/44) Accurately ripped
07 [8ef91729] (04/45) Accurately ripped
08 [15640821] (04/44) Accurately ripped
09 [26fe72c7] (04/44) Accurately ripped
10 [39df0fd1] (04/44) Accurately ripped
Offsetted by 12:
01 [35adbd4c] (05/44) Accurately ripped
02 [9caf83fe] (05/44) Accurately ripped
03 [841151ae] (05/44) Accurately ripped
04 [744706e9] (05/45) Accurately ripped
05 [4a37658d] (05/44) Accurately ripped
06 [eb75c1af] (05/44) Accurately ripped
07 [8e2580fd] (05/45) Accurately ripped
08 [db0314d5] (05/44) Accurately ripped
09 [67fce0d7] (05/44) Accurately ripped
10 [6978f204] (05/44) Accurately ripped
Offsetted by -664:
01 [b83b49cc] (00/44) No match (V2 was not tested)
02 [e137c7a6] (00/44) No match (V2 was not tested)
03 [f62a5e86] (00/44) No match (V2 was not tested)
04 [79b85e71] (00/45) No match (V2 was not tested)
05 [fdaa9f2d] (00/44) No match (V2 was not tested)
06 [19e6d837] (00/44) No match (V2 was not tested)
07 [c0269505] (00/45) No match (V2 was not tested)
08 [56b6ff9d] (00/44) No match (V2 was not tested)
09 [cff69877] (00/44) No match (V2 was not tested)
10 [3706a552] (00/44) No match (V2 was not tested)

Track Peak [ CRC32 ] [W/O NULL] [ LOG ]
– 96,6 [1734734B] [A33241F5]
01 96,6 [C48BE3EE] [33D11DE3] CRC32
02 96,6 [A14F0135] [F6DA76ED] CRC32
03 96,6 [C1EA58D3] [BC796E5F] CRC32
04 96,6 [069A69A6] [98EA2F76] CRC32
05 96,6 [BBFAC18A] [A0E77310] CRC32
06 96,6 [EE202787] [4CDE3FEB] CRC32
07 96,6 [ABACB311] [D3627099] CRC32
08 96,6 [569F78C4] [F5C8CE3F] CRC32
09 96,6 [6BBA54E9] [41A24E1A] CRC32
10 96,6 [9A52F42A] [B1D7042F] CRC32

Tommy Bolin - Whips And Roses I & II (2006)

This is the acid test. When Whips and Roses was released in April of 2006, it was a revelatory collection, showcasing many high quality – performance and sound-wise – alternate takes and demos of material that appeared on Tommy Bolin's Teaser in particular. All of these cuts came from a box found by Bolin's brother John and given to producer Greg Hampton. That there is a second volume makes even the hardcore fan a bit wary. What's here will not disappoint the veteran Bolin collector, but it will probably put off first-time listeners (simply because there are a couple of really dodgy sounding live cuts at the end.) In places this is stretching it., but not too much. There are four different takes of songs from Teaser – "People, People," "The Grind," "Homeward Strut," and "Lotus" – and yet another outtake of the left-off "Crazed Fandango." In addition, there are six other tracks, most of which are jam band-oriented, including the 14-plus minute "Bagit Blues Deluxe," "Tommy's Got Da Blues" (which comes in at nine-plus minutes) and "Some People Call Me" (over 13 minutes). Right, total excess guitar hero stuff. It's in the songs themselves where Bolin really shines here, his virtually boundless imagination when it comes not just to playing, but to writing, arranging, and performing as well. If you dug volume one, then this is for you.

~ Thom Jurek, All Music

Track List CD2 - Whips And Roses II:

01. The Grind [3:28]
02. Crazed Fandango [5:04]
03. People People [6:09]
04. Homeward Strut [3:43]
05. Sooner Or Later [4:18]
06. Bag It Blues Deluxe [14:25]
07. Spacey Noodles [2:27]
08. Lotus [6:05]
09. Journey 2 [3:50]
10. Bolins Boogie (bonus) [2:39]
11. Tommy's Got Da Blues (bonus) [9:13]
12. Some People Call Me (bonus) [13:13]

EAC extraction logfile from 11. August 2007, 21:46 for CD
Tommy Bolin / Whips and Roses II

Used drive : SAMSUNG CD-R/RW SW-248B Adapter: 1 ID: 0
Read mode : Secure with NO C2, accurate stream, disable cache
Read offset correction : 733
Overread into Lead-In and Lead-Out : No

Used output format : C:\Programmi\FLAC\flac.exe (User Defined Encoder)
128 kBit/s
Additional command line options : -V -8 -T "artist=%a" -T "title=%t" -T "album=%g" -T "date=%y" -T "tracknumber=%n" -T "genre=%m" %s

Other options :
Fill up missing offset samples with silence : Yes
Delete leading and trailing silent blocks : No
Native Win32 interface for Win NT & 2000


Track 1
Filename F:\SAVED RIP\Nuova cartella\01 - The Grind.wav

Pre-gap length 0:00:02.00

Peak level 96.6 %
Track quality 100.0 %
Test CRC A54890B4
Copy CRC A54890B4
Copy OK

Track 2
Filename F:\SAVED RIP\Nuova cartella\02 - Crazed Fandango.wav

Peak level 96.6 %
Track quality 100.0 %
Test CRC F49C3726
Copy CRC F49C3726
Copy OK

Track 3
Filename F:\SAVED RIP\Nuova cartella\03 - People People.wav

Peak level 96.6 %
Track quality 100.0 %
Test CRC A72BC898
Copy CRC A72BC898
Copy OK

Track 4
Filename F:\SAVED RIP\Nuova cartella\04 - Homeward Strut.wav

Peak level 96.6 %
Track quality 100.0 %
Test CRC 25266532
Copy CRC 25266532
Copy OK

Track 5
Filename F:\SAVED RIP\Nuova cartella\05 - Sooner Or Later.wav

Peak level 96.6 %
Track quality 100.0 %
Test CRC 68D7CB15
Copy CRC 68D7CB15
Copy OK

Track 6
Filename F:\SAVED RIP\Nuova cartella\06 - Bag It Blues Deluxe.wav

Peak level 96.6 %
Track quality 100.0 %
Test CRC D0DE8F84
Copy CRC D0DE8F84
Copy OK

Track 7
Filename F:\SAVED RIP\Nuova cartella\07 - Spacey Noodles.wav

Peak level 96.6 %
Track quality 100.0 %
Test CRC 0DAEB239
Copy CRC 0DAEB239
Copy OK

Track 8
Filename F:\SAVED RIP\Nuova cartella\08 - Lotus.wav

Peak level 96.6 %
Track quality 100.0 %
Test CRC 6EFA222A
Copy CRC 6EFA222A
Copy OK

Track 9
Filename F:\SAVED RIP\Nuova cartella\09 - Journey 2.wav

Peak level 96.6 %
Track quality 100.0 %
Test CRC 3A98830E
Copy CRC 3A98830E
Copy OK

Track 10
Filename F:\SAVED RIP\Nuova cartella\10 - Bolins Boogie (bonus).wav

Peak level 96.6 %
Track quality 100.0 %
Test CRC 0EEF9686
Copy CRC 0EEF9686
Copy OK

Track 11
Filename F:\SAVED RIP\Nuova cartella\11 - Tommy's Got Da Blues (bonus).wav

Peak level 96.6 %
Track quality 100.0 %
Test CRC 131CF21D
Copy CRC 131CF21D
Copy OK

Track 12
Filename F:\SAVED RIP\Nuova cartella\12 - Some People Call Me (bonus).wav

Peak level 96.6 %
Track quality 99.9 %
Test CRC EAE5D478
Copy CRC EAE5D478
Copy OK

No errors occured


End of status report

[CUETools log; Date: 09.04.2020 20:35:17; Version: 2.1.6]
[CTDB TOCID: H9rzrtml5nMEniUgcKCsL4oaTgY-] found.
Track | CTDB Status
1 | (23/23) Accurately ripped
2 | (23/23) Accurately ripped
3 | (23/23) Accurately ripped
4 | (23/23) Accurately ripped
5 | (23/23) Accurately ripped
6 | (23/23) Accurately ripped
7 | (23/23) Accurately ripped
8 | (23/23) Accurately ripped
9 | (23/23) Accurately ripped
10 | (23/23) Accurately ripped
11 | (23/23) Accurately ripped
12 | (22/23) Accurately ripped
[AccurateRip ID: 001d5969-01181086-a711790c] found.
Track [ CRC | V2 ] Status
01 [253386c2|a005535d] (05+05/21) Accurately ripped
02 [97fc2674|f4b4ba79] (05+05/21) Accurately ripped
03 [2293bfb5|3ce8da83] (05+05/21) Accurately ripped
04 [53a64606|39bb74b6] (05+05/21) Accurately ripped
05 [808353da|4547eb8b] (05+05/21) Accurately ripped
06 [6a7c17d9|a077eb95] (05+05/21) Accurately ripped
07 [afd3072b|1c1709e8] (05+05/21) Accurately ripped
08 [4faf7da4|c54b212c] (05+05/21) Accurately ripped
09 [7bde9ee1|7d0a6158] (05+05/21) Accurately ripped
10 [eedf3ead|84e11030] (05+05/21) Accurately ripped
11 [18618762|baa58eb7] (05+05/21) Accurately ripped
12 [63f4d2e9|4e5a92c8] (05+05/21) Accurately ripped
Offsetted by 12:
01 [e2b7b69e] (05/21) Accurately ripped
02 [af7ebb58] (05/21) Accurately ripped
03 [15b8b739] (05/21) Accurately ripped
04 [a71514ae] (05/21) Accurately ripped
05 [3e11244a] (05/21) Accurately ripped
06 [01f1939d] (05/21) Accurately ripped
07 [7776141b] (05/21) Accurately ripped
08 [1ebaebf8] (05/21) Accurately ripped
09 [6e39ea79] (05/21) Accurately ripped
10 [9c4ebc41] (05/21) Accurately ripped
11 [bd0370ea] (05/21) Accurately ripped
12 [d9bb0e01] (05/21) Accurately ripped

Track Peak [ CRC32 ] [W/O NULL] [ LOG ]
– 96,6 [FA3AB065] [DF1C37F2]
01 96,6 [A54890B4] [91FCED79] CRC32
02 96,6 [F49C3726] [E5A17ED7] CRC32
03 96,6 [A72BC898] [3DCBEBC5] CRC32
04 96,6 [25266532] [BBEEE868] CRC32
05 96,6 [68D7CB15] [D2A35E07] CRC32
06 96,6 [D0DE8F84] [2463ECFB] CRC32
07 96,6 [0DAEB239] [638A068D] CRC32
08 96,6 [6EFA222A] [FE165802] CRC32
09 96,6 [3A98830E] [AD0C661F] CRC32
10 96,6 [0EEF9686] [4880926E] CRC32
11 96,6 [131CF21D] [522C59F6] CRC32
12 96,6 [EAE5D478] [3D31FE3C] CRC32

See also:

Tommy Bolin - Private Eyes ...anese Reissue, Remastered}

All thanks go to the original ripper(s) …

>>> My Blog <<<

DOWNLOAD: