Subcategories

Toni Childs - Union (1988) [Re-Up]

Posted By: Designol
Toni Childs - Union (1988) [Re-Up]

Toni Childs - Union (1988)
EAC | FLAC | Image (Cue&Log) ~ 286 Mb | Mp3 (CBR320) ~ 108 Mb | Scans included
Adult Contemporary Pop/Rock | Label: A&M | # CD-5175, DX 3002 | Time: 00:45:09

Union is the debut album of the American singer/songwriter Toni Childs. Released in 1988, the album peaked at #63 in the US. Following its release, Childs was nominated for two Grammy Awards (for 'Best New Artist' and for 'Best Rock Vocal Performance (Female)' for the single "Don't Walk Away").

Union's release in 1988 announced a bold, incendiary new voice in the singer/songwriter sweepstakes in Toni Childs. The well-traveled Childs, the short-term original lead singer for Berlin, draws upon the vast experiences of her life and delivers them with an urgency that is hypnotically compelling. It's all tied together by David Tickle's production and aided by first-rate backing by musicians including songwriting collaborator David Ricketts, drummer Rick Marotta and guitarist David Rhodes. The single "Don't Walk Away" kicks things off in high gear and Childs rarely looks back. Her take-no-prisoners vocal drives the funky, horn-driven track, which is backed by the gospel swell of the background vocalists. Although the rest of the album is a little more sedate, Childs never loses the urgent edge to her dusky voice. "Stop Your Fussin'" is sung to a restless lover over a Caribbean rhythm and "Hush" has a playful bounce to it. Elsewhere, "Zimbabwae" is a parable detailing African strife complete with chanting background vocals and "Dreamer" provides her with a bed of keyboards that shimmer like stars. The twice Grammy-nominated Union received universal critical acclaim and is riveting right through the moody poetry of the final track, "Where's the Ocean."

Review by Tom Demalon, Allmusic.com

Toni Childs - Union (1988) [Re-Up]



Tracklist:

01. Don't Walk Away (04:00)
02. Walk and Talk Like Angels (05:48)
03. Stop Your Fussin (04:40)
04. Dreamer (05:01)
05. Let the Rain Come Down (04:51)
06. Zimbabwae (06:18)
07. Hush (04:04)
08. Tin Drum (05:41)
09. Where's the Ocean (04:42)


Exact Audio Copy V0.99 prebeta 3 from 28. July 2007

Отчёт EAC об извлечении, выполненном 1. декабря 2008, 20:00

Toni Childs / Union

Дисковод: HL-DT-STDVDRAM GSA-E50L Adapter: 2 ID: 1

Режим чтения : Достоверность
Использование точного потока : Да
Отключение кэша аудио : Да
Использование указателей C2 : Нет

Коррекция смещения при чтении : 667
Способность читать области Lead-in и Lead-out : Нет
Заполнение пропущенных сэмплов тишиной : Да
Удаление блоков с тишиной в начале и конце : Нет
При вычислениях CRC использовались нулевые сэмплы : Да
Интерфейс : Встроенный Win32-интерфейс для Win NT/2000

Выходной формат : Пользовательский кодировщик
Выбранный битрейт : 768 kBit/s
Качество : Высокий
Добавление ID3-тэга : Нет
Утилита сжатия : C:\Program Files\Exact Audio Copy\FLAC\FLAC.EXE
Дополнительные параметры : -6 -V -T "ARTIST=%a" -T "TITLE=%t" -T "ALBUM=%g" -T "DATE=%y" -T "TRACKNUMBER=%n" -T "GENRE=%m" -T "COMMENT=%e" %s -o %d


TOC извлечённого CD

Трек | Старт | Длительность | Начальный сектор | Конечный сектор
––––––––––––––––––––––––––––––––––-
1 | 0:00.00 | 4:00.35 | 0 | 18034
2 | 4:00.35 | 5:48.00 | 18035 | 44134
3 | 9:48.35 | 4:40.68 | 44135 | 65202
4 | 14:29.28 | 5:01.42 | 65203 | 87819
5 | 19:30.70 | 4:51.65 | 87820 | 109709
6 | 24:22.60 | 6:18.30 | 109710 | 138089
7 | 30:41.15 | 4:04.25 | 138090 | 156414
8 | 34:45.40 | 5:41.60 | 156415 | 182049
9 | 40:27.25 | 4:42.38 | 182050 | 203237


Характеристики диапазона извлечения и сообщения об ошибках

Выбранный диапазон

Имя файла D:\Music\Childs\Toni Childs - Union - 1988\Toni Childs - Union.wav

Пиковый уровень 100.0 %
Качество диапазона 100.0 %
CRC копии 20A3CEE1
Копирование… OK

Ошибок не произошло


AccurateRip: сводка

Трек 1 точное извлечение (доверие 16) [18776584]
Трек 2 точное извлечение (доверие 16) [23532C10]
Трек 3 точное извлечение (доверие 17) [6EFF84E0]
Трек 4 точное извлечение (доверие 17) [17B1CC8E]
Трек 5 точное извлечение (доверие 17) [69EE2E96]
Трек 6 точное извлечение (доверие 17) [38EF221C]
Трек 7 точное извлечение (доверие 17) [8864CF5A]
Трек 8 точное извлечение (доверие 16) [4D8B8B16]
Трек 9 точное извлечение (доверие 16) [624A842B]

Все треки извлечены точно

Конец отчёта

[CUETools log; Date: 18.04.2016 20:30:25; Version: 2.1.4]
[CTDB TOCID: kIrk4FW8G2qEzwUr216ZJxRTJIA-] found.
Track | CTDB Status
1 | (22/23) Accurately ripped
2 | (23/23) Accurately ripped
3 | (23/23) Accurately ripped
4 | (23/23) Accurately ripped
5 | (23/23) Accurately ripped
6 | (23/23) Accurately ripped
7 | (23/23) Accurately ripped
8 | (23/23) Accurately ripped
9 | (23/23) Accurately ripped
[AccurateRip ID: 000f5498-00712684-740a9509] found.
Track [ CRC | V2 ] Status
01 [18776584|acf484ac] (37+36/83) Accurately ripped
02 [23532c10|16cf58da] (37+38/85) Accurately ripped
03 [6eff84e0|6e1f2df9] (37+38/85) Accurately ripped
04 [17b1cc8e|d610a2b6] (37+37/84) Accurately ripped
05 [69ee2e96|464129dc] (37+37/84) Accurately ripped
06 [38ef221c|f84c768f] (37+36/83) Accurately ripped
07 [8864cf5a|291c7ed0] (37+36/83) Accurately ripped
08 [4d8b8b16|417949fb] (36+37/83) Accurately ripped
09 [624a842b|5dc4e06a] (36+38/83) Accurately ripped
Offsetted by -372:
01 [89782134] (03/83) Accurately ripped
02 [570b4894] (03/85) Accurately ripped
03 [b3fb7858] (03/85) Accurately ripped
04 [9b75a46a] (03/84) Accurately ripped
05 [80a601e6] (03/84) Accurately ripped
06 [de941754] (03/83) Accurately ripped
07 [b2bd12a6] (03/83) Accurately ripped
08 [23ffbc0e] (03/83) Accurately ripped
09 [e71689fb] (02/83) Accurately ripped
Offsetted by -343:
01 [6892e948] (00/83) No match (V2 was not tested)
02 [811ea6b3] (00/85) No match (V2 was not tested)
03 [effb18fa] (00/85) No match (V2 was not tested)
04 [1e434733] (00/84) No match (V2 was not tested)
05 [a77ac612] (00/84) No match (V2 was not tested)
06 [49684386] (00/83) No match (V2 was not tested)
07 [8e67bd93] (00/83) No match (V2 was not tested)
08 [0fd70550] (00/83) No match (V2 was not tested)
09 [39a38987] (00/83) No match (V2 was not tested)

Track Peak [ CRC32 ] [W/O NULL] [ LOG ]
– 100,0 [20A3CEE1] [659939D1] CRC32
01 96,3 [009A1FCB] [394DD4F0]
02 78,9 [95D3E6AB] [65D97A70]
03 91,9 [8EF1DFB9] [9F6862CA]
04 42,8 [8EEFCD03] [22FE1E1A]
05 100,0 [7C5DF7A3] [8CACAF12]
06 100,0 [560E52EC] [6740B381]
07 82,5 [354A0847] [1326BE26]
08 91,9 [5B3FADB5] [14905757]
09 49,9 [32A3BA4C] [B4642FDA]

foobar2000 1.2 / Dynamic Range Meter 1.1.1
log date: 2016-04-18 20:38:05

––––––––––––––––––––––––––––––––––––––––
Analyzed: Toni Childs / Union
––––––––––––––––––––––––––––––––––––––––

DR Peak RMS Duration Track
––––––––––––––––––––––––––––––––––––––––
DR13 -0.32 dB -16.10 dB 4:00 01-Don't Walk Away
DR15 -2.06 dB -18.76 dB 5:48 02-Walk and Talk Like Angels
DR14 -0.73 dB -17.25 dB 4:41 03-Stop Your Fussin
DR11 -7.36 dB -22.15 dB 5:02 04-Dreamer
DR15 0.00 dB -18.08 dB 4:52 05-Let the Rain Come Down
DR13 0.00 dB -15.71 dB 6:18 06-Zimbabwae
DR12 -1.67 dB -17.78 dB 4:04 07-Hush
DR15 -0.72 dB -17.65 dB 5:42 08-Tin Drum
DR12 -6.03 dB -21.63 dB 4:43 09-Where's the Ocean
––––––––––––––––––––––––––––––––––––––––

Number of tracks: 9
Official DR value: DR13

Samplerate: 44100 Hz
Channels: 2
Bits per sample: 16
Bitrate: 872 kbps
Codec: FLAC
================================================================================

Toni Childs - Union (1988) [Re-Up]

All thanks to original releaser - Медведев

More interesting music in My Blog