Subcategories
Please register here if you want to download anything!

If domain in your address bar is different from the list below
PLEASE LEAVE THAT SITE IMMEDIATELY
❗IT'S A DANGEROUS FAKE❗



Spicy Magazines for Men! ;-)

Toninho Horta ‎– To Jobim With Love (2008) {Resonance}

Posted By: tiburon
Toninho Horta ‎– To Jobim With Love (2008) {Resonance}

Toninho Horta ‎– To Jobim With Love (2008) {Resonance}
EAC 1.0b3 | FLAC tracks level 8 | Cue+Log+M3U | Full Scans 300dpi | 390MB + 5% Recovery
MP3 CBR 320 Kbps | 136MB + 5% Recovery
Genre: Brazilian Jazz

Toninho Horta has been a reliable sideman and occasionally a leader in his lengthy career playing contemporary Brazilian music. The acoustic and electric guitarist has a quiet intensity that reflects the passion and verve of genius composer Antonio Carlos Jobim. This tribute to Jobim is quite laden with string charts, most done quite tastefully, rarely overarranged, and pleasantly emphasizing a flute section. Horta has an impressive complementary combo of pianist Dave Kikoski, bassist Gary Peacock, percussionists Paulo Braga and Manolo Badrena, special guests as saxophonist Bob Mintzer, harmonicist William Galison, trumpeter Glenn Drewes, Charles Pillow on oboe, John Clark on French horn, and several members of the large Horta family.
Track List
01. Agua de Beber
02. Portrait In Black and White
03. If Everyone Was Like You (Se Todos Fossem Iguais A Vocђ)
04. From Ton to Tom (Silent Song)
05. Cristiana
06. Meditation (MeditaЌ‹o)
07. No More Blues (Chega de Saudade)
08. Infinite Love
09. Promises I Made (Promessas Que Eu Fiz)
10. Modinha
11. The Girl From Ipanema - Vignette
12. Without You (Sem Vocђ)
13. Desafinado

musicians
Toninho Horta - guitar,vocals
Gary Peacock - bass
Bob Mintzer - tenor sax
Ailton Magioli, Ander Guimaraes, Claudia Horta, Deuler Andrade, Diana Popoff, Ezequiel Lima, Joao Claudio, Luciana (14),
Mariana Popoff, Paula Horta, Perla Horta, Polyana Horta, Valeria Val - vocals
Dave Eggar, Jennifer Devore, Karl Bennion - cello
John Burnstein - Double Bass
Esdra "Nedem" Ferreira, Paulo Braga - drums
Paulo Horta, Sergio Brandao - Electric Bass
Glenn Drewes - flh, tp
Geisa Felipo, Lena Horta, Luciana Pegorer, Norma LaTuchie, P.C. Castilho - fl
John Clark - French Horn
William Galison - Harmonica
Andrea Dequech - Keyboards, Synthesizer
Charles Pillow - Oboe
Dede Sampaio, Esdra "Nedem" Ferreira, Julinho Barbosa, Julio Barbosa, Manolo Badrena, Sergio Brandao, Zeuler Michelina - Percussion
Dave Kikoski - piano
Keith O'Quinn - tb
Adam Hyman, Alejandra Mahave, David Wallace (4), Lois Martin - Viola
Ani Gregorian, Cenovia Cummins, Hector Falcon, Helen Kim (2), Joyce Hammann, Krista Feeney*, Mark Feldman, Megan Reiter, Pauline Kim,
Rebecca Muir, Rob Shaw, Ron Lawrence, Tom Chiu, Yosuke Kawasaki - Violin

Produced by Toninho Horta


Exact Audio Copy V1.0 beta 3 from 29. August 2011

Отчёт EAC об извлечении, выполненном 21. января 2012, 14:23

Toninho Horta / To Jobim With Love

Дисковод: TSSTcorpCDDVDW SH-S223C Adapter: 5 ID: 0

Режим чтения : Достоверность
Использование точного потока : Да
Отключение кэша аудио : Да
Использование указателей C2 : Нет

Коррекция смещения при чтении : 697
Способность читать области Lead-in и Lead-out : Нет
Заполнение пропущенных сэмплов тишиной : Да
Удаление блоков с тишиной в начале и конце : Нет
При вычислениях CRC использовались нулевые сэмплы : Да
Интерфейс : Установленный внешний ASPI-интерфейс
Обработка зазоров : Добавлено к предыдущему треку

Выходной формат : Пользовательский кодировщик
Выбранный битрейт : 128 kBit/s
Качество : Высокий
Добавление ID3-тега : Нет
Утилита сжатия : C:\Program Files\Exact Audio Copy\Flac\flac.exe
Дополнительные параметры : -V -8 -T "Genre=%genre%" -T "Artist=%artist%" -T "Title=%title%" -T "Album=%albumtitle%" -T "Date=%year%" -T "Tracknumber=%tracknr%" -T "Comment=%comment%" %source%


TOC извлечённого CD

Трек | Старт | Длительность | Начальный сектор | Конечный сектор
––––––––––––––––––––––––––––––––––-
1 | 0:00.00 | 5:49.48 | 0 | 26222
2 | 5:49.48 | 5:44.55 | 26223 | 52077
3 | 11:34.28 | 5:15.25 | 52078 | 75727
4 | 16:49.53 | 4:45.45 | 75728 | 97147
5 | 21:35.23 | 4:38.53 | 97148 | 118050
6 | 26:14.01 | 4:35.05 | 118051 | 138680
7 | 30:49.06 | 6:08.45 | 138681 | 166325
8 | 36:57.51 | 4:00.62 | 166326 | 184387
9 | 40:58.38 | 4:54.62 | 184388 | 206499
10 | 45:53.25 | 3:30.15 | 206500 | 222264
11 | 49:23.40 | 0:40.22 | 222265 | 225286
12 | 50:03.62 | 3:30.20 | 225287 | 241056
13 | 53:34.07 | 5:14.35 | 241057 | 264641


Трек 1

Имя файла C:\Шахматы\2008.Toninho Horta - To Jobim With Love\01. Agua de Beber.wav

Длина предзазора 0:00:02.00

Пиковый уровень 96.4 %
Скорость извлечения 2.1 X
Качество трека 100.0 %
CRC теста 4430E98C
CRC копии 4430E98C
Точность не определена (достоверность 3) [5F737E7E], AccurateRip вернул [456B65F9] (AR v2)
Копирование… OK

Трек 2

Имя файла C:\Шахматы\2008.Toninho Horta - To Jobim With Love\02. Portrait In Black and White.wav

Пиковый уровень 95.0 %
Скорость извлечения 2.4 X
Качество трека 100.0 %
CRC теста 9349E102
CRC копии 9349E102
Точность не определена (достоверность 3) [3A3BB09F], AccurateRip вернул [943C6CBF] (AR v2)
Копирование… OK

Трек 3

Имя файла C:\Шахматы\2008.Toninho Horta - To Jobim With Love\03. If Everyone Was Like You (Se Todos Fossem Iguais A Vocђ).wav

Пиковый уровень 93.2 %
Скорость извлечения 2.7 X
Качество трека 100.0 %
CRC теста 84DDB786
CRC копии 84DDB786
Точность не определена (достоверность 3) [767F96D0], AccurateRip вернул [70BCAD67] (AR v2)
Копирование… OK

Трек 4

Имя файла C:\Шахматы\2008.Toninho Horta - To Jobim With Love\04. From Ton to Tom (Silent Song).wav

Пиковый уровень 95.7 %
Скорость извлечения 2.9 X
Качество трека 100.0 %
CRC теста A53F07E6
CRC копии A53F07E6
Точность не определена (достоверность 3) [F19D3445], AccurateRip вернул [33DC776D] (AR v2)
Копирование… OK

Трек 5

Имя файла C:\Шахматы\2008.Toninho Horta - To Jobim With Love\05. Cristiana.wav

Пиковый уровень 95.7 %
Скорость извлечения 3.1 X
Качество трека 100.0 %
CRC теста 9E47721A
CRC копии 9E47721A
Точность не определена (достоверность 3) [F0D28FC7], AccurateRip вернул [BEE9F7D0] (AR v2)
Копирование… OK

Трек 6

Имя файла C:\Шахматы\2008.Toninho Horta - To Jobim With Love\06. Meditation (MeditaЌ‹o).wav

Пиковый уровень 95.8 %
Скорость извлечения 3.2 X
Качество трека 100.0 %
CRC теста 7CCC0E94
CRC копии 7CCC0E94
Точность не определена (достоверность 3) [C48AC186], AccurateRip вернул [EA701B38] (AR v2)
Копирование… OK

Трек 7

Имя файла C:\Шахматы\2008.Toninho Horta - To Jobim With Love\07. No More Blues (Chega de Saudade).wav

Пиковый уровень 96.7 %
Скорость извлечения 3.5 X
Качество трека 100.0 %
CRC теста 1A21B6E4
CRC копии 1A21B6E4
Точность не определена (достоверность 3) [F8F3401F], AccurateRip вернул [ACCA363C] (AR v2)
Копирование… OK

Трек 8

Имя файла C:\Шахматы\2008.Toninho Horta - To Jobim With Love\08. Infinite Love.wav

Пиковый уровень 95.1 %
Скорость извлечения 3.5 X
Качество трека 100.0 %
CRC теста 67CC1613
CRC копии 67CC1613
Точность не определена (достоверность 3) [3B17F4C0], AccurateRip вернул [AEFA6AAD] (AR v2)
Копирование… OK

Трек 9

Имя файла C:\Шахматы\2008.Toninho Horta - To Jobim With Love\09. Promises I Made (Promessas Que Eu Fiz).wav

Пиковый уровень 98.8 %
Скорость извлечения 3.3 X
Качество трека 99.9 %
CRC теста 4F63815A
CRC копии 4F63815A
Точность не определена (достоверность 3) [C6A92FD3], AccurateRip вернул [08E3E7B8] (AR v2)
Копирование… OK

Трек 10

Имя файла C:\Шахматы\2008.Toninho Horta - To Jobim With Love\10. Modinha.wav

Пиковый уровень 87.9 %
Скорость извлечения 3.7 X
Качество трека 100.0 %
CRC теста 00583518
CRC копии 00583518
Точность не определена (достоверность 3) [34D9B797], AccurateRip вернул [B198E1DC] (AR v2)
Копирование… OK

Трек 11

Имя файла C:\Шахматы\2008.Toninho Horta - To Jobim With Love\11. The Girl From Ipanema -Vignette-.wav

Пиковый уровень 38.3 %
Скорость извлечения 2.2 X
Качество трека 100.0 %
CRC теста EE19A434
CRC копии EE19A434
Точность не определена (достоверность 3) [760BD2E7], AccurateRip вернул [5B013B89] (AR v2)
Копирование… OK

Трек 12

Имя файла C:\Шахматы\2008.Toninho Horta - To Jobim With Love\12. Without You (Sem Vocђ).wav

Пиковый уровень 95.0 %
Скорость извлечения 3.8 X
Качество трека 100.0 %
CRC теста C023CF0A
CRC копии C023CF0A
Точность не определена (достоверность 3) [7F66459A], AccurateRip вернул [73ED9D37] (AR v2)
Копирование… OK

Трек 13

Имя файла C:\Шахматы\2008.Toninho Horta - To Jobim With Love\13. Desafinado.wav

Пиковый уровень 94.7 %
Скорость извлечения 4.1 X
Качество трека 100.0 %
CRC теста 5DE3E609
CRC копии 5DE3E609
Точность не определена (достоверность 3) [B1F63060], AccurateRip вернул [7E0535DD] (AR v2)
Копирование… OK


Ни один трек не прошёл проверки на точность
В вашей базе может быть иной вариант штамповки диска

Ошибок не произошло

Конец отчёта

==== Контрольная сумма отчёта 18164BD3017211AB73FDD644645AD31B0A6A5884A155F661B9D473370D02E557 ====


––––––––––––––––––––––––––––––––––––––––
Analyzed: Toninho Horta / To Jobim With Love
––––––––––––––––––––––––––––––––––––––––

DR Peak RMS Duration Track
––––––––––––––––––––––––––––––––––––––––
DR8 -0.31 dB -9.57 dB 5:50 01-Agua de Beber
DR7 -0.44 dB -9.00 dB 5:45 02-Portrait In Black and White
DR8 -0.61 dB -10.62 dB 5:15 03- If Everyone Was Like You (Se Todos Fossem Iguais A Vocђ)
DR8 -0.37 dB -9.98 dB 4:46 04- From Ton to Tom (Silent Song)
DR8 -0.38 dB -9.89 dB 4:39 05-Cristiana
DR6 -0.37 dB -8.30 dB 4:35 06-Meditation (MeditaЌ‹o)
DR7 -0.29 dB -9.42 dB 6:09 07- No More Blues (Chega de Saudade)
DR7 -0.43 dB -10.31 dB 4:01 08- Infinite Love
DR7 -0.10 dB -9.93 dB 4:55 09-Promises I Made (Promessas Que Eu Fiz)
DR10 -1.12 dB -14.71 dB 3:30 10- Modinha
DR9 -8.33 dB -21.46 dB 0:40 11-The Girl From Ipanema -Vignette-
DR7 -0.44 dB -9.87 dB 3:30 12-Without You (Sem Vocђ)
DR8 -0.47 dB -9.86 dB 5:14 13- Desafinado
––––––––––––––––––––––––––––––––––––––––

Number of tracks: 13
Official DR value: DR8

Samplerate: 44100 Hz
Channels: 2
Bits per sample: 16
Bitrate: 969 kbps
Codec: FLAC
================================================================================

Toninho Horta ‎– To Jobim With Love (2008) {Resonance}
Toninho Horta ‎– To Jobim With Love (2008) {Resonance}
Toninho Horta ‎– To Jobim With Love (2008) {Resonance}


Thanks to the original ripper