Subcategories

Tony Bennett - Duets II (2011) {Japanese Edition}

Posted By: popsakov
Tony Bennett - Duets II (2011) {Japanese Edition}

Tony Bennett - Duets II (2011) {Japanese Edition}
EAC Rip | FLAC (Img) + Cue + Log ~ 421 Mb | MP3 CBR320 ~ 166 Mb
Full Scans ~ 90 Mb | 01:09:04 | RAR 5% Recovery
Vocal Pop / Vocal Jazz / American Popular Song / Standards
Sony Music Japan International Inc. #SICP 3528

Tony Bennett’s first album of celebrity duets (2006's Duets: An American Classic) featured an impressive cast of superstars answering the call from the dean of pop vocalists, but the arrangements were overly safe – virtually all of them ballads with soft strings or brassy finger-snappers. Duets II follows the first by five years and features, surprisingly, a cast just as star-laden, but also arrangements that are much more dynamic, and suitable for each song and its participants. (Marion Evans, a veteran whose career goes back nearly as far as Bennett's, handles the charts for a few of the best here.) Bennett, as ever in splendid voice and impeccable groove, laughs and trades lines with stars half his age (like John Mayer), or in the case of Lady Gaga, six decades younger, and clearly makes them so comfortable in this setting that it would be easy to believe that jazz vocals were their home. Standard fare yields standard results for the likes of Michael Bublé and Josh Groban, but all of these songs have something to contribute. Bennett is especially tender and expressive with k.d. lang on "Blue Velvet" (the two had already collaborated on a full album), and he clearly enjoys his pairing with Willie Nelson for "On the Sunny Side of the Street." (Nelson takes a guitar solo, and shows some of the vocal shadings that during the '60s made him as expressive a vocalist as Bennett.) The album wisely covers all bases, including stars of country music (Carrie Underwood, Faith Hill), R&B (Mariah Carey, Aretha Franklin, Amy Winehouse), and one-shots for rock & roll (Sheryl Crow), Latin music (Alejandro Sanz), and classical (Andrea Bocelli). Celebrity musical pairings rarely lead to innovation or excitement, but Duets II is an enjoyable celebration of what Tony Bennett has meant to pop music, and what he can bring out in any star vocalist he steps up to the microphone with.

~ John Bush, All Music

***************

Tony Bennett - Duets II (2011) {Japanese Edition}

Track List:

01. The Lady Is A Tramp (duet with Lady Gaga) [0:03:18.18]
02. One For My Baby (And One More For The Road) (duet with John Mayer) [0:02:58.14]
03. Body And Soul (duet with Amy Winehouse) [0:03:23.13]
04. Don't Get Around Much Anymor (duet with Michael Buble) [0:02:41.66]
05. Blue Velvet (duet with k.d. lang) [0:04:35.14]
06. How Do You Keep The Music Playing (duet with Aretha Franklin) [0:05:28.71]
07. The Girl I Love (duet with Sheryl Crow) [0:03:53.05]
08. One The Sunny Side Of The Street 9duet with Willie Nelson) [0:02:57.23]
09. Who Can I Turn To (When Nobody Needs Me) (duet with Queen Latifah) [0:03:53.30]
10. Speak Low (duet with Norah Jones) [0:03:56.31]
11. This Is All I Ask (duet with Josh Groban) [0:04:36.30]
12. Watch What Happenes (duet with Natalie Cole) [0:02:09.72]
13. Stranger In Paradise (duet with Andrea Bocelli) [0:05:03.02]
14. The Way You Look Tonight (duet with Faith Hill) [0:03:55.04]
15. Yesterday I Heard The Rain (duet with Alejandro Sanz) [0:03:44.34]
16. It Had To Be You (duet with Carrie Underwood) [0:03:51.30]
17. When DO THe Bells Ring For Me (duet with Mariah Carey) [0:02:52.28]
18. When You Wish Upon A Star (duet with Jackie Evancho) [0:03:43.30]
19. I Left My Heart In San Francisco (duet with Judy Garland) [0:02:01.69]

Exact Audio Copy V1.3 from 2. September 2016

EAC extraction logfile from 21. November 2019, 0:07

Tony Bennett / Duets II

Used drive : PIONEER DVD-RW DVR-220L Adapter: 1 ID: 0

Read mode : Secure
Utilize accurate stream : Yes
Defeat audio cache : Yes
Make use of C2 pointers : No

Read offset correction : 6
Overread into Lead-In and Lead-Out : No
Fill up missing offset samples with silence : Yes
Delete leading and trailing silent blocks : No
Null samples used in CRC calculations : Yes
Used interface : Installed external ASPI interface

Used output format : User Defined Encoder
Selected bitrate : 1024 kBit/s
Quality : High
Add ID3 tag : No
Command line compressor : C:\Program Files (x86)\Exact Audio Copy\Flac\flac.exe
Additional command line options : -6 -V -T "ARTIST=%artist%" -T "TITLE=%title%" -T "ALBUM=%albumtitle%" -T "DATE=%year%" -T "TRACKNUMBER=%tracknr%" -T "GENRE=%genre%" -T "COMMENT=%comment%" -T "BAND=%albuminterpret%" -T "ALBUMARTIST=%albuminterpret%" -T "COMPOSER=%composer%" %haslyrics%–tag-from-file=LYRICS="%lyricsfile%"%haslyrics% -T "DISCNUMBER=%cdnumber%" -T "TOTALDISCS=%totalcds%" -T "TOTALTRACKS=%numtracks%" %hascover%–picture="%coverfile%"%hascover% %source% -o %dest%


TOC of the extracted CD

Track | Start | Length | Start sector | End sector
––––––––––––––––––––––––––––-
1 | 0:00.00 | 3:18.18 | 0 | 14867
2 | 3:18.18 | 2:58.14 | 14868 | 28231
3 | 6:16.32 | 3:23.13 | 28232 | 43469
4 | 9:39.45 | 2:41.66 | 43470 | 55610
5 | 12:21.36 | 4:35.14 | 55611 | 76249
6 | 16:56.50 | 5:28.71 | 76250 | 100920
7 | 22:25.46 | 3:53.05 | 100921 | 118400
8 | 26:18.51 | 2:57.23 | 118401 | 131698
9 | 29:15.74 | 3:53.30 | 131699 | 149203
10 | 33:09.29 | 3:56.31 | 149204 | 166934
11 | 37:05.60 | 4:36.30 | 166935 | 187664
12 | 41:42.15 | 2:09.72 | 187665 | 197411
13 | 43:52.12 | 5:03.02 | 197412 | 220138
14 | 48:55.14 | 3:55.04 | 220139 | 237767
15 | 52:50.18 | 3:44.34 | 237768 | 254601
16 | 56:34.52 | 3:51.30 | 254602 | 271956
17 | 60:26.07 | 2:52.28 | 271957 | 284884
18 | 63:18.35 | 3:43.30 | 284885 | 301639
19 | 67:01.65 | 2:01.69 | 301640 | 310783


Range status and errors

Selected range

Filename C:\mm\Tony Bennett\2011 - Duets 2 [SICP 3528]\Tony Bennett - Duets II.wav

Peak level 100.0 %
Extraction speed 8.4 X
Range quality 100.0 %
Test CRC DC430AE4
Copy CRC DC430AE4
Copy OK

No errors occurred


AccurateRip summary

Track 1 accurately ripped (confidence 18) [187FAE44] (AR v2)
Track 2 accurately ripped (confidence 20) [68D2A6BE] (AR v2)
Track 3 accurately ripped (confidence 20) [145E0FA3] (AR v2)
Track 4 accurately ripped (confidence 20) [23F9FB51] (AR v2)
Track 5 accurately ripped (confidence 20) [78AFCF08] (AR v2)
Track 6 accurately ripped (confidence 19) [8C395D68] (AR v2)
Track 7 accurately ripped (confidence 20) [9340E9AB] (AR v2)
Track 8 accurately ripped (confidence 20) [8D681D59] (AR v2)
Track 9 accurately ripped (confidence 20) [3E3C3536] (AR v2)
Track 10 accurately ripped (confidence 20) [E5BD2AAF] (AR v2)
Track 11 accurately ripped (confidence 20) [21C0BA9C] (AR v2)
Track 12 accurately ripped (confidence 20) [CAA6DB48] (AR v2)
Track 13 accurately ripped (confidence 20) [8A4358C0] (AR v2)
Track 14 accurately ripped (confidence 20) [4148AFFD] (AR v2)
Track 15 accurately ripped (confidence 20) [6E5698BA] (AR v2)
Track 16 accurately ripped (confidence 20) [35C63BFD] (AR v2)
Track 17 accurately ripped (confidence 20) [4442C4D3] (AR v2)
Track 18 accurately ripped (confidence 20) [4BD85972] (AR v2)
Track 19 accurately ripped (confidence 20) [8DB97DDB] (AR v2)

All tracks accurately ripped

End of status report

[CUETools log; Date: 05.12.2019 14:56:31; Version: 2.1.6]
[CTDB TOCID: CePjl7jpYrc6SYbItTrz2BWvr_c-] found.
Track | CTDB Status
1 | (48/48) Accurately ripped
2 | (48/48) Accurately ripped
3 | (48/48) Accurately ripped
4 | (48/48) Accurately ripped
5 | (48/48) Accurately ripped
6 | (48/48) Accurately ripped
7 | (48/48) Accurately ripped
8 | (48/48) Accurately ripped
9 | (48/48) Accurately ripped
10 | (48/48) Accurately ripped
11 | (48/48) Accurately ripped
12 | (48/48) Accurately ripped
13 | (48/48) Accurately ripped
14 | (47/48) Accurately ripped
15 | (48/48) Accurately ripped
16 | (47/48) Accurately ripped
17 | (48/48) Accurately ripped
18 | (47/48) Accurately ripped
19 | (40/48) Accurately ripped, or (2/48) differs in 146 samples @02:01:54
[AccurateRip ID: 00301a3b-02a5f12c-07102f13] found.
Track [ CRC | V2 ] Status
01 [e1586f6d|187fae44] (00+18/18) Accurately ripped
02 [928b44d1|68d2a6be] (00+20/20) Accurately ripped
03 [41f67f1b|145e0fa3] (00+20/20) Accurately ripped
04 [1c8c1c2b|23f9fb51] (00+20/20) Accurately ripped
05 [127e41eb|78afcf08] (00+20/20) Accurately ripped
06 [98cd043d|8c395d68] (00+19/19) Accurately ripped
07 [15b0c2d0|9340e9ab] (00+20/20) Accurately ripped
08 [a17f84c7|8d681d59] (00+20/20) Accurately ripped
09 [5311107d|3e3c3536] (00+20/20) Accurately ripped
10 [593974d1|e5bd2aaf] (00+20/20) Accurately ripped
11 [7d9c3ff0|21c0ba9c] (00+20/20) Accurately ripped
12 [118bf4e7|caa6db48] (00+20/20) Accurately ripped
13 [fbe13ca8|8a4358c0] (00+20/20) Accurately ripped
14 [44e850c9|4148affd] (00+20/20) Accurately ripped
15 [997a0edb|6e5698ba] (00+20/20) Accurately ripped
16 [ba4c0f51|35c63bfd] (00+20/20) Accurately ripped
17 [149635da|4442c4d3] (00+20/20) Accurately ripped
18 [25cb5d66|4bd85972] (00+20/20) Accurately ripped
19 [cdda966c|8db97ddb] (00+20/20) Accurately ripped

Track Peak [ CRC32 ] [W/O NULL] [ LOG ]
– 100,0 [DC430AE4] [A24A4A27] CRC32
01 100,0 [12AA703F] [3DF4F06C]
02 100,0 [F24A8C10] [4C21AF94]
03 98,9 [1C2CDA07] [559C65B8]
04 100,0 [8C08255A] [D41F9369]
05 99,0 [070CB789] [628BCF56]
06 98,9 [0A5F7A14] [2AC8B93D]
07 99,4 [779F99C1] [4DFF4503]
08 100,0 [0E19BD31] [5CAA57F6]
09 99,6 [6874016D] [C2AE2694]
10 99,4 [AB3DE547] [461212CC]
11 98,8 [94CBF5B7] [3EE1FF90]
12 100,0 [3378A462] [DFAB87CA]
13 99,1 [046FC065] [BF44C78F]
14 98,8 [7161D857] [AC3E73FA]
15 98,9 [662758ED] [D3EA3366]
16 99,0 [35B7A676] [42096675]
17 99,9 [7C6B2339] [FD8BD40D]
18 99,6 [FEEA2B3B] [9669DF52]
19 90,8 [0E0E1052] [ADC9CBD0]

Tony Bennett - Duets II (2011) {Japanese Edition}


All thanks go to sergych

>>> Tony Bennett in my Blog <<<

DOWNLOAD: