Subcategories

Tony Carey - Some Tough City (1984) [Renaissance Records RMED-0354, USA]

Posted By: v3122
Tony Carey - Some Tough City (1984) [Renaissance Records RMED-0354, USA]

Tony Carey - Some Tough City (1984)
EAC | Flac(Image) + Cue + Log & MP3 CBR 320Kbps
2008 | Renaissance Records RMED-0354 | ~ 320 or 113 Mb | Scans(jpg) -> 19 Mb
Pop Rock, Hard Rock, Arena Rock

Former Rainbow keyboardist and Planet P vocalist Tony Carey became a solo star in Germany. The California native had some U.S. success in 1984 with Some Tough City. It yielded two Top 40 hits in "A Fine Fine Day" and "The First Day of Summer." Carey plays virtually every note except for drums, the guitar solos, and a couple of saxophone breaks. His keyboard work in particular is tasteful, efficient, and melodic. Some Tough City is a strong effort. It's a loose concept album and the songs are individual stories about the struggle of down-and-out people trying – and often failing – to make better lives for themselves in big cities like New York and Los Angeles. "A Fine Fine Day" is a majestic rocker with a powerful chorus; the lyrics about mysterious Uncle Sonny's troubles are cleverly vague. "A Lonely Life" seems to profile a drug dealer and junkie, although a pimp and prostitute are possibilities. "Eddie Goes Underground" is an infectious rocker with disturbing lyrics about a statutory rapist on the run from the law. "The First Day of Summer" is deceptive in its bright sound because the song is about two runaway delinquents; the narrator is left behind to work as a hotel dish washer when his friend steals their car and leaves. The high-energy song "Tinseltown" tells how Hollywood eats up dreamers who want to be stars. "I Can Stop the World" is a ballad, but it's not wimpy. "Some Tough City" addresses poverty in the United States. The more traditional ballad "She Can Bring Me Love" is a Springsteen-esque tale of a young working-class couple relying on their love to get through hard times.

by Bret Adams, allmusic
Tony Carey - Some Tough City (1984):

Tony Carey - Some Tough City (1984) [Renaissance Records RMED-0354, USA]

Tracklist:

01. A Fine, Fine Day 04:25
02. A Lonely Life 04:53
03. Eddie Goes Underground 04:14
04. The First Day Of Summer 03:45
05. Reach Out 03:13
06. Say It's All Over 04:03
07. Tinseltown 04:50
08. Hungry 04:31
09. I Can Stop The World 03:23
10. Some Tough City 04:41
11. She Can Bring Me Love 04:45

Exact Audio Copy V1.0 beta 3 from 29. August 2011

Отчёт EAC об извлечении, выполненном 24. апреля 2015, 15:58

Tony Carey / Some Tough City

Дисковод: hp DVD-RAM UJ8B1 Adapter: 0 ID: 0

Режим чтения : Достоверность
Использование точного потока : Да
Отключение кэша аудио : Да
Использование указателей C2 : Нет

Коррекция смещения при чтении : 6
Способность читать области Lead-in и Lead-out : Нет
Заполнение пропущенных сэмплов тишиной : Да
Удаление блоков с тишиной в начале и конце : Нет
При вычислениях CRC использовались нулевые сэмплы : Да
Интерфейс : Встроенный Win32-интерфейс для Win NT/2000

Выходной формат : Пользовательский кодировщик
Выбранный битрейт : 128 kBit/s
Качество : Высокий
Добавление ID3-тега : Нет
Утилита сжатия : C:\Program Files (x86)\Exact Audio Copy\Flac\flac.exe
Дополнительные параметры : -V -8 -T "Date=%year%" -T "Genre=%genre%" %source%


TOC извлечённого CD

Трек | Старт | Длительность | Начальный сектор | Конечный сектор
––––––––––––––––––––––––––––––––––-
1 | 0:00.00 | 4:25.45 | 0 | 19919
2 | 4:25.45 | 4:53.60 | 19920 | 41954
3 | 9:19.30 | 4:14.10 | 41955 | 61014
4 | 13:33.40 | 3:45.00 | 61015 | 77889
5 | 17:18.40 | 3:13.35 | 77890 | 92399
6 | 20:32.00 | 4:03.42 | 92400 | 110666
7 | 24:35.42 | 4:50.18 | 110667 | 132434
8 | 29:25.60 | 4:31.37 | 132435 | 152796
9 | 33:57.22 | 3:23.00 | 152797 | 168021
10 | 37:20.22 | 4:41.15 | 168022 | 189111
11 | 42:01.37 | 4:45.08 | 189112 | 210494


Характеристики диапазона извлечения и сообщения об ошибках

Выбранный диапазон

Имя файла E:\РАЗДАЧИ\Папки\Tony Carey-Some Tough City\Tony Carey - Some Tough City.wav

Пиковый уровень 100.0 %
Скорость извлечения 4.1 X
Качество диапазона 100.0 %
CRC теста 5ACFBA34
CRC копии 5ACFBA34
Копирование… OK

Ошибок не произошло


AccurateRip: сводка

Трек 1 : извлечено точно (доверие 2) [A6E8F502] (AR v2)
Трек 2 : извлечено точно (доверие 2) [88CA64E4] (AR v2)
Трек 3 : извлечено точно (доверие 2) [8CF8BD7D] (AR v2)
Трек 4 : извлечено точно (доверие 2) [74F0CE88] (AR v2)
Трек 5 : извлечено точно (доверие 2) [471726D7] (AR v2)
Трек 6 : извлечено точно (доверие 2) [A3895DBD] (AR v2)
Трек 7 : извлечено точно (доверие 2) [31DBDF20] (AR v2)
Трек 8 : извлечено точно (доверие 2) [77DC3771] (AR v2)
Трек 9 : извлечено точно (доверие 2) [7F300A3F] (AR v2)
Трек 10 : извлечено точно (доверие 2) [E00C21C3] (AR v2)
Трек 11 : извлечено точно (доверие 2) [F16D8EB4] (AR v2)

Все треки извлечены точно

Конец отчёта

==== Контрольная сумма отчёта B11AF00ABA44EC49719797260A35CFDDFA1EBFD77B01248A0348F3DFDF1508D5 ====


[CUETools log; Date: 28.04.2015 12:42:02; Version: 2.1.4]
[CTDB TOCID: sCz0fUOeV60FvgrJBQZw6x6PBCw-] found.
Track | CTDB Status
1 | (0/8) No match
2 | (0/8) No match
3 | (0/8) No match
4 | (0/8) No match
5 | (0/8) No match
6 | (0/8) No match
7 | (0/8) No match
8 | (0/8) No match
9 | (0/8) No match
10 | (0/8) No match
11 | (0/8) No match
[AccurateRip ID: 00132d04-00a58c32-860af60b] found.
Track [ CRC | V2 ] Status
01 [50f5ee17|a6e8f502] (00+02/27) Accurately ripped
02 [c2b85f36|88ca64e4] (00+02/27) Accurately ripped
03 [ba656ea8|8cf8bd7d] (00+02/27) Accurately ripped
04 [524759f6|74f0ce88] (00+02/27) Accurately ripped
05 [9f8fc60c|471726d7] (00+02/27) Accurately ripped
06 [bdd23dbb|a3895dbd] (00+02/27) Accurately ripped
07 [f3b6daa0|31dbdf20] (00+02/26) Accurately ripped
08 [4fbf28dd|77dc3771] (00+02/27) Accurately ripped
09 [bb4fc486|7f300a3f] (00+02/27) Accurately ripped
10 [9f074c2c|e00c21c3] (00+02/26) Accurately ripped
11 [231225d1|f16d8eb4] (00+02/26) Accurately ripped
Offsetted by 48:
01 [4fdf8ab3] (03/27) Accurately ripped
02 [ce96e3cb] (03/27) Accurately ripped
03 [26147d4d] (03/27) Accurately ripped
04 [1a5af3f5] (03/27) Accurately ripped
05 [5dd7210b] (03/27) Accurately ripped
06 [5242a5a0] (03/27) Accurately ripped
07 [097c15fc] (03/26) Accurately ripped
08 [9d8ab29e] (03/27) Accurately ripped
09 [813bf43a] (03/27) Accurately ripped
10 [97768d25] (03/26) Accurately ripped
11 [a5a7336f] (03/26) Accurately ripped

Track Peak [ CRC32 ] [W/O NULL] [ LOG ]
– 100,0 [5ACFBA34] [EECFDE4A] CRC32
01 94,4 [830584E4] [2C08625B]
02 94,4 [CFA947C9] [C34A7CD6]
03 94,4 [61B3C1D0] [E1A91D19]
04 94,4 [7FC637EC] [FE71E5D1]
05 100,0 [2E0130D0] [B6C58785]
06 92,2 [FCCDD8D4] [D207ED41]
07 94,4 [96AC79C6] [F038D97C]
08 94,4 [1BDB0AF3] [D0B5346E]
09 94,4 [7944E912] [B0B51AC7]
10 94,4 [EDCA4843] [C1450382]
11 94,4 [640419F5] [8979F53D]


Tony Carey - Some Tough City (1984) [Renaissance Records RMED-0354, USA]

All thanks go to the original releaser

Tony Carey or Tony Carey in my Blog

Download Tony Carey - Some Tough City (1984):