Subcategories

Tony Williams - Believe It (1975) & Million Dollar Legs (1976) / The Joy Of Flying (1979) [2016, 2CDs, Remastered]

Posted By: BlondStyle
Tony Williams - Believe It (1975) & Million Dollar Legs (1976) / The Joy Of Flying (1979) [2016, 2CDs, Remastered]

Tony Williams - Believe It (1975) & Million Dollar Legs (1976) / The Joy Of Flying (1979) [2016, Remastered]
Jazz, Rock, Jazz-Rock, Fusion | EAC Rip | FLAC, Tracks+CUE+LOG+Scans (JPEG) | 02:17:33 h. | 1 Gb
Label: BGO Records (UK) | Cat.# BGOCD1254 | Released: 2016-11-04 (1975/1976/1979)
Tony Williams - Believe It (1975) & Million Dollar Legs (1976) / The Joy Of Flying (1979) [2016, 2CDs, Remastered]

Jazz drummer Williams' three albums for Sony, dating from 1975, 1976 and 1979. The first two feature guitarist Allan Holdsworth whilst 'Joy Of Flying' has, amongst others, George Benson, Stanley Clarke, Brian Auger, Herbie Hancock, David Sanborn and Ronnie Montrose! Williams, who played with everyone from Miles Davis to John Lydon's PIL, sadly died at the young age of 51 in 1997. Digitally remastered and slipcased. Extensive new notes.
~Amazon UK

Tony Williams - Believe It (1975) & Million Dollar Legs (1976) / The Joy Of Flying (1979) [2016, 2CDs, Remastered]

Tony Williams - Believe It (1975) & Million Dollar Legs (1976) / The Joy Of Flying (1979) [2016, 2CDs, Remastered]

Tony Williams - Believe It (1975) & Million Dollar Legs (1976) / The Joy Of Flying (1979) [2016, 2CDs, Remastered]

Release of this 2CDs Set: 2016, November, 4 [CD BGO Records (UK), Cat.# BGOCD1254 / UPC: 5017261212542]
All tracks from "Believe it" ℗ 1975 Sony Music Entertainment. All bonus tracks ℗ 2004 Sony Music Entertainment.
All tracks from "Million Dollar Legs" ℗ 1976 Sony Music Entertainment.
All tracks from "The Joy Of Flying" ℗ 1979 Sony Music Entertainment.
This compilation ℗ 2016 Sony Music Entertainment UK Limited.
© 2016 BGO Records.
Licensed from Sony Music Entertainment UK Limited.
Distributed in the UK by Proper Music Distribution.
Made in Great Britain.


Notes: Digitally Remastered from the Original Tapes.
Due to time limitations of the individual discs, BGO have split "Million Dollar Legs" across Disc 1 and Disc 2 at the point where Side 1 ended and Side 2 began on the original vinyl and thus producing a natural break.

Tony Williams - Believe It (1975) & Million Dollar Legs (1976) / The Joy Of Flying (1979) [2016, 2CDs, Remastered]

Personnel:

"Believe It" (1975) & "Million Dollar Legs" (1976)
Allan Holdsworth – Guitar
Alan Pasqua – Keyboards
Tony Newton – Bass
Tony Williams – Drums


"Joy Of Flying" (1979)
George Benson - Guitar
Herbie Hancock, Jan Hammer, Brian Auger, Tom Scott - Keyboards
Stanley Clarke, Paul Jackson, Mario Cipollina - Bass
Michael Brecker - Saxophone
Ronnie Montrose - Guitar
David Sanborn - Alto saxophone
Ronnie Cuber - Baritone saxophone
Barry Rogers - Trombone
Randy Brecker - Trumpet
Ralph MacDonald - Percussion
Jon Faddis - Trumpet
Cecil Taylor - Piano


Tracklist:

Disc 1:

"Believe It" (1975)
01. Snake Oil
02. Fred
03. Proto-Cosmos
04. Red Alert
05. Wildlife
06. Mr. Spock
Bonus Tracks
07. Celebration
08. Letsby

"Million Dollar Legs" (1976)
09. Sweet Revenge
10. You Did It to Me
11. Million Dollar Legs
12. Joy Filled Summer

Disc 2:

"Million Dollar Legs" (1976)
01. Lady Jade
02. What You Do to Me
03. Inspirations of Love

"Joy Of Flying" (1979)
04. Going Far
05. Hip Skip
06. Hittin' on 6
07. Open Fire
08. Tony
09. Eris
10. Coming Back Home
11. Morgan's Motion

Exact Audio Copy V1.2 from 12. August 2016

EAC extraction logfile from 27. April 2018, 12:19

Williams, Tony / The Tony Williams Lifetime: Believe It - Million Dollar Legs - The Joy Of Flying

Used drive : HL-DT-STDVDRAM AP70NS50 Adapter: 1 ID: 1

Read mode : Secure
Utilize accurate stream : Yes
Defeat audio cache : Yes
Make use of C2 pointers : No

Read offset correction : 6
Overread into Lead-In and Lead-Out : No
Fill up missing offset samples with silence : Yes
Delete leading and trailing silent blocks : No
Null samples used in CRC calculations : Yes
Used interface : Native Win32 interface for Win NT & 2000
Gap handling : Not detected, thus appended to previous track

Used output format : Internal WAV Routines
Sample format : 44.100 Hz; 16 Bit; Stereo


TOC of the extracted CD

Track | Start | Length | Start sector | End sector
––––––––––––––––––––––––––––-
1 | 0:00.00 | 6:28.10 | 0 | 29109
2 | 6:28.10 | 6:46.52 | 29110 | 59611
3 | 13:14.62 | 4:01.64 | 59612 | 77750
4 | 17:16.51 | 4:37.33 | 77751 | 98558
5 | 21:54.09 | 5:21.27 | 98559 | 122660
6 | 27:15.36 | 6:15.40 | 122661 | 150825
7 | 33:31.01 | 4:02.54 | 150826 | 169029
8 | 37:33.55 | 6:37.26 | 169030 | 198830
9 | 44:11.06 | 6:03.41 | 198831 | 226096
10 | 50:14.47 | 3:50.68 | 226097 | 243414
11 | 54:05.40 | 6:37.16 | 243415 | 273205
12 | 60:42.56 | 5:51.51 | 273206 | 299581


Track 1

Filename C:\Users\Stan.Stan-PC\Music\[Lossless]\Tony Williams\2016 (1975) Believe It - (1976) Million Dollar Legs - (1979) Joy Of Flying\CD 1\01 Snake Oil.wav

Peak level 92.2 %
Extraction speed 2.5 X
Track quality 100.0 %
Copy CRC 0B0ABE39
Accurately ripped (confidence 4) [50F63FEA] (AR v2)
Copy OK

Track 2

Filename C:\Users\Stan.Stan-PC\Music\[Lossless]\Tony Williams\2016 (1975) Believe It - (1976) Million Dollar Legs - (1979) Joy Of Flying\CD 1\02 Fred.wav

Peak level 92.2 %
Extraction speed 1.4 X
Track quality 99.9 %
Copy CRC FF686D4C
Accurately ripped (confidence 4) [ECDC3661] (AR v2)
Copy OK

Track 3

Filename C:\Users\Stan.Stan-PC\Music\[Lossless]\Tony Williams\2016 (1975) Believe It - (1976) Million Dollar Legs - (1979) Joy Of Flying\CD 1\03 Proto-Cosmos.wav

Peak level 92.2 %
Extraction speed 1.6 X
Track quality 100.0 %
Copy CRC 80C4AA34
Accurately ripped (confidence 4) [FC8F0E99] (AR v2)
Copy OK

Track 4

Filename C:\Users\Stan.Stan-PC\Music\[Lossless]\Tony Williams\2016 (1975) Believe It - (1976) Million Dollar Legs - (1979) Joy Of Flying\CD 1\04 Red Alert.wav

Peak level 92.2 %
Extraction speed 1.7 X
Track quality 100.0 %
Copy CRC 22C9D87E
Accurately ripped (confidence 4) [D5FAB787] (AR v2)
Copy OK

Track 5

Filename C:\Users\Stan.Stan-PC\Music\[Lossless]\Tony Williams\2016 (1975) Believe It - (1976) Million Dollar Legs - (1979) Joy Of Flying\CD 1\05 Wildlife.wav

Peak level 87.0 %
Extraction speed 1.7 X
Track quality 99.9 %
Copy CRC 0FACB74A
Accurately ripped (confidence 4) [BFA0B4BF] (AR v2)
Copy OK

Track 6

Filename C:\Users\Stan.Stan-PC\Music\[Lossless]\Tony Williams\2016 (1975) Believe It - (1976) Million Dollar Legs - (1979) Joy Of Flying\CD 1\06 Mr. Spock.wav

Peak level 88.1 %
Extraction speed 2.0 X
Track quality 100.0 %
Copy CRC 0CEAA922
Accurately ripped (confidence 4) [74C63043] (AR v2)
Copy OK

Track 7

Filename C:\Users\Stan.Stan-PC\Music\[Lossless]\Tony Williams\2016 (1975) Believe It - (1976) Million Dollar Legs - (1979) Joy Of Flying\CD 1\07 Celebration.wav

Peak level 50.1 %
Extraction speed 2.0 X
Track quality 100.0 %
Copy CRC 988DB290
Accurately ripped (confidence 4) [4513BDEC] (AR v2)
Copy OK

Track 8

Filename C:\Users\Stan.Stan-PC\Music\[Lossless]\Tony Williams\2016 (1975) Believe It - (1976) Million Dollar Legs - (1979) Joy Of Flying\CD 1\08 Letsby.wav

Peak level 61.6 %
Extraction speed 2.2 X
Track quality 100.0 %
Copy CRC 37A7EE41
Accurately ripped (confidence 4) [A8C7DEEB] (AR v2)
Copy OK

Track 9

Filename C:\Users\Stan.Stan-PC\Music\[Lossless]\Tony Williams\2016 (1975) Believe It - (1976) Million Dollar Legs - (1979) Joy Of Flying\CD 1\09 Sweet Revenge.wav

Peak level 79.4 %
Extraction speed 2.1 X
Track quality 99.9 %
Copy CRC A050B476
Accurately ripped (confidence 4) [4D1FF8E3] (AR v2)
Copy OK

Track 10

Filename C:\Users\Stan.Stan-PC\Music\[Lossless]\Tony Williams\2016 (1975) Believe It - (1976) Million Dollar Legs - (1979) Joy Of Flying\CD 1\10 You Did It To Me.wav

Peak level 85.1 %
Extraction speed 2.3 X
Track quality 100.0 %
Copy CRC 8626DE8C
Accurately ripped (confidence 4) [B111B80B] (AR v2)
Copy OK

Track 11

Filename C:\Users\Stan.Stan-PC\Music\[Lossless]\Tony Williams\2016 (1975) Believe It - (1976) Million Dollar Legs - (1979) Joy Of Flying\CD 1\11 Million Dollar Legs.wav

Peak level 82.2 %
Extraction speed 2.5 X
Track quality 100.0 %
Copy CRC B0A878AF
Accurately ripped (confidence 4) [A4DC13DD] (AR v2)
Copy OK

Track 12

Filename C:\Users\Stan.Stan-PC\Music\[Lossless]\Tony Williams\2016 (1975) Believe It - (1976) Million Dollar Legs - (1979) Joy Of Flying\CD 1\12 Joy Filled Summer.wav

Peak level 82.2 %
Extraction speed 2.6 X
Track quality 100.0 %
Copy CRC 675B933A
Accurately ripped (confidence 4) [32ACF749] (AR v2)
Copy OK


All tracks accurately ripped

No errors occurred

End of status report

–– CUETools DB Plugin V2.1.6

[CTDB TOCID: MODicOBew7NtOocM0p71LkbiXLI-] found
Submit result: MODicOBew7NtOocM0p71LkbiXLI- has been confirmed
Track | CTDB Status
1 | (6/6) Accurately ripped
2 | (6/6) Accurately ripped
3 | (6/6) Accurately ripped
4 | (6/6) Accurately ripped
5 | (6/6) Accurately ripped
6 | (6/6) Accurately ripped
7 | (6/6) Accurately ripped
8 | (6/6) Accurately ripped
9 | (6/6) Accurately ripped
10 | (6/6) Accurately ripped
11 | (6/6) Accurately ripped
12 | (6/6) Accurately ripped

––––––––––––––––––––––––––––––––––––––––
Analyzed: Williams, Tony / The Tony Williams Lifetime: Believe It - Million Dollar Legs - The Joy Of Flying
––––––––––––––––––––––––––––––––––––––––

DR Peak RMS Duration Track
––––––––––––––––––––––––––––––––––––––––
DR12 -0.70 dB -14.82 dB 6:28 01-Snake Oil
DR12 -0.70 dB -14.80 dB 6:47 02-Fred
DR13 -0.70 dB -15.14 dB 4:02 03-Proto-Cosmos
DR12 -0.70 dB -13.96 dB 4:37 04-Red Alert
DR12 -1.20 dB -14.83 dB 5:21 05-Wildlife
DR13 -1.10 dB -15.64 dB 6:16 06-Mr. Spock
DR7 -6.00 dB -14.32 dB 4:03 07-Celebration
DR8 -4.20 dB -13.73 dB 6:37 08-Letsby
DR9 -2.00 dB -12.63 dB 6:04 09-Sweet Revenge
DR9 -1.40 dB -12.27 dB 3:51 10-You Did It To Me
DR10 -1.70 dB -13.59 dB 6:37 11-Million Dollar Legs
DR9 -1.70 dB -12.43 dB 5:52 12-Joy Filled Summer
––––––––––––––––––––––––––––––––––––––––

Number of tracks: 12
Official DR value: DR10

Samplerate: 44100 Hz
Channels: 2
Bits per sample: 16
Bitrate: 1015 kbps
Codec: FLAC
================================================================================

Exact Audio Copy V1.2 from 12. August 2016

EAC extraction logfile from 27. April 2018, 13:08

Williams, Tony / The Tony Williams Lifetime: Believe It - Million Dollar Legs - The Joy Of Flying (2)

Used drive : HL-DT-STDVDRAM AP70NS50 Adapter: 1 ID: 1

Read mode : Secure
Utilize accurate stream : Yes
Defeat audio cache : Yes
Make use of C2 pointers : No

Read offset correction : 6
Overread into Lead-In and Lead-Out : No
Fill up missing offset samples with silence : Yes
Delete leading and trailing silent blocks : No
Null samples used in CRC calculations : Yes
Used interface : Native Win32 interface for Win NT & 2000
Gap handling : Not detected, thus appended to previous track

Used output format : Internal WAV Routines
Sample format : 44.100 Hz; 16 Bit; Stereo


TOC of the extracted CD

Track | Start | Length | Start sector | End sector
––––––––––––––––––––––––––––-
1 | 0:00.00 | 4:00.10 | 0 | 18009
2 | 4:00.10 | 7:07.25 | 18010 | 50059
3 | 11:07.35 | 9:49.25 | 50060 | 94259
4 | 20:56.60 | 4:17.04 | 94260 | 113538
5 | 25:13.64 | 8:07.08 | 113539 | 150071
6 | 33:20.72 | 6:20.12 | 150072 | 178583
7 | 39:41.09 | 6:19.18 | 178584 | 207026
8 | 46:00.27 | 6:53.22 | 207027 | 238023
9 | 52:53.49 | 3:31.69 | 238024 | 253917
10 | 56:25.43 | 6:08.54 | 253918 | 281571
11 | 62:34.22 | 8:24.05 | 281572 | 319376


Track 1

Filename C:\Users\Stan.Stan-PC\Music\[Lossless]\Tony Williams\2016 (1975) Believe It - (1976) Million Dollar Legs - (1979) Joy Of Flying\CD 2\01 Lady Jade.wav

Peak level 84.1 %
Extraction speed 2.7 X
Track quality 100.0 %
Copy CRC 803208E3
Accurately ripped (confidence 4) [3E781754] (AR v2)
Copy OK

Track 2

Filename C:\Users\Stan.Stan-PC\Music\[Lossless]\Tony Williams\2016 (1975) Believe It - (1976) Million Dollar Legs - (1979) Joy Of Flying\CD 2\02 What You Do To Me.wav

Peak level 84.1 %
Extraction speed 1.5 X
Track quality 100.0 %
Copy CRC A69B8056
Accurately ripped (confidence 4) [AC3CDD1B] (AR v2)
Copy OK

Track 3

Filename C:\Users\Stan.Stan-PC\Music\[Lossless]\Tony Williams\2016 (1975) Believe It - (1976) Million Dollar Legs - (1979) Joy Of Flying\CD 2\03 Inspirations Of Love.wav

Peak level 84.1 %
Extraction speed 1.8 X
Track quality 100.0 %
Copy CRC 98AB67FD
Accurately ripped (confidence 4) [4E2EE8F4] (AR v2)
Copy OK

Track 4

Filename C:\Users\Stan.Stan-PC\Music\[Lossless]\Tony Williams\2016 (1975) Believe It - (1976) Million Dollar Legs - (1979) Joy Of Flying\CD 2\04 Going Far.wav

Peak level 79.4 %
Extraction speed 1.9 X
Track quality 100.0 %
Copy CRC 41A821BA
Accurately ripped (confidence 4) [D6B17BB5] (AR v2)
Copy OK

Track 5

Filename C:\Users\Stan.Stan-PC\Music\[Lossless]\Tony Williams\2016 (1975) Believe It - (1976) Million Dollar Legs - (1979) Joy Of Flying\CD 2\05 Hip Skip.wav

Peak level 73.7 %
Extraction speed 2.1 X
Track quality 100.0 %
Copy CRC A2806572
Accurately ripped (confidence 4) [449FA3F8] (AR v2)
Copy OK

Track 6

Filename C:\Users\Stan.Stan-PC\Music\[Lossless]\Tony Williams\2016 (1975) Believe It - (1976) Million Dollar Legs - (1979) Joy Of Flying\CD 2\06 Hittin' On 6.wav

Peak level 83.1 %
Extraction speed 2.2 X
Track quality 100.0 %
Copy CRC A987F312
Accurately ripped (confidence 4) [5DED3871] (AR v2)
Copy OK

Track 7

Filename C:\Users\Stan.Stan-PC\Music\[Lossless]\Tony Williams\2016 (1975) Believe It - (1976) Million Dollar Legs - (1979) Joy Of Flying\CD 2\07 Open Fire.wav

Peak level 89.1 %
Extraction speed 2.4 X
Track quality 100.0 %
Copy CRC 79E6C0C9
Accurately ripped (confidence 4) [0B798D74] (AR v2)
Copy OK

Track 8

Filename C:\Users\Stan.Stan-PC\Music\[Lossless]\Tony Williams\2016 (1975) Believe It - (1976) Million Dollar Legs - (1979) Joy Of Flying\CD 2\08 Tony.wav

Peak level 86.1 %
Extraction speed 2.3 X
Track quality 99.9 %
Copy CRC 68F4B338
Accurately ripped (confidence 4) [2981DE1D] (AR v2)
Copy OK

Track 9

Filename C:\Users\Stan.Stan-PC\Music\[Lossless]\Tony Williams\2016 (1975) Believe It - (1976) Million Dollar Legs - (1979) Joy Of Flying\CD 2\09 Eris.wav

Peak level 86.1 %
Extraction speed 2.4 X
Track quality 100.0 %
Copy CRC 4E56D213
Accurately ripped (confidence 4) [FA6D68C7] (AR v2)
Copy OK

Track 10

Filename C:\Users\Stan.Stan-PC\Music\[Lossless]\Tony Williams\2016 (1975) Believe It - (1976) Million Dollar Legs - (1979) Joy Of Flying\CD 2\10 Coming Back Home.wav

Peak level 89.1 %
Extraction speed 2.7 X
Track quality 100.0 %
Copy CRC 7E3D66A3
Accurately ripped (confidence 4) [736928AF] (AR v2)
Copy OK

Track 11

Filename C:\Users\Stan.Stan-PC\Music\[Lossless]\Tony Williams\2016 (1975) Believe It - (1976) Million Dollar Legs - (1979) Joy Of Flying\CD 2\11 Morgan's Motion.wav

Peak level 89.3 %
Extraction speed 2.9 X
Track quality 100.0 %
Copy CRC 7E5EDCE4
Accurately ripped (confidence 4) [29BF2268] (AR v2)
Copy OK


All tracks accurately ripped

No errors occurred

End of status report

–– CUETools DB Plugin V2.1.6

[CTDB TOCID: 1lpP.X_zaUBfGMCd2wAHCCCsCoU-] found
Submit result: 1lpP.X_zaUBfGMCd2wAHCCCsCoU- has been confirmed
Track | CTDB Status
1 | (6/6) Accurately ripped
2 | (6/6) Accurately ripped
3 | (6/6) Accurately ripped
4 | (6/6) Accurately ripped
5 | (6/6) Accurately ripped
6 | (6/6) Accurately ripped
7 | (6/6) Accurately ripped
8 | (6/6) Accurately ripped
9 | (6/6) Accurately ripped
10 | (6/6) Accurately ripped
11 | (6/6) Accurately ripped

––––––––––––––––––––––––––––––––––––––––
Analyzed: Williams, Tony / The Tony Williams Lifetime: Believe It - Million Dollar Legs - The Joy Of Flying (2)
––––––––––––––––––––––––––––––––––––––––

DR Peak RMS Duration Track
––––––––––––––––––––––––––––––––––––––––
DR8 -1.49 dB -14.17 dB 4:00 01-Lady Jade
DR9 -1.50 dB -12.84 dB 7:07 02-What You Do To Me
DR9 -1.50 dB -14.24 dB 9:49 03-Inspirations Of Love
DR9 -2.00 dB -13.11 dB 4:17 04-Going Far
DR9 -2.64 dB -13.18 dB 8:07 05-Hip Skip
DR9 -1.60 dB -12.93 dB 6:20 06-Hittin' On 6
DR11 -1.00 dB -13.81 dB 6:19 07-Open Fire
DR10 -1.30 dB -13.85 dB 6:53 08-Tony
DR10 -1.30 dB -12.92 dB 3:32 09-Eris
DR10 -1.00 dB -13.64 dB 6:09 10-Coming Back Home
DR11 -0.98 dB -15.73 dB 8:24 11-Morgan's Motion
––––––––––––––––––––––––––––––––––––––––

Number of tracks: 11
Official DR value: DR10

Samplerate: 44100 Hz
Channels: 2
Bits per sample: 16
Bitrate: 741 kbps
Codec: FLAC
================================================================================

All thanks to original releaser

password: BlondStyle