Subcategories

Toscho (Blues Company) - Serious Fun (1996)

Posted By: Whiteshadow
Toscho (Blues Company) - Serious Fun (1996)

Toscho (Blues Company) - Serious Fun (1996)
EAC-RIP | FLAC, TRACKS, CUE, LOG | 381 MB | Complete Scans
Blues | Label: Inakustik | Catalog Number: INAK 9041CD | RAR 3% Recovery | RS.com + Mirrors


After posting the Blues Company albums and the first soloalbum by Toscho here the second soloalbums of Toscho, the leader of Blues Company.
The Blues Company, formed 1976, counts among the few creative monuments the Germany Blues scene ever produced.This follow up documents the class of the band surrounding frontman Todor Todorovic. Songs with depth, intelligent arrangements and sounds. The Blues has been called the most important truly American musical invention, and its definitely the most indigenous Afro-American art form. Over the years the blues has conquered the world, and has influenced musicians in all imaginable cultural environments. Germany is the second largest market for recorded music. Musicians such as John Lee Hooker and B.B. King have been acknowledged as giants in their field - and have been filling up large concert halls since the 1950s. Home grown talent is also widely accepted, and the BLUES COMPANY is the most popular German blues band, considering ticket and record sales. Their high-octane stage act and emotional delivery has earned them cult status among their many fans - not only in Germany! They are also constantely touring in Holland, Poland, France, Belgium, Yugoslavia, Hungary, Greece, the former GDR, Macedonia, Luxemburg, Cyprus, and Switzerland - more than 2.500 concerts so far!!

Exact Audio Copy V0.99 prebeta 3 from 28. July 2007

EAC extraction logfile from 22. February 2009, 13:00

Toscho / Serious Fun

Used drive : ASUS DRW-2014S1 Adapter: 3 ID: 1

Read mode : Secure
Utilize accurate stream : Yes
Defeat audio cache : Yes
Make use of C2 pointers : No

Read offset correction : 6
Overread into Lead-In and Lead-Out : No
Fill up missing offset samples with silence : Yes
Delete leading and trailing silent blocks : No
Null samples used in CRC calculations : Yes
Used interface : Installed external ASPI interface
Gap handling : Appended to previous track

Used output format : User Defined Encoder
Selected bitrate : 192 kBit/s
Quality : High
Add ID3 tag : Yes
Command line compressor : C:\Program Files\Flac\flac.exe
Additional command line options : -T "artist=%a" -T "title=%t" -T "album=%g" -T "date=%y" -T "tracknumber=%n" -T "genre=%m" %s -8 –verify


TOC of the extracted CD

Track | Start | Length | Start sector | End sector
––––––––––––––––––––––––––––-
1 | 0:00.00 | 4:45.14 | 0 | 21388
2 | 4:45.14 | 4:25.71 | 21389 | 41334
3 | 9:11.10 | 4:34.31 | 41335 | 61915
4 | 13:45.41 | 5:54.43 | 61916 | 88508
5 | 19:40.09 | 4:37.04 | 88509 | 109287
6 | 24:17.13 | 5:02.12 | 109288 | 131949
7 | 29:19.25 | 3:49.43 | 131950 | 149167
8 | 33:08.68 | 3:44.21 | 149168 | 165988
9 | 36:53.14 | 5:59.46 | 165989 | 192959
10 | 42:52.60 | 5:55.37 | 192960 | 219621
11 | 48:48.22 | 3:02.38 | 219622 | 233309
12 | 51:50.60 | 5:07.30 | 233310 | 256364


Track 1

Filename C:\My Music\01 - Dinner At Woolfies.wav

Pre-gap length 0:00:02.00

Peak level 99.9 %
Track quality 100.0 %
Test CRC 4EC00988
Copy CRC 4EC00988
Accurately ripped (confidence 2) [0BDAB0B6]
Copy OK

Track 2

Filename C:\My Music\02 - The Blues.wav

Pre-gap length 0:00:03.00

Peak level 99.3 %
Track quality 99.9 %
Test CRC 25E93CCC
Copy CRC 25E93CCC
Accurately ripped (confidence 2) [6B66DF6B]
Copy OK

Track 3

Filename C:\My Music\03 - Something You've Got.wav

Pre-gap length 0:00:03.00

Peak level 99.2 %
Track quality 100.0 %
Test CRC A0340CEA
Copy CRC A0340CEA
Accurately ripped (confidence 2) [915A1EBF]
Copy OK

Track 4

Filename C:\My Music\04 - Oh Lord.wav

Pre-gap length 0:00:03.00

Peak level 99.7 %
Track quality 100.0 %
Test CRC EFEC4B9F
Copy CRC EFEC4B9F
Accurately ripped (confidence 2) [D5AB5A4A]
Copy OK

Track 5

Filename C:\My Music\05 - Route 66.wav

Pre-gap length 0:00:03.00

Peak level 99.1 %
Track quality 100.0 %
Test CRC EB360F5D
Copy CRC EB360F5D
Accurately ripped (confidence 2) [1A6B6098]
Copy OK

Track 6

Filename C:\My Music\06 - All My Tears Went By.wav

Pre-gap length 0:00:03.00

Peak level 99.9 %
Track quality 99.9 %
Test CRC 5B449FA3
Copy CRC 5B449FA3
Accurately ripped (confidence 2) [B55539B5]
Copy OK

Track 7

Filename C:\My Music\07 - Goin' to Miami.wav

Pre-gap length 0:00:03.00

Peak level 100.0 %
Track quality 100.0 %
Test CRC 569B8562
Copy CRC 569B8562
Accurately ripped (confidence 2) [BCABF1FF]
Copy OK

Track 8

Filename C:\My Music\08 - Let Me Love You.wav

Pre-gap length 0:00:03.00

Peak level 100.0 %
Track quality 100.0 %
Test CRC A3BFC29B
Copy CRC A3BFC29B
Accurately ripped (confidence 2) [1841E851]
Copy OK

Track 9

Filename C:\My Music\09 - Mr. Cleanhead Blues.wav

Pre-gap length 0:00:03.00

Peak level 100.0 %
Track quality 99.9 %
Test CRC B22CD600
Copy CRC B22CD600
Accurately ripped (confidence 2) [4F01250A]
Copy OK

Track 10

Filename C:\My Music\10 - Saturday Nite Fish Fry.wav

Pre-gap length 0:00:03.00

Peak level 100.0 %
Track quality 100.0 %
Test CRC C024C2BF
Copy CRC C024C2BF
Accurately ripped (confidence 2) [F4FB07A4]
Copy OK

Track 11

Filename C:\My Music\11 - Mara's Dream.wav

Pre-gap length 0:00:03.00

Peak level 75.4 %
Track quality 100.0 %
Test CRC 36240418
Copy CRC 36240418
Accurately ripped (confidence 2) [C1CE2189]
Copy OK

Track 12

Filename C:\My Music\12 - Spinning Wheel.wav

Pre-gap length 0:00:04.00

Peak level 100.0 %
Track quality 100.0 %
Test CRC 42FDE8EF
Copy CRC 42FDE8EF
Accurately ripped (confidence 2) [BA7E8A80]
Copy OK


All tracks accurately ripped

No errors occurred

End of status report


Tracks:
1. Dinner at woolfie's
2. The blues
3. Something you've got
4. Oh lord
5. Route 66
6. All my tears went by
7. Goin' to Miami
8. Let me love you
9. Mr. Cleanhead Blues
10. Saturday nite fish fry
11. Mara's dream
12. Spinning wheel

THX to Original uploader!

Rapidshare:
Download

Megaupload:
Download

Hotfile:
Download

Filefactory:
Download

Fileserve:
Download

2shared:
Download

Depositfiles:
Download]

Filesonic:
Download

All Links Are Compatible

Password: blueslounge