Subcategories

Toto: Studio Discography (1978-2006) Re-up

Posted By: v3122
Toto: Studio Discography (1978-2006) Re-up

Toto: Studio Discography (1978-2006)
EAC | Flac(Image) + Cue + Log & MP3 CBR 320Kbp's
12CD | ~ 4875 or 1699 Mb | Scans
Rock / Hard Rock / AOR / Soft Rock

- 12 Albums. 11 Japanese and 1 European Pressing CD -

Toto was formed in Los Angeles in 1978 by David Paich (b. June 21, 1954, Los Angeles; keyboards, vocals), Steve Lukather (b. October 21, 1957, Los Angeles; guitar, vocals), Bobby Kimball (b. Robert Toteaux, March 29, 1947, Vinton, LA; vocals), Steve Porcaro (b. September 2, 1957, Connecticut; keyboards), David Hungate (b. Texas; bass), and Jeff Porcaro (b. April 1, 1954, Hartford, CT; d. August 5, 1992, Hidden Hills, CA; drums). Paich was the son of arranger Marty Paich; the Porcaros were the sons of percussionist Joe Porcaro. The bandmembers had met in high school and at studio sessions in the 1970s, when they became some of the busiest session musicians in the music business. Paich, Hungate, and Jeff Porcaro wrote songs for and performed on Silk Degrees, the multi-million-selling 1976 album that combined pop, rock, and disco elements into a slick combination which heavily influenced mainstream pop music.

Toto released its self-titled debut album in October 1978, and it hit the Top Ten, sold two-million copies, and spawned the gold Top Ten single "Hold the Line." The gold-selling Hydra (October 1979) and Turn Back (January 1981) were less successful, but Toto IV (April 1982) was a multi-platinum Top Ten hit, featuring the number-one hit "Africa" and the Top Tens "Rosanna" (about Lukather's girlfriend, movie star Rosanna Arquette) and "I Won't Hold You Back." At the 1982 Grammys, "Rosanna" won awards for Record of the Year, Best Pop Vocal Performance, and Best Instrumental Arrangement With Vocal; and Toto IV won awards for Album of the Year, Best Engineered Recording, and Best Producer (the group). In 1984, a third Porcaro brother, Mike (b. May 29, 1955), joined the group on bass, replacing Hungate. Then lead singer Kimball quit and was replaced by Dennis "Fergie" Frederiksen (b. May 15, 1951, Wyoming, MI).

Toto's fifth album, Isolation (November 1984), went gold, but was a commercial disappointment. Frederiksen was replaced by Joseph Williams (b. Santa Monica), the son of the conductor/composer John Williams, for Fahrenheit (August 1986). Steve Porcaro quit in 1988, prior to the release of The Seventh One. In 1990, Jean-Michel Byron replaced Williams for the new recordings on Past to Present 1977-1990, then left, as Lukather became the group's lead singer. Jeff Porcaro died of a heart attack in 1992, but was featured on the group's next album, Kingdom of Desire. By this time, Toto was far more popular in Japan and Europe than at home. The group added British drummer Simon Phillips. Tambu, released in Europe in the late fall of 1995, appeared in the U.S. in June 1996. For 1999's Mindfields, Bobby Kimball returned to the lineup after a 15-year absence. The group members continued to do session work during the band's tenure, contributing significantly to the sound of mainstream pop/rock in the 1970s, '80s, and '90s.

by William Ruhlmann, AMG
Toto: Studio Discography (1978-2006):

Toto: Studio Discography (1978-2006) Re-up

Musicians:

Steve Lukather (guitar, vocals),
David Paich (keyboards, vocals),
David Hungate (bass, 1977-83),
Jeff Porcaro (drums, 1977-92),
Steve Porcaro (keyboards, vocals, 1977-89, 2010-present),
Bobby Kimball (vocals, 1977-84, 1997-2008),
Mike Porcaro (bass, 1983-2008),
Fergie Frederiksen (vocals, 1984-86),
Joseph Williams (vocals, 1986-89, 2010-present),
Jean-Michel Byron (vocals, 1990),
Simon Phillips (drums, 1992-2008, 2010-present),
Greg Phillinganes (keyboards, vocals, 2005-08)

Toto: Studio Discography (1978-2006) Re-up

CD01: Toto - Toto (1978)
EAC | Flac(Image) + Cue + Log & MP3 CBR 320Kbp's
2005 | Sony Music, MHCP 609 | ~ 304 or 111 Mb | Scans
Rock / Hard Rock / AOR / Soft Rock

It's as easy to see why radio listeners loved Toto as it is to see why critics hated them. Toto's rock-studio chops allowed them to play any current pop style at the drop of a hi-hat: one minute prog rock, the next hard rock, the next funky R&B. It all sounded great, but it also implied that music-making took craft rather than inspiration and that the musical barriers critics like to erect were arbitrary. Then, too, Toto's timing couldn't have been much worse. They rode in during the middle of punk/new wave with its D.I.Y. aesthetic, and their sheer competence was an affront. Of course, there's always been an alternate history of popular music not available to rock critics (it's written in record stores and concert halls and on the radio), and in that story, Toto was a smash. Singles like "I'll Supply the Love" and "Georgy Porgy" (featuring Cheryl Lynn) made the charts, and "Hold the Line" hit the Top Ten and went gold. The members of Toto had already influenced the course of '70s popular music by playing on half the albums that came out of L.A. All they were doing with this album was going public.

by William Ruhlmann
Tracklist:

01. Child's Anthem (2:46)
02. I'll Supply The Love (3:46)
03. Georgy Porgy (4:09)
04. Manuela Run (3:54)
05. You Are The Flower (4:11)
06. Girl Goodbye (6:13)
07. Takin' It Back (3:47)
08. Rockmaker (3:19)
09. Hold The Line (3:56)
10. Angela (4:45)

Exact Audio Copy V0.99 prebeta 5 from 4. May 2009

EAC extraction logfile from 19. February 2012, 7:06

Toto / Toto

Used drive : PLEXTOR DVDR PX-810SA Adapter: 2 ID: 1

Read mode : Secure
Utilize accurate stream : Yes
Defeat audio cache : Yes
Make use of C2 pointers : No

Read offset correction : 48
Overread into Lead-In and Lead-Out : No
Fill up missing offset samples with silence : Yes
Delete leading and trailing silent blocks : No
Null samples used in CRC calculations : Yes
Used interface : Installed external ASPI interface

Used output format : Internal WAV Routines
Sample format : 44.100 Hz; 16 Bit; Stereo


TOC of the extracted CD

Track | Start | Length | Start sector | End sector
––––––––––––––––––––––––––––-
1 | 0:00.00 | 2:46.62 | 0 | 12511
2 | 2:46.62 | 3:47.18 | 12512 | 29554
3 | 6:34.05 | 4:10.22 | 29555 | 48326
4 | 10:44.27 | 3:56.10 | 48327 | 66036
5 | 14:40.37 | 4:19.03 | 66037 | 85464
6 | 18:59.40 | 6:14.35 | 85465 | 113549
7 | 25:14.00 | 3:47.22 | 113550 | 130596
8 | 29:01.22 | 3:20.35 | 130597 | 145631
9 | 32:21.57 | 3:57.10 | 145632 | 163416
10 | 36:18.67 | 4:41.30 | 163417 | 184521


Range status and errors

Selected range

Filename C:\Program Files\Downloads\Toto\Toto - Toto (1978) {2005 Japan Mini LP MHCP 609}\Toto - Toto.wav

Peak level 99.8 %
Range quality 99.9 %
Copy CRC A77CE4D7
Copy OK

No errors occurred


AccurateRip summary

Track 1 accurately ripped (confidence 14) [0FE9AC08]
Track 2 accurately ripped (confidence 14) [60860FD4]
Track 3 accurately ripped (confidence 14) [E89E6D31]
Track 4 accurately ripped (confidence 14) [47D60E48]
Track 5 accurately ripped (confidence 14) [B3F9BA4B]
Track 6 accurately ripped (confidence 14) [0E39122F]
Track 7 accurately ripped (confidence 14) [25CD51C9]
Track 8 accurately ripped (confidence 14) [17FCB471]
Track 9 accurately ripped (confidence 14) [E8525EF3]
Track 10 accurately ripped (confidence 14) [48ADA87B]

All tracks accurately ripped

End of status report

foobar2000 1.2.4 / Dynamic Range Meter 1.1.1
log date: 2013-07-14 11:36:19

––––––––––––––––––––––––––––––––––––––––
Analyzed: Toto / Toto
––––––––––––––––––––––––––––––––––––––––

DR Peak RMS Duration Track
––––––––––––––––––––––––––––––––––––––––
DR9 -0.01 dB -11.43 dB 2:47 01-Child's Anthem
DR10 -0.01 dB -11.16 dB 3:47 02-I'll Supply The Love
DR10 -0.01 dB -12.41 dB 4:10 03-Georgy Porgy
DR9 -0.01 dB -10.91 dB 3:56 04-Manuela Run
DR9 -0.01 dB -10.73 dB 4:19 05-You Are The Flower
DR9 -0.01 dB -10.41 dB 6:14 06-Girl Goodbye
DR12 -0.01 dB -13.98 dB 3:47 07-Takin' It Back
DR9 -0.01 dB -10.97 dB 3:20 08-Rockmaker
DR9 -0.01 dB -11.24 dB 3:57 09-Hold The Line
DR10 -0.01 dB -14.24 dB 4:41 10-Angela
––––––––––––––––––––––––––––––––––––––––

Number of tracks: 10
Official DR value: DR9

Samplerate: 44100 Hz
Channels: 2
Bits per sample: 16
Bitrate: 960 kbps
Codec: FLAC

======================

Toto: Studio Discography (1978-2006) Re-up

CD02: Toto - Hydra (1979)
EAC | Flac(Image) + Cue + Log & MP3 CBR 320Kbp's
2005 | Sony Music, MHCP 610 | ~ 302 or 114 Mb | Scans
Rock / Hard Rock / AOR / Soft Rock

If Toto's musical advantage was that, since its members continued to play on many of the successful records made in L.A., its own music was popular almost by definition, its disadvantage was that it made little attempt to seek an individual musical signature – a particular style, say, or a distinctive singer (Bobby Kimball was not it) who could make its records immediately identifiable. "Hold the Line" had been a big hit, but who did it? Boston? Foreigner? As a result, Toto was less well positioned than most to come off a big debut album with the follow-up, and Hydra was unusually dependent on its leadoff single, "99." Maybe it was a tribute to the female lead on the old Get Smart TV show, but many listeners didn't get a song with a chorus that went, "Oh, 99, I love you," and the single stalled in the bottom half of the Top 40. The album went gold on momentum, but the songs, however well-played, simply were not distinctive enough to consolidate the success Toto had achieved with its debut album.

by William Ruhlmann
Tracklist:

01. Hydra (7:31)
02. St. George and the Dragon (4:44)
03. 99 (5:16)
04. Lorraine (4:46)
05. All Us Boys (5:02)
06. Mama (5:14)
07. White Sister (5:38)
08. A Secret Love (3:08)

Exact Audio Copy V0.99 prebeta 5 from 4. May 2009

EAC extraction logfile from 19. February 2012, 7:57

Toto / Hydra

Used drive : PLEXTOR DVDR PX-810SA Adapter: 2 ID: 1

Read mode : Secure
Utilize accurate stream : Yes
Defeat audio cache : Yes
Make use of C2 pointers : No

Read offset correction : 48
Overread into Lead-In and Lead-Out : No
Fill up missing offset samples with silence : Yes
Delete leading and trailing silent blocks : No
Null samples used in CRC calculations : Yes
Used interface : Installed external ASPI interface

Used output format : Internal WAV Routines
Sample format : 44.100 Hz; 16 Bit; Stereo


TOC of the extracted CD

Track | Start | Length | Start sector | End sector
––––––––––––––––––––––––––––-
1 | 0:00.00 | 7:31.52 | 0 | 33876
2 | 7:31.52 | 4:44.53 | 33877 | 55229
3 | 12:16.30 | 5:17.57 | 55230 | 79061
4 | 17:34.12 | 4:47.53 | 79062 | 100639
5 | 22:21.65 | 5:02.52 | 100640 | 123341
6 | 27:24.42 | 5:14.05 | 123342 | 146896
7 | 32:38.47 | 5:38.60 | 146897 | 172306
8 | 38:17.32 | 3:06.68 | 172307 | 186324


Range status and errors

Selected range

Filename C:\Program Files\Downloads\Toto\Toto - Hydra (1979) {2005 Japan Mini LP MHCP 610}\Toto - Hydra.wav

Peak level 99.8 %
Range quality 100.0 %
Copy CRC 645812E7
Copy OK

No errors occurred


AccurateRip summary

Track 1 accurately ripped (confidence 11) [841653D9]
Track 2 accurately ripped (confidence 11) [B2D9420F]
Track 3 accurately ripped (confidence 11) [9D9209C5]
Track 4 accurately ripped (confidence 11) [397CB748]
Track 5 accurately ripped (confidence 11) [4F56C2FB]
Track 6 accurately ripped (confidence 11) [9F984ECA]
Track 7 accurately ripped (confidence 11) [88E848C1]
Track 8 accurately ripped (confidence 11) [568AC0EC]

All tracks accurately ripped

End of status report

foobar2000 1.2.4 / Dynamic Range Meter 1.1.1
log date: 2013-07-14 11:36:39

––––––––––––––––––––––––––––––––––––––––
Analyzed: Toto / Hydra
––––––––––––––––––––––––––––––––––––––––

DR Peak RMS Duration Track
––––––––––––––––––––––––––––––––––––––––
DR8 -0.01 dB -11.37 dB 7:32 01-Hydra
DR8 -0.01 dB -9.52 dB 4:45 02-St. George And The Dragon
DR10 -0.01 dB -11.94 dB 5:18 03-99
DR8 -0.01 dB -10.58 dB 4:48 04-Lorraine
DR8 -0.01 dB -9.23 dB 5:03 05-All Us Boys
DR11 -0.01 dB -12.83 dB 5:14 06-Mama
DR8 -0.01 dB -9.43 dB 5:39 07-White Sister
DR11 -0.01 dB -14.97 dB 3:07 08-A Secret Love
––––––––––––––––––––––––––––––––––––––––

Number of tracks: 8
Official DR value: DR9

Samplerate: 44100 Hz
Channels: 2
Bits per sample: 16
Bitrate: 937 kbps
Codec: FLAC

======================

Toto: Studio Discography (1978-2006) Re-up

CD03: Toto - Turn Back (1981)
EAC | Flac(Image) + Cue + Log & MP3 CBR 320Kbp's
2005 | Sony Music, MHCP 611 | ~ 281 or 103 Mb | Scans
Rock / Hard Rock / AOR / Soft Rock

Toto went from disappointment to disaster with its third album, the generic Turn Back. The group's ability to turn out highly competent studio rock was not translating into an individual sound, and since Turn Back had no memorable songs on it, one was left with nothing more than those famous chops that Toto possessed in abundance. The group would rally from this retreat, but for the moment a better title would have been Fall Back, as in, the bandmembers always had their studio jobs to fall back on.

by William Ruhlmann
Tracklist:

01. Gift With A Golden Gun (4:01)
02. English Eyes (6:07)
03. Live For Today (4:01)
04. A Million Miles Away (4:37)
05. Goodbye Elenore (4:54)
06. I Think I Could Stand You Forever (5:20)
07. Turn Back (3:57)
08. If It'sThe Last Night (4:39)

Exact Audio Copy V0.99 prebeta 5 from 4. May 2009

EAC extraction logfile from 19. February 2012, 3:49

Toto / Turn Back

Used drive : TEAC CD-W552E Adapter: 1 ID: 0

Read mode : Secure
Utilize accurate stream : Yes
Defeat audio cache : Yes
Make use of C2 pointers : No

Read offset correction : 6
Overread into Lead-In and Lead-Out : No
Fill up missing offset samples with silence : Yes
Delete leading and trailing silent blocks : No
Null samples used in CRC calculations : Yes
Used interface : Installed external ASPI interface

Used output format : Internal WAV Routines
Sample format : 44.100 Hz; 16 Bit; Stereo


TOC of the extracted CD

Track | Start | Length | Start sector | End sector
––––––––––––––––––––––––––––-
1 | 0:00.00 | 4:01.62 | 0 | 18136
2 | 4:01.62 | 6:07.33 | 18137 | 45694
3 | 10:09.20 | 4:01.17 | 45695 | 63786
4 | 14:10.37 | 4:37.45 | 63787 | 84606
5 | 18:48.07 | 4:54.00 | 84607 | 106656
6 | 23:42.07 | 5:20.33 | 106657 | 130689
7 | 29:02.40 | 3:57.40 | 130690 | 148504
8 | 33:00.05 | 4:39.55 | 148505 | 169484


Range status and errors

Selected range

Filename C:\Program Files\Downloads\Toto\Toto - Turn Back (1981) {2005 Japan Mini LP MHCP 611}\Toto - Turn Back.wav

Peak level 99.8 %
Range quality 100.0 %
Copy CRC 5EDC3FB2
Copy OK

No errors occurred


AccurateRip summary

Track 1 accurately ripped (confidence 7) [C5F267A4]
Track 2 accurately ripped (confidence 7) [37CF876A]
Track 3 accurately ripped (confidence 7) [6FDEDC25]
Track 4 accurately ripped (confidence 7) [89223389]
Track 5 accurately ripped (confidence 7) [10C91097]
Track 6 accurately ripped (confidence 7) [31B17E20]
Track 7 accurately ripped (confidence 7) [4BEFDFC0]
Track 8 accurately ripped (confidence 7) [D92EC750]

All tracks accurately ripped

End of status report

foobar2000 1.2.4 / Dynamic Range Meter 1.1.1
log date: 2013-07-14 11:36:54

––––––––––––––––––––––––––––––––––––––––
Analyzed: Toto / Turn Back
––––––––––––––––––––––––––––––––––––––––

DR Peak RMS Duration Track
––––––––––––––––––––––––––––––––––––––––
DR9 -0.01 dB -10.82 dB 4:02 01-Gift With A Golden Gun
DR10 -0.01 dB -12.01 dB 6:07 02-English Eyes
DR10 -0.01 dB -11.23 dB 4:01 03-Live For Today
DR10 -0.01 dB -14.52 dB 4:38 04-A Million Miles Away
DR7 -0.01 dB -8.73 dB 4:54 05-Goodbye Elenore
DR7 -0.01 dB -9.94 dB 5:20 06-I Think I Could Stand You Forever
DR8 -0.01 dB -10.26 dB 3:58 07-Turn Back
DR9 -0.01 dB -13.46 dB 4:40 08-If It's The Last Night
––––––––––––––––––––––––––––––––––––––––

Number of tracks: 8
Official DR value: DR9

Samplerate: 44100 Hz
Channels: 2
Bits per sample: 16
Bitrate: 963 kbps
Codec: FLAC

======================

Toto: Studio Discography (1978-2006) Re-up

CD04: Toto - IV (1982)
EAC | Flac(Image) + Cue + Log & MP3 CBR 320Kbp's
2005 | Sony Music, MHCP 612 | ~ 322 or 115 Mb | Scans
Rock / Hard Rock / AOR / Soft Rock

It was do or die for Toto on the group's fourth album, and they rose to the challenge. Largely dispensing with the anonymous studio rock that had characterized their first three releases, the band worked harder on its melodies, made sure its simple lyrics treated romantic subjects, augmented Bobby Kimball's vocals by having other group members sing, brought in ringers like Timothy B. Schmit, and slowed down the tempo to what came to be known as "power ballad" pace. Most of all, they wrote some hit songs: "Rosanna," the old story of a lovelorn lyric matched to a bouncy beat, was the gold, Top Ten comeback single accompanying the album release; "Make Believe" made the Top 30; and then, surprisingly, "Africa" hit number one ten months after the album's release. The members of Toto may have more relatives who are NARAS voters than any other group, but that still doesn't explain the sweep they achieved at the Grammys, winning six, including Album of the Year and Record of the Year (for "Rosanna"). Predictably, rock critics howled, but the Grammys helped set up the fourth single, "I Won't Hold You Back," another soft rock smash and Top Ten hit. As a result, Toto IV was both the group's comeback and its peak; it remains a definitive album of slick L.A. pop for the early '80s and Toto's best and most consistent record. Having made it, the members happily went back to sessions, where they helped write and record Michael Jackson's Thriller.

by William Ruhlmann
Tracklist:

01. Rosanna (5:33)
02. Make Believe (3:47)
03. I Won't Hold You Back (4:56)
04. Good For You (3:18)
05. It's A Feeling (3:10)
06. Afraid Of Love (3:51)
07. Lovers In The Night (4:26)
08. We Made It (3:58)
09. Waiting For Your Love (4:13)
10. Africa (5:01)

Exact Audio Copy V0.99 prebeta 5 from 4. May 2009

EAC extraction logfile from 19. February 2012, 15:23

Toto / Toto IV

Used drive : PLEXTOR DVDR PX-810SA Adapter: 2 ID: 1

Read mode : Secure
Utilize accurate stream : Yes
Defeat audio cache : Yes
Make use of C2 pointers : No

Read offset correction : 48
Overread into Lead-In and Lead-Out : No
Fill up missing offset samples with silence : Yes
Delete leading and trailing silent blocks : No
Null samples used in CRC calculations : Yes
Used interface : Installed external ASPI interface

Used output format : Internal WAV Routines
Sample format : 44.100 Hz; 16 Bit; Stereo


TOC of the extracted CD

Track | Start | Length | Start sector | End sector
––––––––––––––––––––––––––––-
1 | 0:00.00 | 5:32.30 | 0 | 24929
2 | 5:32.30 | 3:47.62 | 24930 | 42016
3 | 9:20.17 | 4:55.70 | 42017 | 64211
4 | 14:16.12 | 3:19.43 | 64212 | 79179
5 | 17:35.55 | 3:04.40 | 79180 | 93019
6 | 20:40.20 | 3:51.57 | 93020 | 110401
7 | 24:32.02 | 4:26.10 | 110402 | 130361
8 | 28:58.12 | 3:57.60 | 130362 | 148196
9 | 32:55.72 | 4:13.25 | 148197 | 167196
10 | 37:09.22 | 4:56.43 | 167197 | 189439


Range status and errors

Selected range

Filename C:\Program Files\Downloads\Toto\Toto - Toto IV (1982) {2005 Japan Mini LP MHCP 612}\Toto - Toto IV.wav

Peak level 99.4 %
Range quality 100.0 %
Copy CRC DDAEC20C
Copy OK

No errors occurred


AccurateRip summary

Track 1 accurately ripped (confidence 9) [5F7D0C20]
Track 2 accurately ripped (confidence 9) [24CE0C16]
Track 3 accurately ripped (confidence 9) [656C77BA]
Track 4 accurately ripped (confidence 9) [D2B8CDFA]
Track 5 accurately ripped (confidence 9) [07DE0458]
Track 6 accurately ripped (confidence 9) [B1A8FD40]
Track 7 accurately ripped (confidence 9) [0B837AB8]
Track 8 accurately ripped (confidence 9) [CA160882]
Track 9 accurately ripped (confidence 9) [3DC26F77]
Track 10 accurately ripped (confidence 9) [DF2502E3]

All tracks accurately ripped

End of status report

foobar2000 1.2.4 / Dynamic Range Meter 1.1.1
log date: 2013-07-14 11:37:10

––––––––––––––––––––––––––––––––––––––––
Analyzed: Toto / Toto IV
––––––––––––––––––––––––––––––––––––––––

DR Peak RMS Duration Track
––––––––––––––––––––––––––––––––––––––––
DR9 -0.06 dB -11.32 dB 5:32 01-Rosanna
DR10 -0.07 dB -12.22 dB 3:48 02-Make Believe
DR9 -0.06 dB -13.07 dB 4:56 03-I Won't Hold You Back
DR9 -0.06 dB -11.44 dB 3:20 04-Good For You
DR12 -0.07 dB -13.72 dB 3:05 05-It's A Feeling
DR9 -0.06 dB -10.72 dB 3:52 06-Afraid Of Love
DR8 -0.06 dB -9.96 dB 4:26 07-Lovers In The Night
DR9 -0.05 dB -10.53 dB 3:58 08-We Made It
DR11 -0.05 dB -12.95 dB 4:13 09-Waiting For Your Love
DR10 -0.06 dB -11.75 dB 4:57 10-Africa
––––––––––––––––––––––––––––––––––––––––

Number of tracks: 10
Official DR value: DR10

Samplerate: 44100 Hz
Channels: 2
Bits per sample: 16
Bitrate: 988 kbps
Codec: FLAC

======================

Toto: Studio Discography (1978-2006) Re-up

CD05: Toto - Isolation (1984)
EAC | Flac(Image) + Cue + Log & MP3 CBR 320Kbp's
2005 | Sony Music, MHCP 654 | ~ 329 or 109000 Mb | Scans
Rock / Hard Rock / AOR / Soft Rock

Having traded in lead singer Bobby Kimball for Fergie Frederiksen, a smooth tenor wailer in the tradition of Journey's Steve Perry, Toto proceeded to follow its power ballad smash Toto IV with a Journey clone album, minus the aching ballads that had made Journey such a success. A workout for drummer Jeff Porcaro, keyboardist David Paich, and guitarist Steve Lukather, Isolation was anything but the kind of record those millions who had loved "Rosanna" were waiting for. It seemed intended to restore the bandmembers' heady studio reputations as hard rock technicians, which it did by dispensing with the elements that finally had made the band a big success in 1982.

by William Ruhlmann
Tracklist:

01. Carmen (3:25)
02. Lion (4:46)
03. Stranger In Town (4:47)
04. Angel Don't Cry (4:21)
05. How Does It Feel (3:50)
06. Endless (3:40)
07. Isolation (4:04)
08.Mr. Friendly (4:22)
09. Change Of Heart (4:08)
10. Holyanna (4:19)

Exact Audio Copy V0.99 prebeta 5 from 4. May 2009

EAC extraction logfile from 19. February 2012, 4:54

Toto / Isolation

Used drive : PLEXTOR DVDR PX-810SA Adapter: 2 ID: 1

Read mode : Secure
Utilize accurate stream : Yes
Defeat audio cache : Yes
Make use of C2 pointers : No

Read offset correction : 48
Overread into Lead-In and Lead-Out : No
Fill up missing offset samples with silence : Yes
Delete leading and trailing silent blocks : No
Null samples used in CRC calculations : Yes
Used interface : Installed external ASPI interface

Used output format : Internal WAV Routines
Sample format : 44.100 Hz; 16 Bit; Stereo


TOC of the extracted CD

Track | Start | Length | Start sector | End sector
––––––––––––––––––––––––––––-
1 | 0:00.00 | 3:24.60 | 0 | 15359
2 | 3:24.60 | 4:47.20 | 15360 | 36904
3 | 8:12.05 | 4:49.25 | 36905 | 58604
4 | 13:01.30 | 4:23.55 | 58605 | 78384
5 | 17:25.10 | 3:51.55 | 78385 | 95764
6 | 21:16.65 | 3:43.12 | 95765 | 112501
7 | 25:00.02 | 4:05.70 | 112502 | 130946
8 | 29:05.72 | 4:22.45 | 130947 | 150641
9 | 33:28.42 | 4:10.70 | 150642 | 169461
10 | 37:39.37 | 4:16.70 | 169462 | 188731


Range status and errors

Selected range

Filename C:\Program Files\Downloads\Toto\Toto - Isolation (1984) {2005 Japan Mini LP MHCP 654}\Toto - Isolation.wav

Peak level 100.0 %
Range quality 100.0 %
Copy CRC F779F0F8
Copy OK

No errors occurred


AccurateRip summary

Track 1 accurately ripped (confidence 7) [890B1859]
Track 2 accurately ripped (confidence 7) [23F606D9]
Track 3 accurately ripped (confidence 7) [A3419CC9]
Track 4 accurately ripped (confidence 7) [FFBDD79E]
Track 5 accurately ripped (confidence 7) [7BC54263]
Track 6 accurately ripped (confidence 7) [728846D5]
Track 7 accurately ripped (confidence 7) [DCE6CAF0]
Track 8 accurately ripped (confidence 7) [22758280]
Track 9 accurately ripped (confidence 7) [194857DF]
Track 10 accurately ripped (confidence 7) [0420CED9]

All tracks accurately ripped

End of status report

foobar2000 1.2.4 / Dynamic Range Meter 1.1.1
log date: 2013-07-14 11:37:27

––––––––––––––––––––––––––––––––––––––––
Analyzed: Toto / Isolation
––––––––––––––––––––––––––––––––––––––––

DR Peak RMS Duration Track
––––––––––––––––––––––––––––––––––––––––
DR8 0.00 dB -8.83 dB 3:25 01-Carmen
DR8 0.00 dB -9.62 dB 4:47 02-Lion
DR8 0.00 dB -10.31 dB 4:49 03-Stranger In Town
DR7 0.00 dB -8.96 dB 4:24 04-Angel Don't Cry
DR8 0.00 dB -11.05 dB 3:52 05-How Does It Feel
DR7 0.00 dB -8.71 dB 3:43 06-Endless
DR6 0.00 dB -7.72 dB 4:06 07-Isolation
DR7 0.00 dB -8.48 dB 4:23 08-Mr. Friendly
DR7 0.00 dB -8.68 dB 4:11 09-Change Of Heart
DR8 0.00 dB -9.63 dB 4:17 10-Holyanna
––––––––––––––––––––––––––––––––––––––––

Number of tracks: 10
Official DR value: DR7

Samplerate: 44100 Hz
Channels: 2
Bits per sample: 16
Bitrate: 1032 kbps
Codec: FLAC

======================

Toto: Studio Discography (1978-2006) Re-up

CD06: Toto - Fahrenheit (1986)
EAC | Flac(Image) + Cue + Log & MP3 CBR 320Kbp's
2005 | Sony Music, MHCP 655 | ~ 340 or 125 Mb | Scans
Rock / Hard Rock / AOR / Soft Rock

After the ballad-deprived Isolation failed to meet the marketplace like its predecessor, Toto IV, Toto returned to making lush, mid-tempo tunes of romantic despair on Fahrenheit, enlisting their third lead singer, Joseph Williams, and calling in chips all over L.A. to score cameos from the likes of Michael McDonald, Don Henley, David Sanborn, and even Miles Davis, who had the closing track, "Don't Stop Me Now," pretty much to himself. Williams was a slightly grittier and more identifiable vocalist than Bobby Kimball or Fergie Frederiksen. But while the return to power ballads had the intended effect on the pop and adult contemporary charts (both "I'll Be over You" and "Without Your Love" scored), the album had a relatively low chart peak and failed to go gold. That kind of disconnection always indicates that the radio audience is failing to identify the songs with the group that made them, and it always means a career in trouble.

by William Ruhlmann
Tracklist:

01. Till the End (5:27)
02. We Can Make It Tonight (4:19)
03. Without Your Love (4:33)
04. Can't Stand It Any Longer (4:40)
05. I'll Be Over You (3:49)
06. Fahrenheit (4:40)
07. Somewhere Tonight (3:46)
08. Could This Be Love (5:16)
09. Lea (4:31)
10. Don't Stop Me Now (3:06)

Exact Audio Copy V0.99 prebeta 5 from 4. May 2009

EAC extraction logfile from 19. February 2012, 10:38

Toto / Fahrenheit

Used drive : TEAC CD-W552E Adapter: 1 ID: 0

Read mode : Secure
Utilize accurate stream : Yes
Defeat audio cache : Yes
Make use of C2 pointers : No

Read offset correction : 6
Overread into Lead-In and Lead-Out : No
Fill up missing offset samples with silence : Yes
Delete leading and trailing silent blocks : No
Null samples used in CRC calculations : Yes
Used interface : Installed external ASPI interface

Used output format : Internal WAV Routines
Sample format : 44.100 Hz; 16 Bit; Stereo


TOC of the extracted CD

Track | Start | Length | Start sector | End sector
––––––––––––––––––––––––––––-
1 | 0:00.00 | 5:27.32 | 0 | 24556
2 | 5:27.32 | 4:19.15 | 24557 | 43996
3 | 9:46.47 | 4:33.55 | 43997 | 64526
4 | 14:20.27 | 4:40.15 | 64527 | 85541
5 | 19:00.42 | 3:49.65 | 85542 | 102781
6 | 22:50.32 | 4:40.50 | 102782 | 123831
7 | 27:31.07 | 3:46.28 | 123832 | 140809
8 | 31:17.35 | 5:16.42 | 140810 | 164551
9 | 36:34.02 | 4:31.15 | 164552 | 184891
10 | 41:05.17 | 3:06.08 | 184892 | 198849


Range status and errors

Selected range

Filename C:\Program Files\Downloads\Toto\Toto - Fahrenheit (1986) {2005 Japan Mini LP MHCP 655}\Toto - Fahrenheit.wav

Peak level 100.0 %
Range quality 100.0 %
Copy CRC E90B8336
Copy OK

No errors occurred


AccurateRip summary

Track 1 accurately ripped (confidence 10) [97A917F8]
Track 2 accurately ripped (confidence 10) [D609F464]
Track 3 accurately ripped (confidence 10) [4C55FB40]
Track 4 accurately ripped (confidence 10) [4784FAD9]
Track 5 accurately ripped (confidence 10) [818459EA]
Track 6 accurately ripped (confidence 10) [4AF52B1A]
Track 7 accurately ripped (confidence 10) [2454144D]
Track 8 accurately ripped (confidence 10) [33412F6A]
Track 9 accurately ripped (confidence 10) [39E6D6B5]
Track 10 accurately ripped (confidence 9) [EF7E040A]

All tracks accurately ripped

End of status report

foobar2000 1.2.4 / Dynamic Range Meter 1.1.1
log date: 2013-07-14 11:37:45

––––––––––––––––––––––––––––––––––––––––
Analyzed: Toto / Fahrenheit
––––––––––––––––––––––––––––––––––––––––

DR Peak RMS Duration Track
––––––––––––––––––––––––––––––––––––––––
DR10 0.00 dB -11.31 dB 5:27 01-Till the End
DR10 -0.01 dB -12.14 dB 4:19 02-We Can Make It Tonight
DR10 -0.01 dB -12.32 dB 4:34 03-Without Your Love
DR10 -0.01 dB -11.22 dB 4:40 04-Can't Stand It Any Longer
DR10 -0.01 dB -12.43 dB 3:50 05-I'll Be Over You
DR10 -0.01 dB -11.27 dB 4:41 06-Fahrenheit
DR9 -0.01 dB -12.43 dB 3:46 07-Somewhere Tonight
DR10 -0.01 dB -11.99 dB 5:17 08-Could This Be Love
DR12 -0.01 dB -14.41 dB 4:31 09-Lea
DR11 -0.01 dB -14.13 dB 3:06 10-Don't Stop Me Now
––––––––––––––––––––––––––––––––––––––––

Number of tracks: 10
Official DR value: DR10

Samplerate: 44100 Hz
Channels: 2
Bits per sample: 16
Bitrate: 981 kbps
Codec: FLAC

======================

Toto: Studio Discography (1978-2006) Re-up

CD07: Toto - The Seventh One (1988)
EAC | Flac(Image) + Cue + Log & MP3 CBR 320Kbp's
2005 | Sony Music, MHCP 656 | ~ 480 or 161 Mb | Scans
Rock / Hard Rock / AOR / Soft Rock

Toto attempted to satisfy commercial considerations by loading up the first half of their seventh album with the kind of power ballads that had given the band recognition before, especially songs named after women whose names end in "A" like "Pamela" and "Anna." But these thinly veiled rewrites of "Rosanna" earned only modest radio play, and the rest of the album, which rocked harder as it went on, while it may have been truer to the band's musical aspirations, continued to sound too anonymous to earn any response beyond the band's fan base, especially its international one (which it seemed to be acknowledging by printing some of the sleeve notes in Japanese).

by William Ruhlmann
Tracklist:

01. Pamela (5:10)
02. You Got Me (3:13)
03. Anna (4:55)
04. Stop Loving You (4:30)
05. Mushanga (5:36)
06. Stay Away (5:31)
07. Straight For The Heart (4:12)
08. Only The Children (4:11)
09. A Thousand Years (4:53)
10. These Chains (5:00)
11. Home Of The Brave (6:48)
12. The Seventh One (6:18)

Exact Audio Copy V0.99 prebeta 5 from 4. May 2009

EAC extraction logfile from 18. February 2012, 17:55

Toto / The Seventh One

Used drive : TEAC CD-W552E Adapter: 1 ID: 0

Read mode : Secure
Utilize accurate stream : Yes
Defeat audio cache : Yes
Make use of C2 pointers : No

Read offset correction : 6
Overread into Lead-In and Lead-Out : No
Fill up missing offset samples with silence : Yes
Delete leading and trailing silent blocks : No
Null samples used in CRC calculations : Yes
Used interface : Installed external ASPI interface

Used output format : Internal WAV Routines
Sample format : 44.100 Hz; 16 Bit; Stereo


TOC of the extracted CD

Track | Start | Length | Start sector | End sector
––––––––––––––––––––––––––––-
1 | 0:00.00 | 5:11.07 | 0 | 23331
2 | 5:11.07 | 3:12.30 | 23332 | 37761
3 | 8:23.37 | 4:56.25 | 37762 | 59986
4 | 13:19.62 | 4:30.05 | 59987 | 80241
5 | 17:49.67 | 5:36.60 | 80242 | 105501
6 | 23:26.52 | 5:32.08 | 105502 | 130409
7 | 28:58.60 | 4:12.12 | 130410 | 149321
8 | 33:10.72 | 4:11.10 | 149322 | 168156
9 | 37:22.07 | 4:53.03 | 168157 | 190134
10 | 42:15.10 | 5:00.52 | 190135 | 212686
11 | 47:15.62 | 6:51.65 | 212687 | 243576
12 | 54:07.52 | 6:18.13 | 243577 | 271939


Range status and errors

Selected range

Filename C:\Program Files\Downloads\Toto\Toto - The Seventh One (1988) {2005 Japan Mini LP MHCP 656}\Toto - The Seventh One.wav

Peak level 99.3 %
Range quality 100.0 %
Copy CRC C1267491
Copy OK

No errors occurred


AccurateRip summary

Track 1 accurately ripped (confidence 14) [F58BE9B6]
Track 2 accurately ripped (confidence 14) [AC3C5BE1]
Track 3 accurately ripped (confidence 14) [60E7D8EC]
Track 4 accurately ripped (confidence 14) [352DFA5C]
Track 5 accurately ripped (confidence 14) [07FFC355]
Track 6 accurately ripped (confidence 14) [F4536726]
Track 7 accurately ripped (confidence 14) [1FFCB450]
Track 8 accurately ripped (confidence 14) [DB12BC36]
Track 9 accurately ripped (confidence 14) [BE533E6E]
Track 10 accurately ripped (confidence 14) [F9D57B2C]
Track 11 accurately ripped (confidence 14) [E53D8A59]
Track 12 accurately ripped (confidence 14) [D9C427A8]

All tracks accurately ripped

End of status report

foobar2000 1.2.4 / Dynamic Range Meter 1.1.1
log date: 2013-07-14 11:38:03

––––––––––––––––––––––––––––––––––––––––
Analyzed: Toto / The Seventh One
––––––––––––––––––––––––––––––––––––––––

DR Peak RMS Duration Track
––––––––––––––––––––––––––––––––––––––––
DR8 -0.06 dB -10.76 dB 5:11 01-Pamela
DR9 -0.06 dB -10.88 dB 3:12 02-You Got Me
DR8 -0.06 dB -11.87 dB 4:56 03-Anna
DR8 -0.06 dB -9.52 dB 4:30 04-Stop Loving You
DR8 -0.06 dB -10.51 dB 5:37 05-Mushanga
DR7 -0.06 dB -8.47 dB 5:32 06-Stay Away
DR7 -0.06 dB -8.86 dB 4:12 07-Straight For The Heart
DR7 -0.06 dB -8.79 dB 4:11 08-Only The Children
DR10 -0.06 dB -12.35 dB 4:53 09-A Thousand Years
DR8 -0.06 dB -11.28 dB 5:01 10-These Chains
DR7 -0.06 dB -9.64 dB 6:52 11-Home Of The Brave
DR9 -0.06 dB -10.83 dB 6:18 12-The Seventh One
––––––––––––––––––––––––––––––––––––––––

Number of tracks: 12
Official DR value: DR8

Samplerate: 44100 Hz
Channels: 2
Bits per sample: 16
Bitrate: 1037 kbps
Codec: FLAC

======================

Toto: Studio Discography (1978-2006) Re-up

CD08: Toto - Kingdom Of Desire (1992)
EAC | Flac(Image) + Cue + Log) & MP3 CBR 320Kbp's
2011 | Sony Music, SICP 3117 | ~ 541 or 176 Mb | Scans
Rock / Hard Rock / AOR / Soft Rock

Tracklist:

01. Gypsy Train (6:45)
02. Don't Chain My Heart (4:46)
03. Never Enough (5:44)
04. How Many Times (5:42)
05. 2 Hearts (5:13)
06. Wings Of Time (7:29)
07. She Knows The Devil (5:28)
08. The Other Side (4:40)
09. Only You (4:28)
10. Kick Down The Walls (4:54)
11. Kingdom Of Desire (7:17)
12. Jake To The Bone (7:05)

Exact Audio Copy V0.99 prebeta 5 from 4. May 2009

EAC extraction logfile from 19. February 2012, 13:52

Toto / Kingdom Of Desire

Used drive : PLEXTOR DVDR PX-810SA Adapter: 2 ID: 1

Read mode : Secure
Utilize accurate stream : Yes
Defeat audio cache : Yes
Make use of C2 pointers : No

Read offset correction : 48
Overread into Lead-In and Lead-Out : No
Fill up missing offset samples with silence : Yes
Delete leading and trailing silent blocks : No
Null samples used in CRC calculations : Yes
Used interface : Installed external ASPI interface

Used output format : Internal WAV Routines
Sample format : 44.100 Hz; 16 Bit; Stereo


TOC of the extracted CD

Track | Start | Length | Start sector | End sector
––––––––––––––––––––––––––––-
1 | 0:00.00 | 6:45.40 | 0 | 30414
2 | 6:45.40 | 4:45.73 | 30415 | 51862
3 | 11:31.38 | 5:44.69 | 51863 | 77731
4 | 17:16.32 | 5:42.32 | 77732 | 103413
5 | 22:58.64 | 5:13.51 | 103414 | 126939
6 | 28:12.40 | 7:29.15 | 126940 | 160629
7 | 35:41.55 | 5:28.31 | 160630 | 185260
8 | 41:10.11 | 4:40.25 | 185261 | 206285
9 | 45:50.36 | 4:28.62 | 206286 | 226447
10 | 50:19.23 | 7:17.38 | 226448 | 259260
11 | 57:36.61 | 7:09.42 | 259261 | 291477
12 | 64:46.28 | 4:15.73 | 291478 | 310675


Range status and errors

Selected range

Filename C:\Program Files\Downloads\Toto\Toto - Kingdom Of Desire (1992) {2011 Japan Mini LP SICP 3117}\Toto - Kingdom Of Desire.wav

Peak level 98.8 %
Range quality 100.0 %
Copy CRC A9BFD07A
Copy OK

No errors occurred


AccurateRip summary

Track 1 accurately ripped (confidence 1) [80C6C960]
Track 2 accurately ripped (confidence 1) [A9C3E044]
Track 3 accurately ripped (confidence 1) [B22E9158]
Track 4 accurately ripped (confidence 1) [7D8B94D5]
Track 5 accurately ripped (confidence 1) [98743876]
Track 6 accurately ripped (confidence 1) [0F63EFF2]
Track 7 accurately ripped (confidence 1) [69D59737]
Track 8 accurately ripped (confidence 1) [8AB818C6]
Track 9 accurately ripped (confidence 1) [5B9B067C]
Track 10 accurately ripped (confidence 1) [EDA9AD5B]
Track 11 accurately ripped (confidence 1) [2D26D49F]
Track 12 accurately ripped (confidence 1) [080BE39E]

All tracks accurately ripped

End of status report

foobar2000 1.2.4 / Dynamic Range Meter 1.1.1
log date: 2013-07-14 11:38:23

––––––––––––––––––––––––––––––––––––––––
Analyzed: Toto / Kingdom Of Desire
––––––––––––––––––––––––––––––––––––––––

DR Peak RMS Duration Track
––––––––––––––––––––––––––––––––––––––––
DR7 -0.10 dB -8.34 dB 6:46 01-Gypsy Train
DR8 -0.10 dB -9.23 dB 4:46 02-Don't Chain My Heart
DR8 -0.10 dB -9.97 dB 5:45 03-Never Enough
DR8 -0.10 dB -9.35 dB 5:42 04-How Many Times
DR8 -0.10 dB -9.71 dB 5:14 05-2 Hearts
DR9 -0.10 dB -10.53 dB 7:29 06-Wings Of Time
DR9 -0.10 dB -10.02 dB 5:28 07-She Knows The Devil
DR8 -0.10 dB -9.95 dB 4:40 08-The Other Side
DR8 -0.10 dB -9.65 dB 4:29 09-Only You
DR8 -0.10 dB -9.37 dB 7:18 10-Kingdom Of Desire
DR8 -0.10 dB -10.36 dB 7:10 11-Jake To The Bone
DR9 -0.10 dB -11.25 dB 4:16 12-Little Wing
––––––––––––––––––––––––––––––––––––––––

Number of tracks: 12
Official DR value: DR8

Samplerate: 44100 Hz
Channels: 2
Bits per sample: 16
Bitrate: 1016 kbps
Codec: FLAC

======================

Toto: Studio Discography (1978-2006) Re-up

CD09: Toto - Tambu (1995)
EAC | Flac(Image) + Cue + Log & MP3 CBR 320Kbp's
2011 | Sony Music, SICP 3118 | ~ 548 or 180 Mb | Scans
Rock / Hard Rock / AOR / Soft Rock

Toto waxed philosophical on its first album to be recorded since the death of founding member Jeff Porcaro and his replacement by drummer Simon Phillips. The song lyrics were full of abstractions – apathy, dignity, faith, freedom, hope, hopelessness, hypocrisy, rage, trust (those are all from just the first song, "Gift of Faith") – which seemed to indicate that the band members were reflecting seriously, if not too specifically, on weighty issues in an angry, questioning manner. Some of the lyrics couched these internal struggles in romantic terms, but more often they seemed to refer to more general anguish. The group came up with a more focused, harder, bluesier musical style to carry the weight, and Steve Lukather sang expressively, making you wonder why they bothered so long with those cookie-cutter vocalists. Like a patient new to psychoanalysis, Toto went on at length (the album runs over 70 minutes), and without much coherence, about "the pain of my lifetime" and "a world of blind ambition," among other things. You couldn't call the result accomplished, but Tambu suggested that Toto was embarked on a new personal and musical journey that might lead in an interesting direction.

by William Ruhlmann
Tracklist:

01. Gift Of Faith (7:23)
02. I Will Remember (6:06)
03. Slipped Away (5:16)
04. If You Belong To Me (5:03)
05. Baby He's Your Man (5:40)
06. The Other End Of Time (5:04)
07. The Turning Point (5:25)
08. Time Is The Enemy (5:40)
09. Drag Him To The Roof (6:10)
10. Just Can't Get To You (5:03)
11. Dave's Going Skiing (4:59)
12. The Road Goes On (4:26)
13. Blackeye (3:39)

Exact Audio Copy V0.99 prebeta 5 from 4. May 2009

EAC extraction logfile from 19. February 2012, 11:57

Toto / Tambu

Used drive : PLEXTOR DVDR PX-810SA Adapter: 2 ID: 1

Read mode : Secure
Utilize accurate stream : Yes
Defeat audio cache : Yes
Make use of C2 pointers : No

Read offset correction : 48
Overread into Lead-In and Lead-Out : No
Fill up missing offset samples with silence : Yes
Delete leading and trailing silent blocks : No
Null samples used in CRC calculations : Yes
Used interface : Installed external ASPI interface

Used output format : Internal WAV Routines
Sample format : 44.100 Hz; 16 Bit; Stereo


TOC of the extracted CD

Track | Start | Length | Start sector | End sector
––––––––––––––––––––––––––––-
1 | 0:00.00 | 7:23.16 | 0 | 33240
2 | 7:23.16 | 6:06.29 | 33241 | 60719
3 | 13:29.45 | 5:16.04 | 60720 | 84423
4 | 18:45.49 | 5:03.48 | 84424 | 107196
5 | 23:49.22 | 5:40.70 | 107197 | 132766
6 | 29:30.17 | 5:04.58 | 132767 | 155624
7 | 34:35.00 | 5:25.49 | 155625 | 180048
8 | 40:00.49 | 5:40.01 | 180049 | 205549
9 | 45:40.50 | 6:11.02 | 205550 | 233376
10 | 51:51.52 | 5:03.28 | 233377 | 256129
11 | 56:55.05 | 4:59.07 | 256130 | 278561
12 | 61:54.12 | 4:27.68 | 278562 | 298654
13 | 66:22.05 | 3:39.17 | 298655 | 315096


Range status and errors

Selected range

Filename C:\Program Files\Downloads\Toto\Toto - Tambu (1995) {2011 Japan Mini LP SICP 3118}\Toto - Tambu.wav

Peak level 98.8 %
Range quality 99.9 %
Copy CRC D4479A4F
Copy OK

No errors occurred


AccurateRip summary

Track 1 accurately ripped (confidence 1) [F7DED58B]
Track 2 accurately ripped (confidence 1) [BDC567EC]
Track 3 accurately ripped (confidence 1) [E3F7FDA3]
Track 4 accurately ripped (confidence 1) [86E4B438]
Track 5 accurately ripped (confidence 1) [23046780]
Track 6 accurately ripped (confidence 1) [924CF11A]
Track 7 accurately ripped (confidence 1) [1C251016]
Track 8 accurately ripped (confidence 1) [DF426A3C]
Track 9 accurately ripped (confidence 1) [17802995]
Track 10 accurately ripped (confidence 1) [BC4F00B2]
Track 11 accurately ripped (confidence 1) [2CAC42AA]
Track 12 accurately ripped (confidence 1) [EFB38769]
Track 13 accurately ripped (confidence 1) [3CAE9EA7]

All tracks accurately ripped

End of status report

foobar2000 1.2.4 / Dynamic Range Meter 1.1.1
log date: 2013-07-14 11:38:43

––––––––––––––––––––––––––––––––––––––––
Analyzed: Toto / Tambu
––––––––––––––––––––––––––––––––––––––––

DR Peak RMS Duration Track
––––––––––––––––––––––––––––––––––––––––
DR8 -0.10 dB -8.99 dB 7:23 01-Gift Of Faith
DR7 -0.10 dB -8.66 dB 6:06 02-I Will Remember
DR7 -0.10 dB -8.99 dB 5:16 03-Slipped Away
DR8 -0.10 dB -9.73 dB 5:04 04-If You Belong To Me
DR7 -0.10 dB -8.41 dB 5:41 05-Baby He's Your Man
DR7 -0.10 dB -8.78 dB 5:05 06-The Other End Of Time
DR8 -0.10 dB -10.07 dB 5:26 07-The Turning Point
DR8 -0.10 dB -9.00 dB 5:40 08-Time Is The Enemy
DR8 -0.10 dB -9.08 dB 6:11 09-Drag Him To The Roof
DR8 -0.10 dB -10.15 dB 5:03 10-Just Can't Get To You
DR7 -0.10 dB -8.91 dB 4:59 11-Dave's Gone Skiing
DR7 -0.10 dB -10.10 dB 4:28 12-The Road Goes On
DR8 -0.10 dB -10.00 dB 3:39 13-Blackeye
––––––––––––––––––––––––––––––––––––––––

Number of tracks: 13
Official DR value: DR8

Samplerate: 44100 Hz
Channels: 2
Bits per sample: 16
Bitrate: 1013 kbps
Codec: FLAC

======================

Toto: Studio Discography (1978-2006) Re-up

CD10: Toto - Mindfields (1999)
EAC | Flac(Image) + Cue + Log & MP3 CBR 320Kbp's
2011 | Sony Music, SICP 3120 | ~ 604 or 207 Mb | Scans
Rock / Hard Rock / AOR / Soft Rock

Tracklist:

01. After You've Gone (6:37)
02. Mysterious Ways (3:40)
03. Mindfields (6:01)
04. High Price Of Hate (9:49)
05. Selfish (5:30)
06. No Love (4:35)
07. Caught In The Balance (6:21)
08. Last Love (4:58)
09. Mad About You (4:24)
10. One Road (3:45)
11. Melanie (5:19)
12. Cruel 5:57)
13. Better World (Parts 1, 2 & 3) (7:41)
14. Spanish Steps Of Rome ()

Exact Audio Copy V0.99 prebeta 5 from 4. May 2009

EAC extraction logfile from 18. February 2012, 15:38

Toto / Mindfields

Used drive : PLEXTOR DVDR PX-810SA Adapter: 2 ID: 1

Read mode : Secure
Utilize accurate stream : Yes
Defeat audio cache : Yes
Make use of C2 pointers : No

Read offset correction : 48
Overread into Lead-In and Lead-Out : No
Fill up missing offset samples with silence : Yes
Delete leading and trailing silent blocks : No
Null samples used in CRC calculations : Yes
Used interface : Installed external ASPI interface

Used output format : Internal WAV Routines
Sample format : 44.100 Hz; 16 Bit; Stereo


TOC of the extracted CD

Track | Start | Length | Start sector | End sector
––––––––––––––––––––––––––––-
1 | 0:00.00 | 6:37.47 | 0 | 29821
2 | 6:37.47 | 3:40.60 | 29822 | 46381
3 | 10:18.32 | 6:01.73 | 46382 | 73529
4 | 16:20.30 | 9:49.15 | 73530 | 117719
5 | 26:09.45 | 5:30.65 | 117720 | 142534
6 | 31:40.35 | 4:35.52 | 142535 | 163211
7 | 36:16.12 | 6:21.18 | 163212 | 191804
8 | 42:37.30 | 4:58.12 | 191805 | 214166
9 | 47:35.42 | 4:24.73 | 214167 | 234039
10 | 52:00.40 | 3:45.52 | 234040 | 250966
11 | 55:46.17 | 5:19.55 | 250967 | 274946
12 | 61:05.72 | 5:57.00 | 274947 | 301721
13 | 67:02.72 | 7:41.00 | 301722 | 336296
14 | 74:43.72 | 4:29.10 | 336297 | 356481


Range status and errors

Selected range

Filename C:\BitComet\Downloads\Toto\Toto - Mindfields (1999) {2011 Japan Mini LP SICP 3120}\Toto - Mindfields.wav

Peak level 98.8 %
Range quality 100.0 %
Copy CRC CF2283DB
Copy OK

No errors occurred


AccurateRip summary

Track 1 cannot be verified as accurate (confidence 5) [9182CF36], AccurateRip returned [580FCCFF]
Track 2 cannot be verified as accurate (confidence 4) [28617E16], AccurateRip returned [49B519E4]
Track 3 cannot be verified as accurate (confidence 4) [45089DFA], AccurateRip returned [EC59E5CB]
Track 4 cannot be verified as accurate (confidence 4) [AD14C278], AccurateRip returned [205BE5A2]
Track 5 cannot be verified as accurate (confidence 4) [F10BC39F], AccurateRip returned [52D731ED]
Track 6 cannot be verified as accurate (confidence 5) [A761FBAB], AccurateRip returned [74255429]
Track 7 cannot be verified as accurate (confidence 4) [8143E127], AccurateRip returned [253DE3A9]
Track 8 cannot be verified as accurate (confidence 4) [B4CF8C64], AccurateRip returned [5F728A47]
Track 9 cannot be verified as accurate (confidence 4) [2DEBDA27], AccurateRip returned [7322E64D]
Track 10 cannot be verified as accurate (confidence 4) [6D3F74FF], AccurateRip returned [2231AEAF]
Track 11 cannot be verified as accurate (confidence 5) [FE51DB20], AccurateRip returned [A1D025CC]
Track 12 cannot be verified as accurate (confidence 4) [29099F9C], AccurateRip returned [6C2EB438]
Track 13 cannot be verified as accurate (confidence 5) [56F55AC7], AccurateRip returned [F2411BA0]
Track 14 cannot be verified as accurate (confidence 4) [8FA72724], AccurateRip returned [DF79F9CD]

No tracks could be verified as accurate
You may have a different pressing from the one(s) in the database

End of status report

foobar2000 1.2.4 / Dynamic Range Meter 1.1.1
log date: 2013-07-14 11:39:04

––––––––––––––––––––––––––––––––––––––––
Analyzed: Toto / Mindfields
––––––––––––––––––––––––––––––––––––––––

DR Peak RMS Duration Track
––––––––––––––––––––––––––––––––––––––––
DR7 -0.10 dB -7.79 dB 6:38 01-After You've Gone
DR7 -0.10 dB -7.78 dB 3:41 02-Mysterious Ways
DR7 -0.10 dB -8.95 dB 6:02 03-Mindfields
DR7 -0.10 dB -8.93 dB 9:49 04-High Price Of Hate
DR7 -0.10 dB -8.02 dB 5:31 05-Selfish
DR7 -0.10 dB -8.33 dB 4:36 06-No Love
DR7 -0.10 dB -8.05 dB 6:21 07-Caught In The Balance
DR8 -0.10 dB -9.32 dB 4:58 08-Last Love
DR8 -0.10 dB -8.79 dB 4:25 09-Mad About You
DR8 -0.10 dB -9.02 dB 3:46 10-One Road
DR7 -0.10 dB -8.76 dB 5:20 11-Melanie
DR7 -0.10 dB -8.87 dB 5:57 12-Cruel
DR7 -0.10 dB -9.23 dB 7:41 13-Better World Parts I, II & III
DR8 -0.10 dB -9.90 dB 4:29 14-Spanish Steps Of Rome
––––––––––––––––––––––––––––––––––––––––

Number of tracks: 14
Official DR value: DR7

Samplerate: 44100 Hz
Channels: 2
Bits per sample: 16
Bitrate: 1001 kbps
Codec: FLAC

======================

Toto: Studio Discography (1978-2006) Re-up

CD11: Toto - Through The Looking Glass (2002)
EAC | Flac(Image) + Cue + Log & MP3 CBR 320Kbp's
CMC, 5421442 | ~ 424 or 152 Mb | Scans
Rock / Hard Rock / AOR / Soft Rock

At this point in their career, Steve Lukather and Toto really have nothing to prove to anyone in the rock & roll community. They've accumulated more Top Ten hits with their ballads alone than most bands have their entire career, to say nothing of rock anthems that became cornerstones of arena rock during the '70s and '80s. And while it's been nearly a decade since original material was issued (2002's Through the Looking Glass was an album consisting of cover versions), Falling in Between sounds like a band trying to find itself during a midlife crisis. The title track, while adventurous by Toto's standards with its mixed-metered time signatures and Middle Eastern influences, sounds exactly like the prog rock heroes they aspire to emulate (confirmed by the track-by-track commentary provided in the liner notes). "Dying on My Feet" sounds like a cross between '80s-era Chicago and Foreigner, thanks in no small part to Chicago's James Pankow contributing horn arrangements and playing trombone on the tune. Things do get better along the way. The band finally finds its footing midway through, delivering well-polished performances, and Lukather's voice has stood the test of time surprisingly intact, especially when compared to some of his contemporaries. And while there's no new ground being trodden here, the band sounds fantastic thanks to amazing production values, delivering material that can stand up to some of their best stuff.

by Rob Theakston
Tracklist:

01. Could You Be Loved (3:47)
02. Bodhisattva (4:51)
03. While My Guitar Gently Weeps (5:15)
04. I Can't Get Next To You (4:04)
05. Living For The City (5:49)
06. Maiden Voyage/Butterfly (7:33)
07. Burn Down The Mission (6:28)
08. Sunshine Of Your Love (5:13)
09. House Of The Rising Sun (4:40)
10. Watching The Detectives (4:04)
11. It Takes A Lot To Laugh, It Takes A Train To Cry (3:52)

Exact Audio Copy V1.0 beta 3 from 29. August 2011

EAC extraction logfile from 20. February 2012, 3:19

Toto / Through The Looking Glass

Used drive : PLEXTOR DVDR PX-810SA Adapter: 2 ID: 1

Read mode : Secure
Utilize accurate stream : Yes
Defeat audio cache : Yes
Make use of C2 pointers : No

Read offset correction : 48
Overread into Lead-In and Lead-Out : No
Fill up missing offset samples with silence : Yes
Delete leading and trailing silent blocks : No
Null samples used in CRC calculations : Yes
Used interface : Installed external ASPI interface

Used output format : User Defined Encoder
Selected bitrate : 32 kBit/s
Quality : Low
Add ID3 tag : No
Command line compressor : C:\Program Files\Exact Audio Copy\FLAC\FLAC.EXE
Additional command line options : -8 -V -T "ARTIST=%artist%" -T "ALBUM=%albumtitle%" -T "DATE=%year%" -T "GENRE=%genre%" -T "COMMENT=EAC FLAC -8" %source%


TOC of the extracted CD

Track | Start | Length | Start sector | End sector
––––––––––––––––––––––––––––-
1 | 0:00.00 | 3:47.37 | 0 | 17061
2 | 3:47.37 | 4:51.58 | 17062 | 38944
3 | 8:39.20 | 5:15.25 | 38945 | 62594
4 | 13:54.45 | 4:04.17 | 62595 | 80911
5 | 17:58.62 | 5:49.38 | 80912 | 107124
6 | 23:48.25 | 7:33.47 | 107125 | 141146
7 | 31:21.72 | 6:28.25 | 141147 | 170271
8 | 37:50.22 | 5:13.28 | 170272 | 193774
9 | 43:03.50 | 4:40.07 | 193775 | 214781
10 | 47:43.57 | 4:04.58 | 214782 | 233139
11 | 51:48.40 | 3:52.10 | 233140 | 250549


Range status and errors

Selected range

Filename C:\Program Files\Downloads\Toto\Toto - Through The Looking Glass (2002)\Toto - Through The Looking Glass.wav

Peak level 99.8 %
Extraction speed 5.9 X
Range quality 100.0 %
Test CRC 9A34DF06
Copy CRC 9A34DF06
Copy OK

No errors occurred


AccurateRip summary

Track 1 accurately ripped (confidence 4) [06E433A1] (AR v1)
Track 2 accurately ripped (confidence 4) [10430DE6] (AR v1)
Track 3 accurately ripped (confidence 4) [55890C12] (AR v1)
Track 4 accurately ripped (confidence 4) [4BFF9E70] (AR v1)
Track 5 accurately ripped (confidence 4) [F1571D77] (AR v1)
Track 6 accurately ripped (confidence 5) [1BC92CDC] (AR v1)
Track 7 accurately ripped (confidence 4) [C71F1EBC] (AR v1)
Track 8 accurately ripped (confidence 4) [4910F632] (AR v1)
Track 9 accurately ripped (confidence 4) [48539C40] (AR v1)
Track 10 accurately ripped (confidence 4) [FC681C48] (AR v1)
Track 11 accurately ripped (confidence 3) [D640B219] (AR v1)

All tracks accurately ripped

End of status report

foobar2000 1.2.4 / Dynamic Range Meter 1.1.1
log date: 2013-07-14 11:39:22

––––––––––––––––––––––––––––––––––––––––
Analyzed: Toto / Through The Looking Glass
––––––––––––––––––––––––––––––––––––––––

DR Peak RMS Duration Track
––––––––––––––––––––––––––––––––––––––––
DR8 -0.02 dB -9.58 dB 3:47 01-Could You Be Loved
DR7 -0.22 dB -8.63 dB 4:52 02-Bodhisattva
DR8 -0.02 dB -9.94 dB 5:15 03-While My Guitar Gently Weeps
DR7 -0.02 dB -9.06 dB 4:04 04-I Can't Get Next To You
DR7 -0.01 dB -9.06 dB 5:50 05-Living For The City
DR8 -0.14 dB -9.94 dB 7:34 06-Maiden Voyage / Butterfly
DR5 -0.02 dB -7.78 dB 6:28 07-Burn Down The Mission
DR6 -0.22 dB -7.47 dB 5:13 08-Sunshine Of Your Love
DR6 -0.22 dB -7.42 dB 4:40 09-House Of The Rising Sun
DR9 -0.02 dB -10.35 dB 4:05 10-Watching The Detectives
DR5 -0.22 dB -7.43 dB 3:52 11-It Takes A Lot To Laugh, It Takes A Train To Cry
––––––––––––––––––––––––––––––––––––––––

Number of tracks: 11
Official DR value: DR7

Samplerate: 44100 Hz
Channels: 2
Bits per sample: 16
Bitrate: 983 kbps
Codec: FLAC

======================

Toto: Studio Discography (1978-2006) Re-up

CD12: Toto - Falling In Between (2006)
EAC | Flac(Image) + Cue + Log & MP3 CBR 320Kbp's
King Record, KICP 1120 | ~ 400 or 146 Mb | Scans
Rock / Hard Rock / AOR / Soft Rock

At this point in their career, Steve Lukather and Toto really have nothing to prove to anyone in the rock & roll community. They've accumulated more Top Ten hits with their ballads alone than most bands have their entire career, to say nothing of rock anthems that became cornerstones of arena rock during the '70s and '80s. And while it's been nearly a decade since original material was issued (2002's Through the Looking Glass was an album consisting of cover versions), Falling in Between sounds like a band trying to find itself during a midlife crisis. The title track, while adventurous by Toto's standards with its mixed-metered time signatures and Middle Eastern influences, sounds exactly like the prog rock heroes they aspire to emulate (confirmed by the track-by-track commentary provided in the liner notes). "Dying on My Feet" sounds like a cross between '80s-era Chicago and Foreigner, thanks in no small part to Chicago's James Pankow contributing horn arrangements and playing trombone on the tune. Things do get better along the way. The band finally finds its footing midway through, delivering well-polished performances, and Lukather's voice has stood the test of time surprisingly intact, especially when compared to some of his contemporaries. And while there's no new ground being trodden here, the band sounds fantastic thanks to amazing production values, delivering material that can stand up to some of their best stuff.

by Rob Theakston
Tracklist:

01. Falling in Between (4:06)
02. Dying on My Feet (6:11)
03. Bottom of Your Soul (6:58)
04. King of the World (4:04)
05. Hooked (4:36)
06. Simple Life (2:22)
07. Taint Your World (4:01)
08. Let It Go (5:00)
09. Spiritual Man (5:22)
10. No End in Sight (6:10)
11. The Reeferman (Instrumental) (1:45)

Exact Audio Copy V0.99 prebeta 5 from 4. May 2009

EAC extraction logfile from 18. February 2012, 16:56

Toto / Falling In Between

Used drive : PLEXTOR DVDR PX-810SA Adapter: 2 ID: 1

Read mode : Secure
Utilize accurate stream : Yes
Defeat audio cache : Yes
Make use of C2 pointers : No

Read offset correction : 48
Overread into Lead-In and Lead-Out : No
Fill up missing offset samples with silence : Yes
Delete leading and trailing silent blocks : No
Null samples used in CRC calculations : Yes
Used interface : Installed external ASPI interface

Used output format : Internal WAV Routines
Sample format : 44.100 Hz; 16 Bit; Stereo


TOC of the extracted CD

Track | Start | Length | Start sector | End sector
––––––––––––––––––––––––––––-
1 | 0:00.00 | 4:06.20 | 0 | 18469
2 | 4:06.20 | 6:11.45 | 18470 | 46339
3 | 10:17.65 | 6:58.02 | 46340 | 77691
4 | 17:15.67 | 4:04.68 | 77692 | 96059
5 | 21:20.60 | 4:36.70 | 96060 | 116829
6 | 25:57.55 | 2:22.15 | 116830 | 127494
7 | 28:19.70 | 4:01.57 | 127495 | 145626
8 | 32:21.52 | 5:00.30 | 145627 | 168156
9 | 37:22.07 | 5:22.60 | 168157 | 192366
10 | 42:44.67 | 6:12.53 | 192367 | 220319
11 | 48:57.45 | 1:45.70 | 220320 | 228264


Range status and errors

Selected range

Filename C:\Program Files\Downloads\Toto\Toto - Falling In Between (2006) {Japan KICP 1120}\Toto - Falling In Between.wav

Peak level 98.8 %
Range quality 100.0 %
Copy CRC D4C733A9
Copy OK

No errors occurred


AccurateRip summary

Track 1 accurately ripped (confidence 4) [48A85686]
Track 2 accurately ripped (confidence 4) [E927A68C]
Track 3 accurately ripped (confidence 4) [8C2E2DFF]
Track 4 accurately ripped (confidence 4) [89770D47]
Track 5 accurately ripped (confidence 4) [AC7CF87A]
Track 6 accurately ripped (confidence 4) [81836D09]
Track 7 accurately ripped (confidence 4) [7A8339F1]
Track 8 accurately ripped (confidence 4) [DBFCD980]
Track 9 accurately ripped (confidence 4) [9F0D4E0E]
Track 10 accurately ripped (confidence 4) [E1EA2354]
Track 11 accurately ripped (confidence 4) [9803AF11]

All tracks accurately ripped

End of status report

foobar2000 1.2.4 / Dynamic Range Meter 1.1.1
log date: 2013-07-14 11:39:40

––––––––––––––––––––––––––––––––––––––––
Analyzed: Toto / Falling In Between
––––––––––––––––––––––––––––––––––––––––

DR Peak RMS Duration Track
––––––––––––––––––––––––––––––––––––––––
DR6 -0.10 dB -7.77 dB 4:06 01-Falling In Between
DR6 -0.10 dB -7.69 dB 6:12 02-Dying On My Feet
DR6 -0.10 dB -8.41 dB 6:58 03-Bottom Of Your Soul
DR5 -0.10 dB -7.78 dB 4:05 04-King Of The World
DR5 -0.20 dB -6.84 dB 4:37 05-Hooked
DR5 -0.10 dB -8.63 dB 2:22 06-Simple Life
DR5 -0.30 dB -6.34 dB 4:02 07-Taint Your World
DR5 -0.10 dB -6.47 dB 5:00 08-Let It Go
DR6 -0.10 dB -8.70 dB 5:23 09-Spiritual Man
DR5 -0.20 dB -6.67 dB 6:13 10-No End In Sight
DR6 -0.30 dB -7.90 dB 1:46 11-The Reeferman (Instrumental)
––––––––––––––––––––––––––––––––––––––––

Number of tracks: 11
Official DR value: DR5

Samplerate: 44100 Hz
Channels: 2
Bits per sample: 16
Bitrate: 999 kbps
Codec: FLAC

All thanks go to erro

Download Toto: Studio Discography (1978-2006):