Tags
Language
Tags

Toto - Africa: The Best Of Toto (2009) 2CDs [Re-Up]

Posted By: Designol
Toto - Africa: The Best Of Toto (2009) 2CDs [Re-Up]

Toto - Africa: The Best Of Toto (2009) 2CDs
EAC | FLAC | Image (Cue&Log) ~ 1 Gb | Mp3 (CBR320) ~ 326 Mb | Scans ~ 68 Mb
Label: Camden/Sony Music | # 88697536632 | Time: 02:22:33
Rock, Pop Rock, Soft Rock, Adult Contemporary

The 2009 compilation Africa: The Best of Toto is a double-disc set that contains all of Toto's big hits – "Africa", "Rosanna", "Hold the Line", "I Won't Hold You Back", "99", "Georgy Porgy" – and a bunch of album tracks. This is too much for most casual fans, the kind who just want the aforementioned hits, but for those who want to dig a little deeper this is a good, affordable way to do so.

Review by Stephen Thomas Erlewine, Allmusic.com

Toto - Africa: The Best Of Toto (2009) 2CDs [Re-Up]



Tracklist:

CD1:

01. Africa (04:57)
02. Rosanna (05:30)
03. Hold The Line (03:57)
04. I Won't Hold You Back (04:55)
05. Make Believe (03:43)
06. 99 (05:15)
07. I'll Supply The Love (03:47)
08. Stranger In Town (04:50)
09. Georgy Porgy (04:09)
10. St. George And The Dragon (04:45)
11. All Us Boys (05:01)
12. Goodbye Elenore (04:54)
13. Live For Today (04:01)
14. Angel Don't Cry (04:24)
15. Rockmaker (03:21)
16. Turn Back (03:58)

CD2:

01. I'll Be Over You (03:51)
02. Pamela (05:10)
03. I Will Remember (06:06)
04. You Got Me (03:12)
05. Anna (04:55)
06. Stop Loving You (04:30)
07. Endless (03:43)
08. Holyanna (04:17)
09. How Does It Feel (03:52)
10. Without Your Love (04:34)
11. If You Belong To Me (05:04)
12. Goin' Home (05:18)
13. Out Of Love (05:55)
14. Don't Chain My Heart (04:45)
15. Mushanga (05:38)


Exact Audio Copy V1.0 beta 3 from 29. August 2011

EAC extraction logfile from 17. March 2015, 21:44

Toto / Africa: The Best Of Toto (CD 1)

Used drive : HL-DT-STDVDRAM GH22NS40 Adapter: 4 ID: 0

Read mode : Secure
Utilize accurate stream : Yes
Defeat audio cache : Yes
Make use of C2 pointers : No

Read offset correction : 667
Overread into Lead-In and Lead-Out : No
Fill up missing offset samples with silence : Yes
Delete leading and trailing silent blocks : No
Null samples used in CRC calculations : Yes
Used interface : Native Win32 interface for Win NT & 2000

Used output format : User Defined Encoder
Selected bitrate : 1024 kBit/s
Quality : High
Add ID3 tag : No
Command line compressor : C:\Program Files\FLAC\flac.exe
Additional command line options : -V -8 -T "Date=%year%" -T "Genre=%genre%" %source%


TOC of the extracted CD

Track | Start | Length | Start sector | End sector
––––––––––––––––––––––––––––-
1 | 0:00.00 | 4:57.28 | 0 | 22302
2 | 4:57.28 | 5:30.14 | 22303 | 47066
3 | 10:27.42 | 3:57.24 | 47067 | 64865
4 | 14:24.66 | 4:55.18 | 64866 | 87008
5 | 19:20.09 | 3:43.42 | 87009 | 103775
6 | 23:03.51 | 5:15.58 | 103776 | 127458
7 | 28:19.34 | 3:47.61 | 127459 | 144544
8 | 32:07.20 | 4:50.54 | 144545 | 166348
9 | 36:57.74 | 4:09.30 | 166349 | 185053
10 | 41:07.29 | 4:45.52 | 185054 | 206480
11 | 45:53.06 | 5:01.58 | 206481 | 229113
12 | 50:54.64 | 4:54.58 | 229114 | 251221
13 | 55:49.47 | 4:01.64 | 251222 | 269360
14 | 59:51.36 | 4:24.58 | 269361 | 289218
15 | 64:16.19 | 3:21.16 | 289219 | 304309
16 | 67:37.35 | 3:58.61 | 304310 | 322220


Range status and errors

Selected range

Filename I:\Rips\Toto - Africa - The Best Of Toto (CD 1).wav

Peak level 100.0 %
Extraction speed 2.0 X
Range quality 99.9 %
Test CRC 0CF80F68
Copy CRC 0CF80F68
Copy OK

No errors occurred


AccurateRip summary

Track 1 accurately ripped (confidence 58) [BF2FCD11] (AR v2)
Track 2 accurately ripped (confidence 58) [A3C8D8D8] (AR v2)
Track 3 accurately ripped (confidence 58) [171C41C3] (AR v2)
Track 4 accurately ripped (confidence 58) [C3F556A3] (AR v2)
Track 5 accurately ripped (confidence 58) [F0613426] (AR v2)
Track 6 accurately ripped (confidence 58) [17748CEB] (AR v2)
Track 7 accurately ripped (confidence 58) [7AA27EA5] (AR v2)
Track 8 accurately ripped (confidence 58) [717036E6] (AR v2)
Track 9 accurately ripped (confidence 58) [900B957F] (AR v2)
Track 10 accurately ripped (confidence 58) [7C01AB37] (AR v2)
Track 11 accurately ripped (confidence 58) [EB5898CE] (AR v2)
Track 12 accurately ripped (confidence 58) [53C8868F] (AR v2)
Track 13 accurately ripped (confidence 58) [5626C35A] (AR v2)
Track 14 accurately ripped (confidence 58) [D7787D65] (AR v2)
Track 15 accurately ripped (confidence 58) [6AD44627] (AR v2)
Track 16 accurately ripped (confidence 58) [40187245] (AR v2)

All tracks accurately ripped

End of status report

==== Log checksum 2FFA6A00FA0939AE62A01EBCA3A8EA66533BF44E6A5A7EB97C3A024609806082 ====

foobar2000 1.2 / Dynamic Range Meter 1.1.1
log date: 2017-02-02 20:50:55

––––––––––––––––––––––––––––––––––––––––
Analyzed: Toto / Africa: The Best Of Toto (CD 1)
––––––––––––––––––––––––––––––––––––––––

DR Peak RMS Duration Track
––––––––––––––––––––––––––––––––––––––––
DR8 -0.81 dB -10.87 dB 4:57 01-Africa
DR7 -0.61 dB -10.76 dB 5:30 02-Rosanna
DR9 -0.01 dB -10.63 dB 3:57 03-Hold The Line
DR8 -0.01 dB -11.61 dB 4:55 04-I Won't Hold You Back
DR9 -0.51 dB -11.69 dB 3:44 05-Make Believe
DR9 -0.01 dB -11.50 dB 5:16 06-99
DR8 0.00 dB -9.64 dB 3:48 07-I'll Supply The Love
DR8 0.00 dB -10.18 dB 4:51 08-Stranger In Town
DR9 0.00 dB -11.45 dB 4:09 09-Georgy Porgy
DR9 0.00 dB -10.82 dB 4:46 10-St. George And The Dragon
DR8 0.00 dB -9.34 dB 5:02 11-All Us Boys
DR8 0.00 dB -9.73 dB 4:55 12-Goodbye Elenore
DR10 0.00 dB -11.70 dB 4:02 13-Live For Today
DR7 -0.20 dB -9.52 dB 4:25 14-Angel Don't Cry
DR7 -0.10 dB -8.75 dB 3:21 15-Rockmaker
DR7 0.00 dB -9.01 dB 3:59 16-Turn Back
––––––––––––––––––––––––––––––––––––––––

Number of tracks: 16
Official DR value: DR8

Samplerate: 44100 Hz
Channels: 2
Bits per sample: 16
Bitrate: 989 kbps
Codec: FLAC
================================================================================


Exact Audio Copy V1.0 beta 3 from 29. August 2011

EAC extraction logfile from 17. March 2015, 23:12

Toto / Africa: The Best Of Toto (CD 2)

Used drive : HL-DT-STDVDRAM GH22NS40 Adapter: 4 ID: 0

Read mode : Secure
Utilize accurate stream : Yes
Defeat audio cache : Yes
Make use of C2 pointers : No

Read offset correction : 667
Overread into Lead-In and Lead-Out : No
Fill up missing offset samples with silence : Yes
Delete leading and trailing silent blocks : No
Null samples used in CRC calculations : Yes
Used interface : Native Win32 interface for Win NT & 2000

Used output format : User Defined Encoder
Selected bitrate : 1024 kBit/s
Quality : High
Add ID3 tag : No
Command line compressor : C:\Program Files\FLAC\flac.exe
Additional command line options : -V -8 -T "Date=%year%" -T "Genre=%genre%" %source%


TOC of the extracted CD

Track | Start | Length | Start sector | End sector
––––––––––––––––––––––––––––-
1 | 0:00.00 | 3:51.38 | 0 | 17362
2 | 3:51.38 | 5:10.64 | 17363 | 40676
3 | 9:02.27 | 6:06.58 | 40677 | 68184
4 | 15:09.10 | 3:12.50 | 68185 | 82634
5 | 18:21.60 | 4:55.50 | 82635 | 104809
6 | 23:17.35 | 4:30.16 | 104810 | 125075
7 | 27:47.51 | 3:43.33 | 125076 | 141833
8 | 31:31.09 | 4:17.37 | 141834 | 161145
9 | 35:48.46 | 3:52.24 | 161146 | 178569
10 | 39:40.70 | 4:34.19 | 178570 | 199138
11 | 44:15.14 | 5:04.37 | 199139 | 221975
12 | 49:19.51 | 5:18.17 | 221976 | 245842
13 | 54:37.68 | 5:55.25 | 245843 | 272492
14 | 60:33.18 | 4:45.25 | 272493 | 293892
15 | 65:18.43 | 5:38.13 | 293893 | 319255


Range status and errors

Selected range

Filename I:\Rips\Toto - Africa - The Best Of Toto (CD 2).wav

Peak level 100.0 %
Extraction speed 2.1 X
Range quality 100.0 %
Test CRC 3E078D9B
Copy CRC 3E078D9B
Copy OK

No errors occurred


AccurateRip summary

Track 1 accurately ripped (confidence 49) [3544E113] (AR v2)
Track 2 accurately ripped (confidence 48) [4B54457B] (AR v2)
Track 3 accurately ripped (confidence 48) [487840CF] (AR v2)
Track 4 accurately ripped (confidence 48) [E2843DF7] (AR v2)
Track 5 accurately ripped (confidence 48) [D25650B0] (AR v2)
Track 6 accurately ripped (confidence 48) [0FCBD4C9] (AR v2)
Track 7 accurately ripped (confidence 48) [F481B5D3] (AR v2)
Track 8 accurately ripped (confidence 48) [E74EAAED] (AR v2)
Track 9 accurately ripped (confidence 48) [EFF5504A] (AR v2)
Track 10 accurately ripped (confidence 48) [F5BDAB2A] (AR v2)
Track 11 accurately ripped (confidence 48) [DEC0423B] (AR v2)
Track 12 accurately ripped (confidence 48) [3E02314E] (AR v2)
Track 13 accurately ripped (confidence 47) [A0A49D59] (AR v2)
Track 14 accurately ripped (confidence 48) [32E253DA] (AR v2)
Track 15 accurately ripped (confidence 48) [535E7113] (AR v2)

All tracks accurately ripped

End of status report

==== Log checksum 7DFEE296B666BF31C92443AA42E855D9B6282870B59690903D3DC5905C91196F ====

foobar2000 1.2 / Dynamic Range Meter 1.1.1
log date: 2017-02-02 20:52:03

––––––––––––––––––––––––––––––––––––––––
Analyzed: Toto / Africa: The Best Of Toto (CD 2)
––––––––––––––––––––––––––––––––––––––––

DR Peak RMS Duration Track
––––––––––––––––––––––––––––––––––––––––
DR8 -0.31 dB -11.18 dB 3:52 01-I'll Be Over You
DR8 0.00 dB -10.18 dB 5:11 02-Pamela
DR10 0.00 dB -10.87 dB 6:07 03-I Will Remember
DR10 0.00 dB -11.22 dB 3:13 04-You Got Me
DR9 0.00 dB -12.03 dB 4:56 05-Anna
DR9 0.00 dB -10.86 dB 4:30 06-Stop Loving You
DR9 0.00 dB -10.25 dB 3:43 07-Endless
DR8 -0.27 dB -9.72 dB 4:17 08-Holyanna
DR9 0.00 dB -12.23 dB 3:52 09-How Does It Feel
DR11 0.00 dB -13.47 dB 4:34 10-Without Your Love
DR9 0.00 dB -10.91 dB 5:04 11-If You Belong To Me
DR9 0.00 dB -11.07 dB 5:18 12-Goin' Home
DR10 0.00 dB -13.38 dB 5:55 13-Out Of Love
DR9 0.00 dB -10.41 dB 4:45 14-Don't Chain My Heart
DR10 0.00 dB -12.79 dB 5:38 15-Mushanga
––––––––––––––––––––––––––––––––––––––––

Number of tracks: 15
Official DR value: DR9

Samplerate: 44100 Hz
Channels: 2
Bits per sample: 16
Bitrate: 982 kbps
Codec: FLAC
================================================================================

Toto - Africa: The Best Of Toto (2009) 2CDs [Re-Up]

Toto - Africa: The Best Of Toto (2009) 2CDs [Re-Up]

All thanks to original releaser - powermet

More interesting music in My Blog