Toto - 35th Anniversary Tour: Live in Poland (2014) Blu-Ray

Posted By: jclane
Toto - 35th Anniversary Tour: Live in Poland (2014) Blu-Ray

Toto - 35th Anniversary Tour: Live in Poland (2014)
Full Blu-Ray | BDMV | MPEG-4 AVC Video / 29997 kbps / 1080i / 29,970 fps / 16:9 / High Profile 4.1
Audio 1: English / LPCM Audio / 2.0 / 48 kHz / 2304 kbps / 24-bit
Audio 2: English / DTS-HD Master Audio / 5.1 / 48 kHz / 5530 kbps / 24-bit (DTS Core: 5.1 / 48 kHz / 1509 kbps / 24-bit)
Subtitle: English, German, Spanish, French, Polish | RAR 3% Recovery | Total Time: 2h 10min. | 43.1 GB
Arena Rock, Hard Rock, Pop Rock

A wildly successful band in their own right, Toto helped shaped the sound of pop music in the '70s and '80s not just with their own songs, but as studio musicians for Boz Scaggs, Steely Dan, and Michael Jackson. Celebrating their 35th anniversary, the band that served as the backbone for some of the smoothest pop hits of their day take Europe by storm on 35th Anniversary Tour: Live in Poland. Playing to a massive, standing-room-only crowd in Lodz, Poland, a lineup featuring Steve Lukather, Steve Porcaro, David Paich, and Joseph Williams take to the stage to deliver a stellar performance for their ecstatic European fans. Featuring hits like "Africa," "Rosanna," and a rousing rendition of "Hold the Line," this live set does their old material justice, and will be a welcome addition to the collection of any die-hard Toto fan.

Setlist:

01. Intro 13
02. On the Run / Child's Anthem / Goodbye Elenore Medley
03. Goin' Home
04. Hydra
05. St. George and the Dragon
06. I'll Be Over You
07. It's a Feeling
08. Rosanna
09. Wings of Time
10. Falling in Between
11. I Won't Hold You Back
12. Pamela
13. 99
14. The Muse
15. White Sister
16. Better World
17. Africa
18. How Many Times
19. Stop Loving You
20. Hold the Line
21. Home of the Brave (Encore)

• Behind the Scenes


Disc Title: Toto
Disc Size: 44,943,552,013 bytes
Protection: AACS
BD-Java: No
BDInfo: 0.5.8

Notes:

BDINFO HOME:
Cinema Squid
http://www.cinemasquid.com/blu-ray/tools/bdinfo

INCLUDES FORUMS REPORT FOR:
AVS Forum Blu-ray Audio and Video Specifications Thread
http://www.avsforum.com/avs-vb/showthread.php?t=1155731


********************
PLAYLIST: 00001.MPLS
********************

<–- BEGIN FORUMS PASTE –->
                                                                                                                Total   Video                                             
Title                                                           Codec   Length  Movie Size      Disc Size       Bitrate Bitrate Main Audio Track                          Secondary Audio Track
-----                                                           ------  ------- --------------  --------------  ------- ------- ------------------                        ---------------------
00001.MPLS                                                      AVC     2:10:31 38,997,694,464  44,943,552,013  39.84   30.00   LPCM 2.0 2304Kbps (48kHz/24-bit)          DTS-HD Master 5.1 5530Kbps (48kHz/24-bit)


DISC INFO:

Disc Title:     Toto
Disc Size:      44,943,552,013 bytes
Protection:     AACS
BD-Java:        No
BDInfo:         0.5.8

PLAYLIST REPORT:

Name:                   00001.MPLS
Length:                 2:10:31.523 (h:m:s.ms)
Size:                   38,997,694,464 bytes
Total Bitrate:          39.84 Mbps

VIDEO:

Codec                   Bitrate             Description     
-----                   -------             -----------     
MPEG-4 AVC Video        29997 kbps          1080i / 29.970 fps / 16:9 / High Profile 4.1

AUDIO:

Codec                           Language        Bitrate         Description     
-----                           --------        -------         -----------     
LPCM Audio                      English         2304 kbps       2.0 / 48 kHz / 2304 kbps / 24-bit
DTS-HD Master Audio             English         5530 kbps       5.1 / 48 kHz / 5530 kbps / 24-bit (DTS Core: 5.1 / 48 kHz / 1509 kbps / 24-bit)

FILES:

Name            Time In         Length          Size            Total Bitrate   
----            -------         ------          ----            -------------   
00002.M2TS      0:00:00.000     2:10:31.523     38,997,694,464  39,837          

CHAPTERS:

Number          Time In         Length          Avg Video Rate  Max 1-Sec Rate  Max 1-Sec Time  Max 5-Sec Rate  Max 5-Sec Time  Max 10Sec Rate  Max 10Sec Time  Avg Frame Size  Max Frame Size  Max Frame Time  
------          -------         ------          --------------  --------------  --------------  --------------  --------------  --------------  --------------  --------------  --------------  --------------  
1               0:00:00.000     0:00:54.654     24,146 kbps     42,998 kbps     00:00:06.706    34,621 kbps     00:00:29.963    33,086 kbps     00:00:42.842    100,647 bytes   540,068 bytes   00:00:34.901    
2               0:00:54.654     0:05:32.699     31,908 kbps     44,261 kbps     00:02:09.896    35,066 kbps     00:02:05.859    33,672 kbps     00:02:00.887    133,081 bytes   517,166 bytes   00:04:57.063    
3               0:06:27.353     0:05:03.770     31,336 kbps     41,874 kbps     00:10:37.336    34,765 kbps     00:10:33.366    33,507 kbps     00:11:12.772    130,697 bytes   537,735 bytes   00:10:38.104    
4               0:11:31.123     0:07:17.904     30,781 kbps     42,043 kbps     00:16:02.561    34,298 kbps     00:12:48.567    33,453 kbps     00:18:28.574    128,383 bytes   457,552 bytes   00:16:35.394    
5               0:18:49.027     0:05:45.111     32,030 kbps     38,901 kbps     00:19:02.808    33,931 kbps     00:21:12.771    33,313 kbps     00:21:07.766    133,591 bytes   420,184 bytes   00:21:29.354    
6               0:24:34.139     0:05:19.485     27,412 kbps     38,028 kbps     00:25:33.565    33,588 kbps     00:25:29.561    33,166 kbps     00:25:24.556    114,332 bytes   380,891 bytes   00:29:13.785    
7               0:29:53.625     0:03:36.816     27,882 kbps     36,530 kbps     00:32:50.168    33,378 kbps     00:32:46.197    33,023 kbps     00:32:41.259    116,291 bytes   341,930 bytes   00:32:50.702    
8               0:33:30.441     0:09:43.416     30,213 kbps     40,551 kbps     00:40:55.452    34,503 kbps     00:40:51.415    33,231 kbps     00:39:49.754    126,013 bytes   433,598 bytes   00:39:40.945    
9               0:43:13.857     0:09:35.341     31,169 kbps     41,130 kbps     00:45:01.365    34,388 kbps     00:44:57.361    33,441 kbps     00:48:32.676    130,002 bytes   359,946 bytes   00:49:37.507    
10              0:52:49.199     0:04:02.242     29,931 kbps     39,946 kbps     00:53:40.216    34,342 kbps     00:53:51.061    33,468 kbps     00:53:31.208    124,836 bytes   434,837 bytes   00:54:09.346    
11              0:56:51.441     0:05:50.516     23,132 kbps     38,306 kbps     00:58:29.205    33,819 kbps     00:58:17.494    32,826 kbps     01:02:27.176    96,478 bytes    354,373 bytes   01:00:51.147    
12              1:02:41.958     0:06:11.838     29,415 kbps     42,509 kbps     01:05:17.647    34,756 kbps     01:05:13.676    33,778 kbps     01:05:08.638    122,685 bytes   393,922 bytes   01:06:58.981    
13              1:08:53.796     0:04:17.123     31,827 kbps     38,924 kbps     01:12:51.934    33,995 kbps     01:12:47.896    33,330 kbps     01:12:42.925    132,744 bytes   404,520 bytes   01:12:08.023    
14              1:13:10.919     0:02:43.563     27,298 kbps     37,985 kbps     01:14:22.458    33,796 kbps     01:14:18.454    33,208 kbps     01:14:13.515    113,857 bytes   388,721 bytes   01:14:02.771    
15              1:15:54.483     0:07:13.099     30,551 kbps     40,935 kbps     01:20:22.117    34,315 kbps     01:20:18.113    33,468 kbps     01:20:13.108    127,424 bytes   443,306 bytes   01:19:23.825    
16              1:23:07.582     0:08:13.292     25,604 kbps     38,999 kbps     01:29:44.178    34,127 kbps     01:28:32.340    33,166 kbps     01:29:48.116    106,791 bytes   359,243 bytes   01:23:42.183    
17              1:31:20.875     0:10:24.657     32,493 kbps     40,231 kbps     01:31:24.846    34,203 kbps     01:31:20.875    33,415 kbps     01:33:47.655    135,522 bytes   405,333 bytes   01:36:27.114    
18              1:41:45.532     0:05:50.783     32,444 kbps     46,680 kbps     01:42:10.457    35,777 kbps     01:42:06.453    34,263 kbps     01:42:01.448    135,320 bytes   638,779 bytes   01:42:11.325    
19              1:47:36.316     0:07:29.115     32,085 kbps     46,296 kbps     01:51:02.856    35,048 kbps     01:54:40.073    33,976 kbps     01:54:35.068    133,821 bytes   554,528 bytes   01:54:10.109    
20              1:55:05.431     0:05:14.681     31,976 kbps     37,114 kbps     01:58:00.139    33,655 kbps     01:55:06.699    33,152 kbps     01:57:05.084    133,368 bytes   363,619 bytes   01:55:27.587    
21              2:00:20.112     0:10:11.410     28,812 kbps     40,768 kbps     02:08:00.606    34,039 kbps     02:07:56.635    33,314 kbps     02:03:25.030    120,175 bytes   422,184 bytes   02:04:15.147    

STREAM DIAGNOSTICS:

File            PID             Type            Codec           Language                Seconds                 Bitrate                 Bytes           Packets         
----            ---             ----            -----           --------                --------------          --------------          -------------   -----           
00002.M2TS      4113 (0x1011)   0x1B            AVC                                     7831.390                29,998                  29,365,281,789  159,731,461     
00002.M2TS      4352 (0x1100)   0x80            LPCM            eng (English)           7831.390                2,310                   2,261,744,420   12,530,440      
00002.M2TS      4353 (0x1101)   0x86            DTS-HD MA       eng (English)           7831.390                5,530                   5,413,485,440   30,588,709      

<–– END FORUMS PASTE ––>

QUICK SUMMARY:

Disc Title: Toto
Disc Size: 44,943,552,013 bytes
Protection: AACS
BD-Java: No
Playlist: 00001.MPLS
Size: 38,997,694,464 bytes
Length: 2:10:31.523
Total Bitrate: 39.84 Mbps
Video: MPEG-4 AVC Video / 29997 kbps / 1080i / 29.970 fps / 16:9 / High Profile 4.1
Audio: English / LPCM Audio / 2.0 / 48 kHz / 2304 kbps / 24-bit
Audio: English / DTS-HD Master Audio / 5.1 / 48 kHz / 5530 kbps / 24-bit (DTS Core: 5.1 / 48 kHz / 1509 kbps / 24-bit)


********************
PLAYLIST: 00010.MPLS
********************

<–- BEGIN FORUMS PASTE –->
                                                                                                                Total   Video                                             
Title                                                           Codec   Length  Movie Size      Disc Size       Bitrate Bitrate Main Audio Track                          Secondary Audio Track
-----                                                           ------  ------- --------------  --------------  ------- ------- ------------------                        ---------------------
00010.MPLS                                                      AVC     2:10:31 38,997,694,464  44,943,552,013  39.84   30.00   LPCM 2.0 2304Kbps (48kHz/24-bit)          DTS-HD Master 5.1 5530Kbps (48kHz/24-bit)


DISC INFO:

Disc Title:     Toto
Disc Size:      44,943,552,013 bytes
Protection:     AACS
BD-Java:        No
BDInfo:         0.5.8

PLAYLIST REPORT:

Name:                   00010.MPLS
Length:                 2:10:31.523 (h:m:s.ms)
Size:                   38,997,694,464 bytes
Total Bitrate:          39.84 Mbps

VIDEO:

Codec                   Bitrate             Description     
-----                   -------             -----------     
MPEG-4 AVC Video        29997 kbps          1080i / 29.970 fps / 16:9 / High Profile 4.1

AUDIO:

Codec                           Language        Bitrate         Description     
-----                           --------        -------         -----------     
LPCM Audio                      English         2304 kbps       2.0 / 48 kHz / 2304 kbps / 24-bit
DTS-HD Master Audio             English         5530 kbps       5.1 / 48 kHz / 5530 kbps / 24-bit (DTS Core: 5.1 / 48 kHz / 1509 kbps / 24-bit)

FILES:

Name            Time In         Length          Size            Total Bitrate   
----            -------         ------          ----            -------------   
00002.M2TS      0:00:00.000     2:10:31.523     38,997,694,464  39,837          

CHAPTERS:

Number          Time In         Length          Avg Video Rate  Max 1-Sec Rate  Max 1-Sec Time  Max 5-Sec Rate  Max 5-Sec Time  Max 10Sec Rate  Max 10Sec Time  Avg Frame Size  Max Frame Size  Max Frame Time  
------          -------         ------          --------------  --------------  --------------  --------------  --------------  --------------  --------------  --------------  --------------  --------------  
1               0:00:00.000     0:00:54.654     24,146 kbps     42,998 kbps     00:00:06.706    34,621 kbps     00:00:29.963    33,086 kbps     00:00:42.842    100,647 bytes   540,068 bytes   00:00:34.901    
2               0:00:54.654     0:05:32.699     31,908 kbps     44,261 kbps     00:02:09.896    35,066 kbps     00:02:05.859    33,672 kbps     00:02:00.887    133,081 bytes   517,166 bytes   00:04:57.063    
3               0:06:27.353     0:05:03.770     31,336 kbps     41,874 kbps     00:10:37.336    34,765 kbps     00:10:33.366    33,507 kbps     00:11:12.772    130,697 bytes   537,735 bytes   00:10:38.104    
4               0:11:31.123     0:07:17.904     30,781 kbps     42,043 kbps     00:16:02.561    34,298 kbps     00:12:48.567    33,453 kbps     00:18:28.574    128,383 bytes   457,552 bytes   00:16:35.394    
5               0:18:49.027     0:05:45.111     32,030 kbps     38,901 kbps     00:19:02.808    33,931 kbps     00:21:12.771    33,313 kbps     00:21:07.766    133,591 bytes   420,184 bytes   00:21:29.354    
6               0:24:34.139     0:05:19.485     27,412 kbps     38,028 kbps     00:25:33.565    33,588 kbps     00:25:29.561    33,166 kbps     00:25:24.556    114,332 bytes   380,891 bytes   00:29:13.785    
7               0:29:53.625     0:03:36.816     27,882 kbps     36,530 kbps     00:32:50.168    33,378 kbps     00:32:46.197    33,023 kbps     00:32:41.259    116,291 bytes   341,930 bytes   00:32:50.702    
8               0:33:30.441     0:09:43.416     30,213 kbps     40,551 kbps     00:40:55.452    34,503 kbps     00:40:51.415    33,231 kbps     00:39:49.754    126,013 bytes   433,598 bytes   00:39:40.945    
9               0:43:13.857     0:09:35.341     31,169 kbps     41,130 kbps     00:45:01.365    34,388 kbps     00:44:57.361    33,441 kbps     00:48:32.676    130,002 bytes   359,946 bytes   00:49:37.507    
10              0:52:49.199     0:04:02.242     29,931 kbps     39,946 kbps     00:53:40.216    34,342 kbps     00:53:51.061    33,468 kbps     00:53:31.208    124,836 bytes   434,837 bytes   00:54:09.346    
11              0:56:51.441     0:05:50.516     23,132 kbps     38,306 kbps     00:58:29.205    33,819 kbps     00:58:17.494    32,826 kbps     01:02:27.176    96,478 bytes    354,373 bytes   01:00:51.147    
12              1:02:41.958     0:06:11.838     29,415 kbps     42,509 kbps     01:05:17.647    34,756 kbps     01:05:13.676    33,778 kbps     01:05:08.638    122,685 bytes   393,922 bytes   01:06:58.981    
13              1:08:53.796     0:04:17.123     31,827 kbps     38,924 kbps     01:12:51.934    33,995 kbps     01:12:47.896    33,330 kbps     01:12:42.925    132,744 bytes   404,520 bytes   01:12:08.023    
14              1:13:10.919     0:02:43.563     27,298 kbps     37,985 kbps     01:14:22.458    33,796 kbps     01:14:18.454    33,208 kbps     01:14:13.515    113,857 bytes   388,721 bytes   01:14:02.771    
15              1:15:54.483     0:07:13.099     30,551 kbps     40,935 kbps     01:20:22.117    34,315 kbps     01:20:18.113    33,468 kbps     01:20:13.108    127,424 bytes   443,306 bytes   01:19:23.825    
16              1:23:07.582     0:08:13.292     25,604 kbps     38,999 kbps     01:29:44.178    34,127 kbps     01:28:32.340    33,166 kbps     01:29:48.116    106,791 bytes   359,243 bytes   01:23:42.183    
17              1:31:20.875     0:10:24.657     32,493 kbps     40,231 kbps     01:31:24.846    34,203 kbps     01:31:20.875    33,415 kbps     01:33:47.655    135,522 bytes   405,333 bytes   01:36:27.114    
18              1:41:45.532     0:05:50.783     32,444 kbps     46,680 kbps     01:42:10.457    35,777 kbps     01:42:06.453    34,263 kbps     01:42:01.448    135,320 bytes   638,779 bytes   01:42:11.325    
19              1:47:36.316     0:07:29.115     32,085 kbps     46,296 kbps     01:51:02.856    35,048 kbps     01:54:40.073    33,976 kbps     01:54:35.068    133,821 bytes   554,528 bytes   01:54:10.109    
20              1:55:05.431     0:05:14.681     31,976 kbps     37,114 kbps     01:58:00.139    33,655 kbps     01:55:06.699    33,152 kbps     01:57:05.084    133,368 bytes   363,619 bytes   01:55:27.587    
21              2:00:20.112     0:10:11.410     28,812 kbps     40,768 kbps     02:08:00.606    34,039 kbps     02:07:56.635    33,314 kbps     02:03:25.030    120,175 bytes   422,184 bytes   02:04:15.147    

STREAM DIAGNOSTICS:

File            PID             Type            Codec           Language                Seconds                 Bitrate                 Bytes           Packets         
----            ---             ----            -----           --------                --------------          --------------          -------------   -----           
00002.M2TS      4113 (0x1011)   0x1B            AVC                                     7831.390                29,998                  29,365,281,789  159,731,461     
00002.M2TS      4352 (0x1100)   0x80            LPCM            eng (English)           7831.390                2,310                   2,261,744,420   12,530,440      
00002.M2TS      4353 (0x1101)   0x86            DTS-HD MA       eng (English)           7831.390                5,530                   5,413,485,440   30,588,709      

<–– END FORUMS PASTE ––>

QUICK SUMMARY:

Disc Title: Toto
Disc Size: 44,943,552,013 bytes
Protection: AACS
BD-Java: No
Playlist: 00010.MPLS
Size: 38,997,694,464 bytes
Length: 2:10:31.523
Total Bitrate: 39.84 Mbps
Video: MPEG-4 AVC Video / 29997 kbps / 1080i / 29.970 fps / 16:9 / High Profile 4.1
Audio: English / LPCM Audio / 2.0 / 48 kHz / 2304 kbps / 24-bit
Audio: English / DTS-HD Master Audio / 5.1 / 48 kHz / 5530 kbps / 24-bit (DTS Core: 5.1 / 48 kHz / 1509 kbps / 24-bit)


********************
PLAYLIST: 00002.MPLS
********************

<–- BEGIN FORUMS PASTE –->
                                                                                                                Total   Video                                             
Title                                                           Codec   Length  Movie Size      Disc Size       Bitrate Bitrate Main Audio Track                          Secondary Audio Track
-----                                                           ------  ------- --------------  --------------  ------- ------- ------------------                        ---------------------
00002.MPLS                                                      AVC     0:20:14 5,180,547,072   44,943,552,013  34.14   30.00   LPCM 2.0 2304Kbps (48kHz/24-bit)          


DISC INFO:

Disc Title:     Toto
Disc Size:      44,943,552,013 bytes
Protection:     AACS
BD-Java:        No
BDInfo:         0.5.8

PLAYLIST REPORT:

Name:                   00002.MPLS
Length:                 0:20:14.046 (h:m:s.ms)
Size:                   5,180,547,072 bytes
Total Bitrate:          34.14 Mbps

VIDEO:

Codec                   Bitrate             Description     
-----                   -------             -----------     
MPEG-4 AVC Video        29996 kbps          1080i / 29.970 fps / 16:9 / High Profile 4.1

AUDIO:

Codec                           Language        Bitrate         Description     
-----                           --------        -------         -----------     
LPCM Audio                      English         2304 kbps       2.0 / 48 kHz / 2304 kbps / 24-bit

SUBTITLES:

Codec                           Language        Bitrate         Description     
-----                           --------        -------         -----------     
Presentation Graphics           English         59.682 kbps                     
Presentation Graphics           German          57.611 kbps                     
Presentation Graphics           Spanish         54.005 kbps                     
Presentation Graphics           French          51.227 kbps                     
Presentation Graphics           Polish          53.629 kbps                     

FILES:

Name            Time In         Length          Size            Total Bitrate   
----            -------         ------          ----            -------------   
00003.M2TS      0:00:00.000     0:20:14.046     5,180,547,072   34,137          

CHAPTERS:

Number          Time In         Length          Avg Video Rate  Max 1-Sec Rate  Max 1-Sec Time  Max 5-Sec Rate  Max 5-Sec Time  Max 10Sec Rate  Max 10Sec Time  Avg Frame Size  Max Frame Size  Max Frame Time  
------          -------         ------          --------------  --------------  --------------  --------------  --------------  --------------  --------------  --------------  --------------  --------------  
1               0:00:00.000     0:20:12.644     30,023 kbps     42,299 kbps     00:18:43.388    34,709 kbps     00:18:39.318    33,724 kbps     00:18:34.346    125,219 bytes   562,954 bytes   00:08:55.601    
2               0:20:12.644     0:00:01.401     6,226 kbps      6,345 kbps      00:20:12.644    0 kbps          00:00:00.000    0 kbps          00:00:00.000    26,601 bytes    137,637 bytes   00:20:12.744    

STREAM DIAGNOSTICS:

File            PID             Type            Codec           Language                Seconds                 Bitrate                 Bytes           Packets         
----            ---             ----            -----           --------                --------------          --------------          -------------   -----           
00003.M2TS      4113 (0x1011)   0x1B            AVC                                     1213.913                29,999                  4,552,054,471   24,760,521      
00003.M2TS      4352 (0x1100)   0x80            LPCM            eng (English)           1213.913                2,311                   350,617,640     1,942,480       
00003.M2TS      4608 (0x1200)   0x90            PGS             eng (English)           1213.913                60                      9,057,163       51,284          
00003.M2TS      4609 (0x1201)   0x90            PGS             deu (German)            1213.913                58                      8,742,867       49,637          
00003.M2TS      4610 (0x1202)   0x90            PGS             spa (Spanish)           1213.913                54                      8,195,643       46,674          
00003.M2TS      4611 (0x1203)   0x90            PGS             fra (French)            1213.913                51                      7,773,954       44,378          
00003.M2TS      4612 (0x1204)   0x90            PGS             pol (Polish)            1213.913                54                      8,138,546       46,367          

<–– END FORUMS PASTE ––>

QUICK SUMMARY:

Disc Title: Toto
Disc Size: 44,943,552,013 bytes
Protection: AACS
BD-Java: No
Playlist: 00002.MPLS
Size: 5,180,547,072 bytes
Length: 0:20:14.046
Total Bitrate: 34.14 Mbps
Video: MPEG-4 AVC Video / 29996 kbps / 1080i / 29.970 fps / 16:9 / High Profile 4.1
Audio: English / LPCM Audio / 2.0 / 48 kHz / 2304 kbps / 24-bit
Subtitle: English / 59.682 kbps
Subtitle: German / 57.611 kbps
Subtitle: Spanish / 54.005 kbps
Subtitle: French / 51.227 kbps
Subtitle: Polish / 53.629 kbps


********************
PLAYLIST: 00011.MPLS
********************

<–- BEGIN FORUMS PASTE –->
                                                                                                                Total   Video                                             
Title                                                           Codec   Length  Movie Size      Disc Size       Bitrate Bitrate Main Audio Track                          Secondary Audio Track
-----                                                           ------  ------- --------------  --------------  ------- ------- ------------------                        ---------------------
00011.MPLS                                                      AVC     0:20:14 5,180,547,072   44,943,552,013  34.14   30.00   LPCM 2.0 2304Kbps (48kHz/24-bit)          


DISC INFO:

Disc Title:     Toto
Disc Size:      44,943,552,013 bytes
Protection:     AACS
BD-Java:        No
BDInfo:         0.5.8

PLAYLIST REPORT:

Name:                   00011.MPLS
Length:                 0:20:14.046 (h:m:s.ms)
Size:                   5,180,547,072 bytes
Total Bitrate:          34.14 Mbps

VIDEO:

Codec                   Bitrate             Description     
-----                   -------             -----------     
MPEG-4 AVC Video        29996 kbps          1080i / 29.970 fps / 16:9 / High Profile 4.1

AUDIO:

Codec                           Language        Bitrate         Description     
-----                           --------        -------         -----------     
LPCM Audio                      English         2304 kbps       2.0 / 48 kHz / 2304 kbps / 24-bit

SUBTITLES:

Codec                           Language        Bitrate         Description     
-----                           --------        -------         -----------     
Presentation Graphics           English         59.682 kbps                     
Presentation Graphics           German          57.611 kbps                     
Presentation Graphics           Spanish         54.005 kbps                     
Presentation Graphics           French          51.227 kbps                     
Presentation Graphics           Polish          53.629 kbps                     

FILES:

Name            Time In         Length          Size            Total Bitrate   
----            -------         ------          ----            -------------   
00003.M2TS      0:00:00.000     0:20:14.046     5,180,547,072   34,137          

CHAPTERS:

Number          Time In         Length          Avg Video Rate  Max 1-Sec Rate  Max 1-Sec Time  Max 5-Sec Rate  Max 5-Sec Time  Max 10Sec Rate  Max 10Sec Time  Avg Frame Size  Max Frame Size  Max Frame Time  
------          -------         ------          --------------  --------------  --------------  --------------  --------------  --------------  --------------  --------------  --------------  --------------  
1               0:00:00.000     0:20:12.644     30,023 kbps     42,299 kbps     00:18:43.388    34,709 kbps     00:18:39.318    33,724 kbps     00:18:34.346    125,219 bytes   562,954 bytes   00:08:55.601    
2               0:20:12.644  			  		 	 	  		 	    	 			   		   	  			  	  			     	 			   		   	  		      			     	 			   		   	  			  				    0:00:01.401     6,226 kbps      6,345 kbps      00:20:12.644    0 kbps          00:00:00.000    0 kbps          00:00:00.000    26,601 bytes    137,637 bytes   00:20:12.744    

STREAM DIAGNOSTICS:

File            PID             Type            Codec           Language                Seconds                 Bitrate                 Bytes           Packets         
----            ---             ----            -----           --------                --------------          --------------          -------------   -----           
00003.M2TS      4113 (0x1011)   0x1B            AVC                                     1213.913                29,999                  4,552,054,471   24,760,521      
00003.M2TS      4352 (0x1100)   0x80            LPCM            eng (English)           1213.913                2,311                   350,617,640     1,942,480       
00003.M2TS      4608 (0x1200)   0x90            PGS             eng (English)           1213.913                60                      9,057,163       51,284          
00003.M2TS      4609 (0x1201)   0x90            PGS             deu (German)            1213.913                58                      8,742,867       49,637          
00003.M2TS      4610 (0x1202)   0x90            PGS             spa (Spanish)           1213.913                54                      8,195,643       46,674          
00003.M2TS      4611 (0x1203)   0x90            PGS             fra (French)            1213.913                51                      7,773,954       44,378          
00003.M2TS      4612 (0x1204)   0x90            PGS             pol (Polish)            1213.913                54                      8,138,546       46,367          

<–– END FORUMS PASTE ––>

QUICK SUMMARY:

Disc Title: Toto
Disc Size: 44,943,552,013 bytes
Protection: AACS
BD-Java: No
Playlist: 00011.MPLS
Size: 5,180,547,072 bytes
Length: 0:20:14.046
Total Bitrate: 34.14 Mbps
Video: MPEG-4 AVC Video / 29996 kbps / 1080i / 29.970 fps / 16:9 / High Profile 4.1
Audio: English / LPCM Audio / 2.0 / 48 kHz / 2304 kbps / 24-bit
Subtitle: English / 59.682 kbps
Subtitle: German / 57.611 kbps
Subtitle: Spanish / 54.005 kbps
Subtitle: French / 51.227 kbps
Subtitle: Polish / 53.629 kbps


Released Date: April 28, 2014
Format: Blu-ray Disc, Live Album
Length: 2h 10min

Toto - 35th Anniversary Tour: Live in Poland (2014) Blu-Ray

Toto - 35th Anniversary Tour: Live in Poland (2014) Blu-Ray

Toto - 35th Anniversary Tour: Live in Poland (2014) Blu-Ray

Toto - 35th Anniversary Tour: Live in Poland (2014) Blu-Ray

Toto - 35th Anniversary Tour: Live in Poland (2014) Blu-Ray

Toto - 35th Anniversary Tour: Live in Poland (2014) Blu-Ray

Toto - 35th Anniversary Tour: Live in Poland (2014) Blu-Ray

Toto - 35th Anniversary Tour: Live in Poland (2014) Blu-Ray

Toto - 35th Anniversary Tour: Live in Poland (2014) Blu-Ray

Toto - 35th Anniversary Tour: Live in Poland (2014) Blu-Ray

Many Thanks to the original releaser


All links are interchangeable!

Dead Links? please send me a private message.

http://uploaded.net/file/fb771g8h/ah.TOTO.35.D2014.BR.part01.rar
http://uploaded.net/file/51mt39y9/ah.TOTO.35.D2014.BR.part02.rar
http://uploaded.net/file/n8f7rp44/ah.TOTO.35.D2014.BR.part03.rar
http://uploaded.net/file/k5dz636l/ah.TOTO.35.D2014.BR.part04.rar
http://uploaded.net/file/1uwntoc3/ah.TOTO.35.D2014.BR.part05.rar
http://uploaded.net/file/ifhx2ndy/ah.TOTO.35.D2014.BR.part06.rar
http://uploaded.net/file/wxger9t2/ah.TOTO.35.D2014.BR.part07.rar
http://uploaded.net/file/60ibt9vl/ah.TOTO.35.D2014.BR.part08.rar
http://uploaded.net/file/b80rycpm/ah.TOTO.35.D2014.BR.part09.rar
http://uploaded.net/file/y0j8qeg2/ah.TOTO.35.D2014.BR.part10.rar
http://uploaded.net/file/xbvv2n8p/ah.TOTO.35.D2014.BR.part11.rar
http://uploaded.net/file/2bfckag6/ah.TOTO.35.D2014.BR.part12.rar
http://uploaded.net/file/qa6o94lv/ah.TOTO.35.D2014.BR.part13.rar
http://uploaded.net/file/28v3yo1j/ah.TOTO.35.D2014.BR.part14.rar
http://uploaded.net/file/07bgcmd6/ah.TOTO.35.D2014.BR.part15.rar
http://uploaded.net/file/msc8m033/ah.TOTO.35.D2014.BR.part16.rar
http://uploaded.net/file/8e7u3cva/ah.TOTO.35.D2014.BR.part17.rar
http://uploaded.net/file/b4lkaaoe/ah.TOTO.35.D2014.BR.part18.rar
http://uploaded.net/file/8w0nbbgy/ah.TOTO.35.D2014.BR.part19.rar
http://uploaded.net/file/9bxobdyw/ah.TOTO.35.D2014.BR.part20.rar
http://uploaded.net/file/z5xsnxkx/ah.TOTO.35.D2014.BR.part21.rar
http://uploaded.net/file/r8lt22yc/ah.TOTO.35.D2014.BR.part22.rar
http://uploaded.net/file/fvjxvjou/ah.TOTO.35.D2014.BR.part23.rar
http://uploaded.net/file/l16g8ai0/ah.TOTO.35.D2014.BR.part24.rar
http://uploaded.net/file/jhwcqier/ah.TOTO.35.D2014.BR.part25.rar
http://uploaded.net/file/blreax6h/ah.TOTO.35.D2014.BR.part26.rar
http://uploaded.net/file/eku1xu0h/ah.TOTO.35.D2014.BR.part27.rar
http://uploaded.net/file/dp1dnzto/ah.TOTO.35.D2014.BR.part28.rar
http://uploaded.net/file/2a3sqxb2/ah.TOTO.35.D2014.BR.part29.rar
http://uploaded.net/file/6kad1sb0/ah.TOTO.35.D2014.BR.part30.rar
http://uploaded.net/file/djtk7ckx/ah.TOTO.35.D2014.BR.part31.rar
http://uploaded.net/file/92wwhmfd/ah.TOTO.35.D2014.BR.part32.rar
http://uploaded.net/file/z52irmkq/ah.TOTO.35.D2014.BR.part33.rar
http://uploaded.net/file/ss5qqqbq/ah.TOTO.35.D2014.BR.part34.rar
http://uploaded.net/file/3pde119z/ah.TOTO.35.D2014.BR.part35.rar
http://uploaded.net/file/6tn4te4n/ah.TOTO.35.D2014.BR.part36.rar
http://uploaded.net/file/sj8amcq1/ah.TOTO.35.D2014.BR.part37.rar
http://uploaded.net/file/yomqcout/ah.TOTO.35.D2014.BR.part38.rar
http://uploaded.net/file/al3d4gjh/ah.TOTO.35.D2014.BR.part39.rar
http://uploaded.net/file/a5edyhkr/ah.TOTO.35.D2014.BR.part40.rar
http://uploaded.net/file/kslli7kr/ah.TOTO.35.D2014.BR.part41.rar
http://uploaded.net/file/gqj3a85t/ah.TOTO.35.D2014.BR.part42.rar
http://uploaded.net/file/k6bqnh5h/ah.TOTO.35.D2014.BR.part43.rar
http://uploaded.net/file/uws2vp90/ah.TOTO.35.D2014.BR.part44.rar
http://uploaded.net/file/as0jiq92/ah.TOTO.35.D2014.BR.part45.rar
http://uploaded.net/file/8j4gp0c3/ah.TOTO.35.D2014.BR.part46.rar
http://uploaded.net/file/u1c7ggpd/ah.TOTO.35.D2014.BR.part47.rar

CHECKSUM.md5



https://www.oboom.com/VNUTK1VT/ah.TOTO.35.D2014.BR.part01.rar
https://www.oboom.com/8UA9PL8A/ah.TOTO.35.D2014.BR.part02.rar
https://www.oboom.com/CZYYSE2D/ah.TOTO.35.D2014.BR.part03.rar
https://www.oboom.com/WK9907WD/ah.TOTO.35.D2014.BR.part04.rar
https://www.oboom.com/PAJ0UC25/ah.TOTO.35.D2014.BR.part05.rar
https://www.oboom.com/T0J3UQPE/ah.TOTO.35.D2014.BR.part06.rar
https://www.oboom.com/CLNC0IDB/ah.TOTO.35.D2014.BR.part07.rar
https://www.oboom.com/XDIWAUVE/ah.TOTO.35.D2014.BR.part08.rar
https://www.oboom.com/MJO1CSYS/ah.TOTO.35.D2014.BR.part09.rar
https://www.oboom.com/VTD5N7DT/ah.TOTO.35.D2014.BR.part10.rar
https://www.oboom.com/GMEWCTDV/ah.TOTO.35.D2014.BR.part11.rar
https://www.oboom.com/BWXOKUE5/ah.TOTO.35.D2014.BR.part12.rar
https://www.oboom.com/BGHVTYWK/ah.TOTO.35.D2014.BR.part13.rar
https://www.oboom.com/MLJL5KV4/ah.TOTO.35.D2014.BR.part14.rar
https://www.oboom.com/NRJHN7VX/ah.TOTO.35.D2014.BR.part15.rar
https://www.oboom.com/STQZ6J5Q/ah.TOTO.35.D2014.BR.part16.rar
https://www.oboom.com/MGPZAQHL/ah.TOTO.35.D2014.BR.part17.rar
https://www.oboom.com/4MZY13XV/ah.TOTO.35.D2014.BR.part18.rar
https://www.oboom.com/WKX8246U/ah.TOTO.35.D2014.BR.part19.rar
https://www.oboom.com/UZR99WO5/ah.TOTO.35.D2014.BR.part20.rar
https://www.oboom.com/HIPXU6EE/ah.TOTO.35.D2014.BR.part21.rar
https://www.oboom.com/P6FY9I8X/ah.TOTO.35.D2014.BR.part22.rar
https://www.oboom.com/MKWMOUIG/ah.TOTO.35.D2014.BR.part23.rar
https://www.oboom.com/B9JNJ6WE/ah.TOTO.35.D2014.BR.part24.rar
https://www.oboom.com/6OT89OE7/ah.TOTO.35.D2014.BR.part25.rar
https://www.oboom.com/9GWKTUK1/ah.TOTO.35.D2014.BR.part26.rar
https://www.oboom.com/GQFE3JG8/ah.TOTO.35.D2014.BR.part27.rar
https://www.oboom.com/CLE1N7IN/ah.TOTO.35.D2014.BR.part28.rar
https://www.oboom.com/BY9VCX87/ah.TOTO.35.D2014.BR.part29.rar
https://www.oboom.com/30YU1GFZ/ah.TOTO.35.D2014.BR.part30.rar
https://www.oboom.com/6R0NETFK/ah.TOTO.35.D2014.BR.part31.rar
https://www.oboom.com/5RG9ZH4W/ah.TOTO.35.D2014.BR.part32.rar
https://www.oboom.com/TBGIE6P9/ah.TOTO.35.D2014.BR.part33.rar
https://www.oboom.com/8W14E8HT/ah.TOTO.35.D2014.BR.part34.rar
https://www.oboom.com/HP2JFFAB/ah.TOTO.35.D2014.BR.part35.rar
https://www.oboom.com/B5W8V3Z3/ah.TOTO.35.D2014.BR.part36.rar
https://www.oboom.com/ATB0ISWP/ah.TOTO.35.D2014.BR.part37.rar
https://www.oboom.com/7QHS7IIE/ah.TOTO.35.D2014.BR.part38.rar
https://www.oboom.com/NSLAO2BN/ah.TOTO.35.D2014.BR.part39.rar
https://www.oboom.com/Z9JUFY5V/ah.TOTO.35.D2014.BR.part40.rar
https://www.oboom.com/B2XPZSBS/ah.TOTO.35.D2014.BR.part41.rar
https://www.oboom.com/E7H273B7/ah.TOTO.35.D2014.BR.part42.rar
https://www.oboom.com/OP58LR5L/ah.TOTO.35.D2014.BR.part43.rar
https://www.oboom.com/Z9DNPIVC/ah.TOTO.35.D2014.BR.part44.rar
https://www.oboom.com/5H3TNTZY/ah.TOTO.35.D2014.BR.part45.rar
https://www.oboom.com/BBQY899L/ah.TOTO.35.D2014.BR.part46.rar
https://www.oboom.com/8DL7JUBU/ah.TOTO.35.D2014.BR.part47.rar

CHECKSUM.md5



http://rg.to/file/4bc0e258c03a010696fb095c0d633391/ah.TOTO.35.D2014.BR.part01.rar.html
http://rg.to/file/f02057c0d8b0bfc1d7453dafe18e5a37/ah.TOTO.35.D2014.BR.part02.rar.html
http://rg.to/file/22cd00c46b3624fc2296fdf89e0f158b/ah.TOTO.35.D2014.BR.part03.rar.html
http://rg.to/file/caa1bbf89942aedb9a2d895b5c421a7f/ah.TOTO.35.D2014.BR.part04.rar.html
http://rg.to/file/430b3a2160a94ad427dc74eaf5d29481/ah.TOTO.35.D2014.BR.part05.rar.html
http://rg.to/file/27240aaba29ddedf41e3ab6605767d07/ah.TOTO.35.D2014.BR.part06.rar.html
http://rg.to/file/8f1c1a0e7f4cb690c3b407b0afc0b4f6/ah.TOTO.35.D2014.BR.part07.rar.html
http://rg.to/file/35bfbf776e6ada1e4043d8b92a431028/ah.TOTO.35.D2014.BR.part08.rar.html
http://rg.to/file/f57e406c7d830c003049583509902bbb/ah.TOTO.35.D2014.BR.part09.rar.html
http://rg.to/file/18b5e42a2651302c0e12ac6a50460dc4/ah.TOTO.35.D2014.BR.part10.rar.html
http://rg.to/file/e51293586f2a46f6934acc67828456a9/ah.TOTO.35.D2014.BR.part11.rar.html
http://rg.to/file/a6bdd3907415b1781685c4c6a1c46e96/ah.TOTO.35.D2014.BR.part12.rar.html
http://rg.to/file/237f1bd461ba8f1d0a527995c9195505/ah.TOTO.35.D2014.BR.part13.rar.html
http://rg.to/file/ccf27ae03d9e990f7eeda132f538266b/ah.TOTO.35.D2014.BR.part14.rar.html
http://rg.to/file/8b58b893f5b2225ad2347a928d0fb085/ah.TOTO.35.D2014.BR.part15.rar.html
http://rg.to/file/5b00a1d9c8a92dfa81e9096d1b50d16e/ah.TOTO.35.D2014.BR.part16.rar.html
http://rg.to/file/658f2723fe0b4689de3eebf0e9cb36f4/ah.TOTO.35.D2014.BR.part17.rar.html
http://rg.to/file/b18c322eac96062ff8860b648a64efde/ah.TOTO.35.D2014.BR.part18.rar.html
http://rg.to/file/dca16860c562172c95ddd44d01d8c396/ah.TOTO.35.D2014.BR.part19.rar.html
http://rg.to/file/d44064a3e7ec2fce6e2ba7d3f1f444b8/ah.TOTO.35.D2014.BR.part20.rar.html
http://rg.to/file/d97cf036f038da490a5915df81d959ec/ah.TOTO.35.D2014.BR.part21.rar.html
http://rg.to/file/f24c2e6eb0f76e51ea8a02de7cfb91ae/ah.TOTO.35.D2014.BR.part22.rar.html
http://rg.to/file/40b42342ca790ff0676762bbe80c6edb/ah.TOTO.35.D2014.BR.part23.rar.html
http://rg.to/file/c589d0e2062209e1c696dd1634e4ef23/ah.TOTO.35.D2014.BR.part24.rar.html
http://rg.to/file/33c5fe81648310f8693839db508770c5/ah.TOTO.35.D2014.BR.part25.rar.html
http://rg.to/file/6374b4a3f4ca3b72339e1e2878fa70bd/ah.TOTO.35.D2014.BR.part26.rar.html
http://rg.to/file/b7c2f88bbd1f3e22e1ab6910ce6d0726/ah.TOTO.35.D2014.BR.part27.rar.html
http://rg.to/file/0e872370d335ffbfc326532ab2959c81/ah.TOTO.35.D2014.BR.part28.rar.html
http://rg.to/file/56074da5d2e742d6a1b6fd0237be1092/ah.TOTO.35.D2014.BR.part29.rar.html
http://rg.to/file/06658d7fc81546defd01b1ff43aa8fc3/ah.TOTO.35.D2014.BR.part30.rar.html
http://rg.to/file/78dee870c00b126cb5dd73ce6d75c4a8/ah.TOTO.35.D2014.BR.part31.rar.html
http://rg.to/file/796ba06b7eb3c57ca85bc05641b8444b/ah.TOTO.35.D2014.BR.part32.rar.html
http://rg.to/file/f0ea531068845d6074f0592b15563186/ah.TOTO.35.D2014.BR.part33.rar.html
http://rg.to/file/820988de1c5526fe936117526f95e93e/ah.TOTO.35.D2014.BR.part34.rar.html
http://rg.to/file/914c21d96534087c6207356c8096033b/ah.TOTO.35.D2014.BR.part35.rar.html
http://rg.to/file/20a954ebb2a207b26f52d28e596d80ae/ah.TOTO.35.D2014.BR.part36.rar.html
http://rg.to/file/51c29f2f7b307629017ede65225fbc47/ah.TOTO.35.D2014.BR.part37.rar.html
http://rg.to/file/42340cc50248364463af9321ae64ce09/ah.TOTO.35.D2014.BR.part38.rar.html
http://rg.to/file/5dcef9268e63059b41911d37e324b530/ah.TOTO.35.D2014.BR.part39.rar.html
http://rg.to/file/82ac62e8fc05451eafefe18771c238a6/ah.TOTO.35.D2014.BR.part40.rar.html
http://rg.to/file/2be44faa9eb1cb49a898bf48f410ea5d/ah.TOTO.35.D2014.BR.part41.rar.html
http://rg.to/file/60400751e18334fc67384470189c48a0/ah.TOTO.35.D2014.BR.part42.rar.html
http://rg.to/file/31d1f653d13bedd1c6f403b49a598109/ah.TOTO.35.D2014.BR.part43.rar.html
http://rg.to/file/a77ecb1dbebf29c6e16484c8d4a8109b/ah.TOTO.35.D2014.BR.part44.rar.html
http://rg.to/file/8f0a04a206166fc771bb89056030aa87/ah.TOTO.35.D2014.BR.part45.rar.html
http://rg.to/file/c7876826595026ea687ea8bf88a068f6/ah.TOTO.35.D2014.BR.part46.rar.html
http://rg.to/file/d71e8c2c5362c08f849075179f151eb5/ah.TOTO.35.D2014.BR.part47.rar.html

CHECKSUM.md5


password: www.AvaxHome.ru