Subcategories

Tower Of Power - Power (1987)

Posted By: tiburon
Tower Of Power - Power (1987)

Tower Of Power - Power (1987)
EAC 1.0b1 | FLAC tracks level 8 | Cue+Log+M3U | Full Scans 600dpi | 224MB + 5% Recovery
Genre: Jazz Funk, Soul
Tower Of Power - Power (1987)

Stepping back from its 1979 disco foray, Tower of Power dropped out of sight for the better part of a decade, as internal strife and member changes ripped the band asunder and the Tower of Power Horns spent more time backing other musicians. Returning to the studio in 1986 with only Steve Fulton and Willie James Fulton held over from the earlier regime, the band recorded the shaky TOP LP (different from a similarly titled 1993 date). Initially released only in Sweden, the album was trimmed of two tracks, retitled Power, and racked in America the following year.
Track List
01. Baby's Got The Power 3:06
02. Credit 4:06
03. Some Days Were Meant For Rain 4:52
04. Boys Night Out 5:46
05. Ball And Chain 3:18
06. Through Lover's Eyes 3:39
07. Count On Me 3:24
08. On The One 3:58
09. Up Against Yourself 3:16

musicians
Emilio Castillo - tenor sax, vocals
Stephen Kupka - baritone sax
Greg Adams - trumpet, flugelhorn, vocals
Francis Prestia - bass
Willie Fulton - lead guitar, vocals
Ellis Hall - lead vocals, keyboards, rhythm guitar
Lee Thornburg - trumpet, flugelhorn, vocals
Richard Elliot - alto and tenor saxes, lyricon
Mick Mestek - drums

Produced by Emilio Castillo


Exact Audio Copy V1.0 beta 1 from 15. November 2010

EAC extraction logfile from 14. February 2013, 18:23

Tower Of Power / Power

Used drive : ATAPI iHAS424 Y Adapter: 0 ID: 3

Read mode : Secure
Utilize accurate stream : Yes
Defeat audio cache : Yes
Make use of C2 pointers : No

Read offset correction : 48
Overread into Lead-In and Lead-Out : No
Fill up missing offset samples with silence : Yes
Delete leading and trailing silent blocks : No
Null samples used in CRC calculations : Yes
Used interface : Native Win32 interface for Win NT & 2000
Gap handling : Appended to previous track

Used output format : User Defined Encoder
Selected bitrate : 768 kBit/s
Quality : High
Add ID3 tag : No
Command line compressor : C:\Program Files\Exact Audio Copy\Flac\flac.exe
Additional command line options : -8 -V -T "ARTIST=%a" -T "TITLE=%t" -T "ALBUM=%g" -T "DATE=%y" -T "TRACKNUMBER=%n" -T "TOTALTRACKS=%x" -T "GENRE=%m" -T "ALBUMARTIST=%v" -T "ALBUM ARTIST=%v" -T "COMMENT=EAC Secure Mode, Test & Copy, AccurateRip, FLAC -8" %s


TOC of the extracted CD

Track | Start | Length | Start sector | End sector
––––––––––––––––––––––––––––-
1 | 0:00.32 | 3:09.40 | 32 | 14246
2 | 3:09.72 | 4:07.35 | 14247 | 32806
3 | 7:17.32 | 4:55.35 | 32807 | 54966
4 | 12:12.67 | 5:51.20 | 54967 | 81311
5 | 18:04.12 | 3:16.10 | 81312 | 96021
6 | 21:20.22 | 3:41.38 | 96022 | 112634
7 | 25:01.60 | 3:29.30 | 112635 | 128339
8 | 28:31.15 | 4:04.50 | 128340 | 146689
9 | 32:35.65 | 3:19.52 | 146690 | 161666


Track 1

Filename D:\Uploads\Tower Of Power - Power (1987) [FLAC]\01 - Baby's Got The Power.wav

Pre-gap length 0:00:02.32

Peak level 85.0 %
Extraction speed 2.1 X
Track quality 100.0 %
Test CRC D1A74278
Copy CRC D1A74278
Accurately ripped (confidence 5) [65838D14]
Copy OK

Track 2

Filename D:\Uploads\Tower Of Power - Power (1987) [FLAC]\02 - Credit.wav

Pre-gap length 0:00:01.17

Peak level 81.3 %
Extraction speed 2.5 X
Track quality 100.0 %
Test CRC 0EC0B81D
Copy CRC 0EC0B81D
Accurately ripped (confidence 5) [6908D463]
Copy OK

Track 3

Filename D:\Uploads\Tower Of Power - Power (1987) [FLAC]\03 - Some Days Were Meant For Rain.wav

Pre-gap length 0:00:01.22

Peak level 64.7 %
Extraction speed 2.8 X
Track quality 100.0 %
Test CRC 8C1E1C1A
Copy CRC 8C1E1C1A
Accurately ripped (confidence 5) [67345314]
Copy OK

Track 4

Filename D:\Uploads\Tower Of Power - Power (1987) [FLAC]\04 - Boys Night Out.wav

Pre-gap length 0:00:01.32

Peak level 83.7 %
Extraction speed 3.1 X
Track quality 100.0 %
Test CRC 2F5C935F
Copy CRC 2F5C935F
Accurately ripped (confidence 5) [660C9775]
Copy OK

Track 5

Filename D:\Uploads\Tower Of Power - Power (1987) [FLAC]\05 - Ball And Chain.wav

Pre-gap length 0:00:01.65

Peak level 97.8 %
Extraction speed 3.1 X
Track quality 100.0 %
Test CRC 1F5235C4
Copy CRC 1F5235C4
Accurately ripped (confidence 5) [3AB0DD25]
Copy OK

Track 6

Filename D:\Uploads\Tower Of Power - Power (1987) [FLAC]\06 - Through Lover's Eyes.wav

Pre-gap length 0:00:01.05

Peak level 87.5 %
Extraction speed 2.9 X
Track quality 99.9 %
Test CRC 5A4B371D
Copy CRC 5A4B371D
Accurately ripped (confidence 5) [D4F26B19]
Copy OK

Track 7

Filename D:\Uploads\Tower Of Power - Power (1987) [FLAC]\07 - Count On Me.wav

Pre-gap length 0:00:00.58

Peak level 78.4 %
Extraction speed 3.4 X
Track quality 100.0 %
Test CRC 6A1C699C
Copy CRC 6A1C699C
Accurately ripped (confidence 5) [28F1F748]
Copy OK

Track 8

Filename D:\Uploads\Tower Of Power - Power (1987) [FLAC]\08 - On The One.wav

Pre-gap length 0:00:02.20

Peak level 79.3 %
Extraction speed 3.6 X
Track quality 100.0 %
Test CRC D8FEB678
Copy CRC D8FEB678
Accurately ripped (confidence 5) [D9DDB59C]
Copy OK

Track 9

Filename D:\Uploads\Tower Of Power - Power (1987) [FLAC]\09 - Up Against Yourself.wav

Pre-gap length 0:00:02.03

Peak level 75.3 %
Extraction speed 3.7 X
Track quality 100.0 %
Test CRC 0F01039E
Copy CRC 0F01039E
Accurately ripped (confidence 4) [A8D7EADE]
Copy OK


All tracks accurately ripped

No errors occurred

End of status report

==== Log checksum D5385E4AF854B1C9174E67CC8CDED997EB262F801FB80C938A79F20019304C3A ====


––––––––––––––––––––––––––––––––––––––––
Analyzed: Tower Of Power / Power
––––––––––––––––––––––––––––––––––––––––

DR Peak RMS Duration Track
––––––––––––––––––––––––––––––––––––––––
DR14 -1.41 dB -17.10 dB 3:10 01-Baby's Got The Power
DR13 -1.80 dB -17.06 dB 4:07 02-Credit
DR12 -3.77 dB -20.30 dB 4:55 03-Some Days Were Meant For Rain
DR16 -1.54 dB -19.33 dB 5:51 04-Boys Night Out
DR14 -0.19 dB -16.90 dB 3:16 05-Ball And Chain
DR14 -1.16 dB -18.02 dB 3:42 06-Through Lover's Eyes
DR14 -2.11 dB -18.67 dB 3:29 07-Count On Me
DR14 -2.01 dB -19.36 dB 4:05 08-On The One
DR13 -2.46 dB -17.57 dB 3:20 09-Up Against Yourself
––––––––––––––––––––––––––––––––––––––––

Number of tracks: 9
Official DR value: DR14

Samplerate: 44100 Hz
Channels: 2
Bits per sample: 16
Bitrate: 892 kbps
Codec: FLAC
================================================================================

Tower Of Power - Power (1987)
Tower Of Power - Power (1987)
Tower Of Power - Power (1987)


Rip and exclusive permission for reupload by albundy