Subcategories

Train - Albums Collection 1998-2009 [6CD]

Posted By: Designol
Train - Albums Collection 1998-2009 [6CD]

Train - Albums Collection 1998-2009 [6CD]
EAC | FLAC | Tracks (Cue&Log) ~ 2.46 Gb (incl 5%) | Mp3 (CBR320/Stereo) ~ 1 Gb (incl 5%)
Genre: Pop Rock, Alternative Rock, American Trad Rock | Time: 05:20:55 | Scans included

Collection includes: "Train" (1998); "Drops of Jupiter" (2001); "My Private Nation" (2003); "Alive at Last"(2004); "For Me, It's You" (2006) and "Save Me, San Francisco"(2009).
Train was inescapable during the turn of the 21st century, when songs like "Calling All Angels" and "Drops of Jupiter" made the San Francisco residents some of America's most popular balladeers. Although formed during the glory days of post-grunge, the group found more success in the pop/rock world, where Train straddled the line between adult contemporary and family-friendly alternative rock. The hits began drying up after 2003, but Train continued releasing material throughout the rest of the decade and even returned to the charts in 2010, when the single "Hey, Soul Sister" became a surprise Top 10 hit.

Following the dissolution of his Led Zeppelin cover band, singer Pat Monahan left his hometown of Erie, PA, in late 1993. He resettled in California and crossed paths with Rob Hotchkiss, the former frontman of a Los Angeles group named the Apostles. The two formed their own duo and began playing local coffeehouse shows, eventually expanding the group to a trio with the addition of former Apostles guitarist Jim Stafford. Bassist Charlie Colin and drummer Scott Underwood also climbed aboard, thus solidifying Train's lineup in 1994.

Over the course of several years, Train developed a sizable audience in the San Francisco area. The band also toured the country, opening shows for the likes of Barenaked Ladies and Counting Crows while drumming up enough money to record an album. Although few labels showed interest at first, Train eventually attracted the interest of Columbia Records, who signed the band to one of its smaller labels – Aware Records – and issued the self-financed debut record Train in 1998. "Meet Virginia" became a Top 40 hit one year later, but the band truly hit its stride in 2001, when Drops of Jupiter became a multi-platinum success thanks to its titular single. The song remained in the Top 40 for nearly 40 weeks, while the album itself sold more than three million copies.

My Private Nation followed in 2003 and went platinum, largely due to the successful single "Calling All Angels." Although the album didn't yield any more Top 40 hits, three of its songs fared well on the adult contemporary charts, a sign that Train had traded its alternative rock roots for an older fan base. For Me, It's You followed in 2006, but sales proved to be the lowest of Train's career. Accordingly, Monahan briefly turned his focus inward, releasing a solo album in 2007 and briefly touring behind it. He returned to the fold shortly thereafter, though, and Train issued its fifth album, Save Me, San Francisco, in 2009. The album helped rejuvenate Train's career, with "Hey, Soul Sister" peaking at number three on the Billboard 100. In 2012 the band released its sixth studio album, California 37.

Biography by Andrew Leahey, Allmusic.com
Train - Albums Collection 1998-2009 [6CD]



–––––––––––––––––––––––––––––––––––––––––-


Train - Albums Collection 1998-2009 [6CD]

Train (1998)
EAC | FLAC | Tracks (Cue&Log) ~ 396 Mb (incl 5%) | Mp3 (CBR320/Stereo) ~ 165 Mb (incl 5%)
Label: Columbia | # WK 38052 | Time: 00:56:37 | Scans included

If you like your alt country a bit heavy on the alternative side, with light classic rock touches, then look no further than Train's debut disc. Fronted impressively by vocalist/songwriter Patrick Monahan and supported by strong, guitar-driven pop melodies, this is easy listening rock with crafty edges and unforgettable tunes. "Eggplant," "I Am," "Free," and "Meet Virginia" crackle with inspired hooks and reflective lyrics. Train's music is direct and basic. All around, Train is a total package of good music with smart songcraft.

Review by Roxanne Blanford, Allmusic.com
Tracklist:

01. Meet Virginia (04:00)
02. I am (04:29)
03. If You Leave (03:29)
04. Homesick (04:39)
05. Free (03:58)
06. Blind (05:01)
07. Eggplant (03:11)
08. Idaho (04:57)
09. Days (04:39)
10. Rat (04:32)
11. Swaying (04:13)
12. Train (05:35)
13. Heavy (03:49)


Exact Audio Copy V0.99 prebeta 5 from 4. May 2009

EAC extraction logfile from 22. January 2011, 19:49

Train / Train

Used drive : PIONEER DVD-RW DVR-118L Adapter: 2 ID: 0

Read mode : Secure
Utilize accurate stream : Yes
Defeat audio cache : Yes
Make use of C2 pointers : No

Read offset correction : 6
Overread into Lead-In and Lead-Out : No
Fill up missing offset samples with silence : Yes
Delete leading and trailing silent blocks : No
Null samples used in CRC calculations : Yes
Used interface : Native Win32 interface for Win NT & 2000
Gap handling : Appended to previous track

Used output format : User Defined Encoder
Selected bitrate : 128 kBit/s
Quality : High
Add ID3 tag : No
Command line compressor : C:\Program Files (x86)\Exact Audio Copy\Flac\flac.exe
Additional command line options : -8 -V -T "ARTIST=%a" -T "TITLE=%t" -T "ALBUM=%g" -T "DATE=%y" -T "TRACKNUMBER=%n" -T "GENRE=%m" -T "COMMENT=EAC FLAC -8" %s


TOC of the extracted CD

Track | Start | Length | Start sector | End sector
––––––––––––––––––––––––––––-
1 | 0:00.00 | 4:00.15 | 0 | 18014
2 | 4:00.15 | 4:29.28 | 18015 | 38217
3 | 8:29.43 | 3:29.10 | 38218 | 53902
4 | 11:58.53 | 4:39.27 | 53903 | 74854
5 | 16:38.05 | 3:58.45 | 74855 | 92749
6 | 20:36.50 | 5:01.28 | 92750 | 115352
7 | 25:38.03 | 3:11.60 | 115353 | 129737
8 | 28:49.63 | 4:57.20 | 129738 | 152032
9 | 33:47.08 | 4:39.37 | 152033 | 172994
10 | 38:26.45 | 4:32.30 | 172995 | 193424
11 | 42:59.00 | 4:13.13 | 193425 | 212412
12 | 47:12.13 | 5:35.02 | 212413 | 237539
13 | 52:47.15 | 3:49.33 | 237540 | 254747


Track 1

Filename D:\Торрент\Train\1998 - Train\01. Train - Meet Virginia.wav

Pre-gap length 0:00:02.00

Peak level 99.8 %
Track quality 100.0 %
Test CRC 7F865F3C
Copy CRC 7F865F3C
Accurately ripped (confidence 3) [CEF16763]
Copy OK

Track 2

Filename D:\Торрент\Train\1998 - Train\02. Train - I am.wav

Peak level 99.8 %
Track quality 100.0 %
Test CRC 0572FD41
Copy CRC 0572FD41
Accurately ripped (confidence 3) [6E142A17]
Copy OK

Track 3

Filename D:\Торрент\Train\1998 - Train\03. Train - If You Leave.wav

Peak level 99.5 %
Track quality 100.0 %
Test CRC 981A5B03
Copy CRC 981A5B03
Accurately ripped (confidence 3) [F99834E3]
Copy OK

Track 4

Filename D:\Торрент\Train\1998 - Train\04. Train - Homesick.wav

Peak level 99.8 %
Track quality 100.0 %
Test CRC 3089260B
Copy CRC 3089260B
Accurately ripped (confidence 3) [049D160D]
Copy OK

Track 5

Filename D:\Торрент\Train\1998 - Train\05. Train - Free.wav

Peak level 99.8 %
Track quality 100.0 %
Test CRC B3668866
Copy CRC B3668866
Accurately ripped (confidence 3) [2C2535CC]
Copy OK

Track 6

Filename D:\Торрент\Train\1998 - Train\06. Train - Blind.wav

Peak level 99.8 %
Track quality 100.0 %
Test CRC 025E3D5F
Copy CRC 025E3D5F
Accurately ripped (confidence 3) [5DC65A40]
Copy OK

Track 7

Filename D:\Торрент\Train\1998 - Train\07. Train - Eggplant.wav

Peak level 98.8 %
Track quality 100.0 %
Test CRC 3B4687D6
Copy CRC 3B4687D6
Accurately ripped (confidence 3) [68459657]
Copy OK

Track 8

Filename D:\Торрент\Train\1998 - Train\08. Train - Idaho.wav

Peak level 99.8 %
Track quality 100.0 %
Test CRC 8496AEF8
Copy CRC 8496AEF8
Accurately ripped (confidence 3) [B09F2B2F]
Copy OK

Track 9

Filename D:\Торрент\Train\1998 - Train\09. Train - Days.wav

Peak level 98.2 %
Track quality 100.0 %
Test CRC E6E621ED
Copy CRC E6E621ED
Accurately ripped (confidence 3) [9A566A71]
Copy OK

Track 10

Filename D:\Торрент\Train\1998 - Train\10. Train - Rat.wav

Pre-gap length 0:00:01.82

Peak level 97.1 %
Track quality 100.0 %
Test CRC 4AAF8B64
Copy CRC 4AAF8B64
Accurately ripped (confidence 3) [DB9B4AF2]
Copy OK

Track 11

Filename D:\Торрент\Train\1998 - Train\11. Train - Swaying.wav

Peak level 96.8 %
Track quality 100.0 %
Test CRC 58CFD588
Copy CRC 58CFD588
Accurately ripped (confidence 3) [6AAE7CB9]
Copy OK

Track 12

Filename D:\Торрент\Train\1998 - Train\12. Train - Train.wav

Pre-gap length 0:01:01.70

Peak level 99.8 %
Track quality 100.0 %
Test CRC D7D168E5
Copy CRC D7D168E5
Accurately ripped (confidence 3) [837246AD]
Copy OK

Track 13

Filename D:\Торрент\Train\1998 - Train\13. Train - Heavy.wav

Peak level 99.8 %
Track quality 100.0 %
Test CRC B1544548
Copy CRC B1544548
Accurately ripped (confidence 3) [31484106]
Copy OK


All tracks accurately ripped

No errors occurred

End of status report

foobar2000 1.2.1 / Dynamic Range Meter 1.1.1
log date: 2013-02-24 03:37:27

––––––––––––––––––––––––––––––––––––––––
Analyzed: Train / Train
––––––––––––––––––––––––––––––––––––––––

DR Peak RMS Duration Track
––––––––––––––––––––––––––––––––––––––––
DR7 -0.01 dB -10.10 dB 4:00 01-Meet Virginia
DR9 -0.01 dB -11.45 dB 4:29 02-I am
DR8 -0.04 dB -9.51 dB 3:29 03-If You Leave
DR8 -0.01 dB -10.68 dB 4:39 04-Homesick
DR7 -0.01 dB -9.37 dB 3:59 05-Free
DR11 -0.01 dB -12.52 dB 5:01 06-Blind
DR8 -0.10 dB -10.93 dB 3:12 07-Eggplant
DR8 -0.01 dB -10.15 dB 4:57 08-Idaho
DR9 -0.15 dB -11.59 dB 4:39 09-Days
DR9 -0.25 dB -11.74 dB 4:32 10-Rat
DR11 -0.28 dB -14.54 dB 4:13 11-Swaying
DR8 -0.01 dB -9.89 dB 5:35 12-Train
DR13 -0.01 dB -16.09 dB 3:49 13-Heavy
––––––––––––––––––––––––––––––––––––––––

Number of tracks: 13
Official DR value: DR9

Samplerate: 44100 Hz
Channels: 2
Bits per sample: 16
Bitrate: 757 kbps
Codec: FLAC
================================================================================


–––––––––––––––––––––––––––––––––––––––––-


Train - Albums Collection 1998-2009 [6CD]

Drops Of Jupiter (2001)
EAC | FLAC | Tracks (Cue&Log) ~ 388 Mb (incl 5%) | Mp3 (CBR320/Stereo) ~ 155 Mb (incl 5%)
Label: Columbia | # CK 69888 | Time: 00:48:31 | Scans included

Although Train's singles got heavy rotation on "alternative" radio stations, there's nothing cutting-edge about the band's sophomore effort, Drops of Jupiter. Train is a classic rock wannabe band in the mold of Counting Crows, although that's not always a bad thing. In fact, the best moments on Drops of Jupiter are the most blatant rip-offs, which means the band can sound endearing even when they don't sound unique. Does the hit title track remind you of Madman Across the Water-era Elton John? Well, it's no coincidence. Paul Buckmaster, who arranged the soaring strings on much of John's best work, reprises that role here, and session keyboardist extraordinaire Chuck Leavell channels John on the piano. And when lead singer Pat Monahan sings "When I get this feeling" in "It's About You," just try not to sing "I want sexual healing" over the actual lyrics that follow. Overall, this is a safe, solid second effort from a band that knows how to write hit singles.

Review by Mark Morgenstein, Allmusic.com
Tracklist:

01. She's On Fire (03:49)
02. I Wish You Would (04:25)
03. Drops Of Jupiter (04:20)
04. It's About You (04:27)
05. Hopeless (04:31)
06. Respect (03:25)
07. Let It Roll (05:00)
08. Something More (04:33)
09. Whipping Boy (04:26)
10. Getaway (04:26)
11. Mississippi (05:05)


Exact Audio Copy V0.99 prebeta 5 from 4. May 2009

EAC extraction logfile from 16. November 2010, 23:17

Train / Drops Of Jupiter

Used drive : PIONEER DVD-RW DVR-118L Adapter: 2 ID: 0

Read mode : Secure
Utilize accurate stream : Yes
Defeat audio cache : Yes
Make use of C2 pointers : No

Read offset correction : 6
Overread into Lead-In and Lead-Out : No
Fill up missing offset samples with silence : Yes
Delete leading and trailing silent blocks : No
Null samples used in CRC calculations : Yes
Used interface : Native Win32 interface for Win NT & 2000
Gap handling : Appended to previous track

Used output format : User Defined Encoder
Selected bitrate : 128 kBit/s
Quality : High
Add ID3 tag : No
Command line compressor : C:\Program Files (x86)\Exact Audio Copy\Flac\flac.exe
Additional command line options : -8 -V -T "ARTIST=%a" -T "TITLE=%t" -T "ALBUM=%g" -T "DATE=%y" -T "TRACKNUMBER=%n" -T "GENRE=%m" -T "COMMENT=EAC FLAC -8" %s


TOC of the extracted CD

Track | Start | Length | Start sector | End sector
––––––––––––––––––––––––––––-
1 | 0:00.00 | 3:49.36 | 0 | 17210
2 | 3:49.36 | 4:25.38 | 17211 | 37123
3 | 8:14.74 | 4:20.37 | 37124 | 56660
4 | 12:35.36 | 4:27.12 | 56661 | 76697
5 | 17:02.48 | 4:31.08 | 76698 | 97030
6 | 21:33.56 | 3:25.52 | 97031 | 112457
7 | 24:59.33 | 5:00.19 | 112458 | 134976
8 | 29:59.52 | 4:33.31 | 134977 | 155482
9 | 34:33.08 | 4:26.54 | 155483 | 175486
10 | 38:59.62 | 4:26.05 | 175487 | 195441
11 | 43:25.67 | 5:05.20 | 195442 | 218336
12 | 51:03.12 | 15:22.34 | 229737 | 298920


Track 1

Filename C:\Program Files (x86)\Exact Audio Copy\Flac\Music\01. Train - She's On Fire.wav

Pre-gap length 0:00:02.00

Peak level 98.8 %
Track quality 99.9 %
Test CRC BC97FC64
Copy CRC BC97FC64
Accurately ripped (confidence 195) [25B0382E]
Copy OK

Track 2

Filename C:\Program Files (x86)\Exact Audio Copy\Flac\Music\02. Train - I Wish You Would.wav

Peak level 98.8 %
Track quality 100.0 %
Test CRC 858CD56B
Copy CRC 858CD56B
Accurately ripped (confidence 197) [E2E97EAA]
Copy OK

Track 3

Filename C:\Program Files (x86)\Exact Audio Copy\Flac\Music\03. Train - Drops Of Jupiter.wav

Pre-gap length 0:00:01.06

Peak level 99.9 %
Track quality 100.0 %
Test CRC DC254BF9
Copy CRC DC254BF9
Accurately ripped (confidence 197) [E847CD0E]
Copy OK

Track 4

Filename C:\Program Files (x86)\Exact Audio Copy\Flac\Music\04. Train - It's About You.wav

Pre-gap length 0:00:00.29

Peak level 98.8 %
Track quality 100.0 %
Test CRC 933089B2
Copy CRC 933089B2
Accurately ripped (confidence 196) [C8282B6C]
Copy OK

Track 5

Filename C:\Program Files (x86)\Exact Audio Copy\Flac\Music\05. Train - Hopeless.wav

Pre-gap length 0:00:01.53

Peak level 98.8 %
Track quality 100.0 %
Test CRC 4ED209AF
Copy CRC 4ED209AF
Accurately ripped (confidence 193) [38055177]
Copy OK

Track 6

Filename C:\Program Files (x86)\Exact Audio Copy\Flac\Music\06. Train - Respect.wav

Peak level 100.0 %
Track quality 100.0 %
Test CRC 9D6268E8
Copy CRC 9D6268E8
Accurately ripped (confidence 193) [F2808E1C]
Copy OK

Track 7

Filename C:\Program Files (x86)\Exact Audio Copy\Flac\Music\07. Train - Let It Roll.wav

Peak level 98.8 %
Track quality 100.0 %
Test CRC 6DC438F5
Copy CRC 6DC438F5
Accurately ripped (confidence 192) [22EFCEE5]
Copy OK

Track 8

Filename C:\Program Files (x86)\Exact Audio Copy\Flac\Music\08. Train - Something More.wav

Pre-gap length 0:00:25.86

Peak level 98.8 %
Track quality 100.0 %
Test CRC 1D0755D3
Copy CRC 1D0755D3
Accurately ripped (confidence 193) [9C5F03AE]
Copy OK

Track 9

Filename C:\Program Files (x86)\Exact Audio Copy\Flac\Music\09. Train - Whipping Boy.wav

Peak level 98.8 %
Track quality 100.0 %
Test CRC 3C9ADE4E
Copy CRC 3C9ADE4E
Accurately ripped (confidence 192) [EDE793D2]
Copy OK

Track 10

Filename C:\Program Files (x86)\Exact Audio Copy\Flac\Music\10. Train - Getaway.wav

Peak level 98.8 %
Track quality 100.0 %
Test CRC D8F1072A
Copy CRC D8F1072A
Accurately ripped (confidence 193) [069FEF65]
Copy OK

Track 11

Filename C:\Program Files (x86)\Exact Audio Copy\Flac\Music\11. Train - Mississippi.wav

Pre-gap length 0:00:00.69

Peak level 100.0 %
Track quality 100.0 %
Test CRC B7F76391
Copy CRC B7F76391
Accurately ripped (confidence 186) [F8601697]
Copy OK


All tracks accurately ripped

No errors occurred

End of status report

foobar2000 1.2.1 / Dynamic Range Meter 1.1.1
log date: 2013-02-24 03:38:13

––––––––––––––––––––––––––––––––––––––––
Analyzed: Train / Drops Of Jupiter
––––––––––––––––––––––––––––––––––––––––

DR Peak RMS Duration Track
––––––––––––––––––––––––––––––––––––––––
DR6 -0.10 dB -7.21 dB 3:49 01-She's On Fire
DR6 -0.10 dB -7.40 dB 4:26 02-I Wish You Would
DR6 0.00 dB -8.62 dB 4:20 03-Drops Of Jupiter
DR6 -0.10 dB -8.67 dB 4:27 04-It's About You
DR6 -0.10 dB -9.00 dB 4:31 05-Hopeless
DR7 0.00 dB -7.87 dB 3:26 06-Respect
DR8 -0.10 dB -10.07 dB 5:00 07-Let It Roll
DR7 -0.10 dB -8.10 dB 4:33 08-Something More
DR6 -0.10 dB -8.07 dB 4:27 09-Whipping Boy
DR6 -0.10 dB -7.86 dB 4:26 10-Getaway
DR10 0.00 dB -11.28 dB 5:05 11-Mississippi
––––––––––––––––––––––––––––––––––––––––

Number of tracks: 11
Official DR value: DR7

Samplerate: 44100 Hz
Channels: 2
Bits per sample: 16
Bitrate: 876 kbps
Codec: FLAC
================================================================================


–––––––––––––––––––––––––––––––––––––––––-


Train - Albums Collection 1998-2009 [6CD]

My Private Nation (2003) [Repost]
EAC | FLAC | Tracks (Cue&Log) ~ 425 Mb (incl 5%) | Mp3 (CBR320/Stereo) ~ 192 Mb (incl 5%)
Label: Columbia | # CK 86593 | Time: 00:47:21 | Scans included

Following a hit is a tough thing for any band, and for Train, a cult band that literally came out of nowhere to land a monster single like "Drops of Jupiter" and a platinum album to boot, the pressure to deliver something "more" from label execs is intense. In addition, usually when a band decides to scrap its plans for one album and go back to the drawing board and do something else, it doesn't bode well for the finished product. Train has turned the tables on the redo jinx. Creatively, My Private Nation, Train's third album, is the moment this band has worked for since it started making records. Bringing Brendan O'Brien back on board as producer (perhaps the best rock producer out there right now) and as a co-writer on three songs, Train has upped the aesthetic ante by stripping away any notion that it has to prove that it is "sincere" as a band. The songs speak for themselves. The opening track, "Calling All Angels," which also serves as the first single, is the one song the Counting Crows wish they could still write. It's a huge rock song that signifies what the rest of the album elaborates on. Guitars, drums, backwards tracking of keyboards, and a huge chorus make it an anthem. But it's not so much how hooky and beautiful the tune is – and is it ever – as what it says: That in a time of great confusion, loss, and disorientation, one does not call for redemption, but asks for a sign of inspiration, for the courage to not surrender to despair. It's a tome about hope against the odds, acknowledging vulnerability, and accepting responsibility to remain focused and critical enough to win one's own redemption in everyday life, in order to become a better human being.

Other tracks – "All American Girl," "Save the Day," and the title track – may not feel as benevolent, especially the ones where O'Brien collaborates. These take on pop culture, social malaise, the pretension of honesty, and the selling of everything, and skewer them with acidic wit, huge monstrous guitars, and sonic architectures that defy description other than they make great rock & roll. Pat Monahan and Train don't pretend to speak for anyone; they speak about themselves in relating to the externals and internals of existence in the new century. These things include relating to each other, to their culture and generation, and to the world at large. In order to accomplish this without merely sounding the obvious, a certain degree of intimacy has to be given up in the mix, and "When I Look to the Sky," "Get to Me," "Following Rita," and the closing "I'm About to Come Alive" (one of the more honest love songs written outside of soul and country music in a decade) do just that. Under O'Brien's gorgeous multi-layered production with guitars coming from everywhere (remember how big he made Springsteen's sound on The Rising?) and strings floating and darting through the mix, chromatic shadings and the textures of contemporary psychedelia are rooted in the heart of an ambitious garage band. In other words, O'Brien doesn't make the band sound big, he gets the sound of how big Train actually is in a context that is as aurally beautiful musically as it is emotionally and lyrically poignant. My Private Nation is not an album about angst, but about transcending it and the paralyzing cynicism that goes with it. The question is, when was the last time listeners got a rock & roll album that could do that without cowering in fear of having its optimism shattered? Not in a long time. But that's because My Private Nation isn't about optimism; it's about the flickering glimmer in the darkness, in the heart, in the culture, in the world, and how it should – and can – be seized, right now.

Review by Thom Jurek, Allmusic.com
Tracklist:

01. Calling All Angels (04:02)
02. All American Girl (03:18)
03. When I Look to the Sky (04:04)
04. Save the Day (04:05)
05. My Private Nation (03:22)
06. Get to Me (04:06)
07. Counting Airplanes (04:21)
08. Following Rita (03:45)
09. Your Every Color (04:27)
10. Lincoln Avenue (03:37)
11. I'm About to Come Alive (04:10)
12. Bonus Track (03:59)


Exact Audio Copy V0.99 prebeta 5 from 4. May 2009

EAC extraction logfile from 7. December 2010, 16:08

Train / My Private Nation

Used drive : PIONEER DVD-RW DVR-118L Adapter: 2 ID: 0

Read mode : Secure
Utilize accurate stream : Yes
Defeat audio cache : Yes
Make use of C2 pointers : No

Read offset correction : 6
Overread into Lead-In and Lead-Out : No
Fill up missing offset samples with silence : Yes
Delete leading and trailing silent blocks : No
Null samples used in CRC calculations : Yes
Used interface : Native Win32 interface for Win NT & 2000
Gap handling : Appended to previous track

Used output format : User Defined Encoder
Selected bitrate : 128 kBit/s
Quality : High
Add ID3 tag : No
Command line compressor : C:\Program Files (x86)\Exact Audio Copy\Flac\flac.exe
Additional command line options : -8 -V -T "ARTIST=%a" -T "TITLE=%t" -T "ALBUM=%g" -T "DATE=%y" -T "TRACKNUMBER=%n" -T "GENRE=%m" -T "COMMENT=EAC FLAC -8" %s


TOC of the extracted CD

Track | Start | Length | Start sector | End sector
––––––––––––––––––––––––––––-
1 | 0:00.00 | 4:02.15 | 0 | 18164
2 | 4:02.15 | 3:18.27 | 18165 | 33041
3 | 7:20.42 | 4:04.48 | 33042 | 51389
4 | 11:25.15 | 4:05.62 | 51390 | 69826
5 | 15:31.02 | 3:22.40 | 69827 | 85016
6 | 18:53.42 | 4:06.23 | 85017 | 103489
7 | 22:59.65 | 4:21.00 | 103490 | 123064
8 | 27:20.65 | 3:45.22 | 123065 | 139961
9 | 31:06.12 | 4:27.18 | 139962 | 160004
10 | 35:33.30 | 3:37.45 | 160005 | 176324
11 | 39:11.00 | 4:10.47 | 176325 | 195121
12 | 43:21.47 | 3:59.28 | 195122 | 213074


Track 1

Filename C:\Program Files (x86)\Exact Audio Copy\Flac\Music\01. Train - Calling All Angels.wav

Pre-gap length 0:00:02.00

Peak level 98.8 %
Track quality 100.0 %
Test CRC F00503EE
Copy CRC F00503EE
Cannot be verified as accurate (confidence 47) [812C6585], AccurateRip returned [B21C224F]
Copy OK

Track 2

Filename C:\Program Files (x86)\Exact Audio Copy\Flac\Music\02. Train - All American Girl.wav

Peak level 100.0 %
Track quality 100.0 %
Test CRC 1F38721E
Copy CRC 1F38721E
Accurately ripped (confidence 2) [222748F7]
Copy OK

Track 3

Filename C:\Program Files (x86)\Exact Audio Copy\Flac\Music\03. Train - When I Look to the Sky.wav

Pre-gap length 0:00:00.73

Peak level 98.8 %
Track quality 100.0 %
Test CRC F1121A5F
Copy CRC F1121A5F
Accurately ripped (confidence 2) [853F7E02]
Copy OK

Track 4

Filename C:\Program Files (x86)\Exact Audio Copy\Flac\Music\04. Train - Save the Day.wav

Peak level 98.8 %
Track quality 100.0 %
Test CRC 52C4E190
Copy CRC 52C4E190
Accurately ripped (confidence 2) [EA58E387]
Copy OK

Track 5

Filename C:\Program Files (x86)\Exact Audio Copy\Flac\Music\05. Train - My Private Nation.wav

Pre-gap length 0:00:00.40

Peak level 98.8 %
Track quality 100.0 %
Test CRC 68B08F21
Copy CRC 68B08F21
Accurately ripped (confidence 2) [D9148EBE]
Copy OK

Track 6

Filename C:\Program Files (x86)\Exact Audio Copy\Flac\Music\06. Train - Get to Me.wav

Pre-gap length 0:00:00.36

Peak level 99.0 %
Track quality 100.0 %
Test CRC B2844B61
Copy CRC B2844B61
Accurately ripped (confidence 2) [17A0C1D6]
Copy OK

Track 7

Filename C:\Program Files (x86)\Exact Audio Copy\Flac\Music\07. Train - Counting Airplanes.wav

Pre-gap length 0:00:00.86

Peak level 98.8 %
Track quality 99.9 %
Test CRC A17D2311
Copy CRC A17D2311
Accurately ripped (confidence 2) [C30CDD57]
Copy OK

Track 8

Filename C:\Program Files (x86)\Exact Audio Copy\Flac\Music\08. Train - Following Rita.wav

Peak level 98.8 %
Track quality 100.0 %
Test CRC 5D80FC4E
Copy CRC 5D80FC4E
Accurately ripped (confidence 2) [2211835A]
Copy OK

Track 9

Filename C:\Program Files (x86)\Exact Audio Copy\Flac\Music\09. Train - Your Every Color.wav

Pre-gap length 0:00:00.56

Peak level 98.8 %
Track quality 100.0 %
Test CRC 65C69B61
Copy CRC 65C69B61
Accurately ripped (confidence 2) [96ECEB81]
Copy OK

Track 10

Filename C:\Program Files (x86)\Exact Audio Copy\Flac\Music\10. Train - Lincoln Avenue.wav

Pre-gap length 0:00:01.04

Peak level 98.8 %
Track quality 100.0 %
Test CRC 651A5A26
Copy CRC 651A5A26
Accurately ripped (confidence 2) [7E4EE2F7]
Copy OK

Track 11

Filename C:\Program Files (x86)\Exact Audio Copy\Flac\Music\11. Train - I'm About to Come Alive.wav

Pre-gap length 0:00:00.86

Peak level 98.8 %
Track quality 100.0 %
Test CRC 85470FA7
Copy CRC 85470FA7
Accurately ripped (confidence 2) [93F9B575]
Copy OK

Track 12

Filename C:\Program Files (x86)\Exact Audio Copy\Flac\Music\12. Train - Bonus Track.wav

Pre-gap length 0:00:04.96

Peak level 98.8 %
Track quality 100.0 %
Test CRC 485FD12B
Copy CRC 485FD12B
Accurately ripped (confidence 2) [54BE948F]
Copy OK


11 track(s) accurately ripped
1 track(s) could not be verified as accurate

Some tracks could not be verified as accurate

No errors occurred

End of status report

foobar2000 1.2.1 / Dynamic Range Meter 1.1.1
log date: 2013-02-24 03:39:01

––––––––––––––––––––––––––––––––––––––––
Analyzed: Train / My Private Nation
––––––––––––––––––––––––––––––––––––––––

DR Peak RMS Duration Track
––––––––––––––––––––––––––––––––––––––––
DR6 -0.10 dB -8.42 dB 4:02 01-Calling All Angels
DR5 0.00 dB -6.60 dB 3:18 02-All American Girl
DR6 -0.10 dB -7.88 dB 4:05 03-When I Look to the Sky
DR7 -0.10 dB -8.52 dB 4:06 04-Save the Day
DR7 -0.10 dB -8.29 dB 3:23 05-My Private Nation
DR7 -0.08 dB -8.76 dB 4:06 06-Get to Me
DR7 -0.10 dB -8.73 dB 4:21 07-Counting Airplanes
DR6 -0.10 dB -7.39 dB 3:45 08-Following Rita
DR6 -0.10 dB -7.57 dB 4:27 09-Your Every Color
DR6 -0.10 dB -8.70 dB 3:38 10-Lincoln Avenue
DR7 -0.10 dB -9.65 dB 4:11 11-I'm About to Come Alive
DR7 -0.10 dB -9.07 dB 3:59 12-Bonus Track
––––––––––––––––––––––––––––––––––––––––

Number of tracks: 12
Official DR value: DR6

Samplerate: 44100 Hz
Channels: 2
Bits per sample: 16
Bitrate: 899 kbps
Codec: FLAC
================================================================================


–––––––––––––––––––––––––––––––––––––––––-


Train - Albums Collection 1998-2009 [6CD]

Alive at Last (2004)
EAC | FLAC | Tracks (Cue&Log) ~ 551 Mb (incl 5%) | Mp3 (CBR320/Stereo) ~ 215 Mb (incl 5%)
Label: Columbia | # CK 92830 | Time: 01:16:23 | Scans included

A truly refreshing thing about Train's Alive at Last is its sound; it feels like a bootleg recording, where the microphones were all located in the audience, capturing the performance as it happened – flaws and all. For those seeking pristinely edited mobile unit sound, this isn't for you. This one is for the legions of fanatics that Train inspire. All of the hits are here, and the set opens with (what else?) "Calling All Angels" as the crowd loses it right away and sings along. Listeners can hear the beer bottles tinkling in "Meet Virgina" just before the band erupts on the refrain. Of course, "Drops of Jupiter" is here as is "Sweet Rain," "All American Girl," "Get to Me," and "Stay With Me," which closes it out. Train are on throughout; they don't sound as if they're going through the motions. It's the thing that people love and hate about them the most: they mean it, every word, every beat, every crunchy guitar fill that bleeds into the verse. The singalong parts are irritating, but if you've ever seen the band live, this will pull you in the same way it forces others to flee from them. In fact, this document is the perfect evidence for both sides. It's easy to understand why people hate them; their sincerity is pervasive and it bleeds all over everything. Conversely, this is also precisely why they inspire such devotion in a fan base that is utterly sick of "cool," "hip," "smart," and so on. They only enjoy themselves and affirm who they are with their peers. There are two new studio tracks here, but they needn't have bothered to include them. Not because they're bad or substandard, but because the live set is the story, the whole thing. Coming as they do at the end – which is the only place they could – feels like an afterthought and anticlimactic, which of course they are in comparison to this garrulous, excessive performance that gets at the heart of what Train are about for their fans.

Review by Thom Jurek, Allmusic.com
Tracklist:

01. Calling All Angels (05:17)
02. She's On Fire (04:24)
03. Meet Virginia (04:43)
04. Save The Day (07:10)
05. Get To Me (06:13)
06. Landmine (03:44)
07. All American Girl (04:41)
08. When I Look To The Sky (04:06)
09. Latin Interlude (01:48)
10. I Wish You Would (04:24)
11. Sweet Rain (06:35)
12. Free (06:45)
13. Drops Of Jupiter (04:27)
14. Stay With Me (04:56)
15. Ordinary (03:34)
16. New Sensation (03:27)


Exact Audio Copy V0.99 prebeta 5 from 4. May 2009

EAC extraction logfile from 22. January 2011, 14:55

Train / Alive At Last

Used drive : PIONEER DVD-RW DVR-118L Adapter: 2 ID: 0

Read mode : Secure
Utilize accurate stream : Yes
Defeat audio cache : Yes
Make use of C2 pointers : No

Read offset correction : 6
Overread into Lead-In and Lead-Out : No
Fill up missing offset samples with silence : Yes
Delete leading and trailing silent blocks : No
Null samples used in CRC calculations : Yes
Used interface : Native Win32 interface for Win NT & 2000
Gap handling : Appended to previous track

Used output format : User Defined Encoder
Selected bitrate : 128 kBit/s
Quality : High
Add ID3 tag : No
Command line compressor : C:\Program Files (x86)\Exact Audio Copy\Flac\flac.exe
Additional command line options : -8 -V -T "ARTIST=%a" -T "TITLE=%t" -T "ALBUM=%g" -T "DATE=%y" -T "TRACKNUMBER=%n" -T "GENRE=%m" -T "COMMENT=EAC FLAC -8" %s


TOC of the extracted CD

Track | Start | Length | Start sector | End sector
––––––––––––––––––––––––––––-
1 | 0:00.00 | 5:17.40 | 0 | 23814
2 | 5:17.40 | 4:24.52 | 23815 | 43666
3 | 9:42.17 | 4:43.30 | 43667 | 64921
4 | 14:25.47 | 7:10.38 | 64922 | 97209
5 | 21:36.10 | 6:13.27 | 97210 | 125211
6 | 27:49.37 | 3:44.53 | 125212 | 142064
7 | 31:34.15 | 4:41.42 | 142065 | 163181
8 | 36:15.57 | 4:06.55 | 163182 | 181686
9 | 40:22.37 | 1:48.33 | 181687 | 189819
10 | 42:10.70 | 4:24.52 | 189820 | 209671
11 | 46:35.47 | 6:35.45 | 209672 | 239341
12 | 53:11.17 | 6:45.53 | 239342 | 269769
13 | 59:56.70 | 4:27.42 | 269770 | 289836
14 | 64:24.37 | 4:56.18 | 289837 | 312054
15 | 69:20.55 | 3:34.30 | 312055 | 328134
16 | 72:55.10 | 3:27.52 | 328135 | 343711


Track 1

Filename D:\Торрент\Train\2004 - Alive at Last\01. Train - Calling All Angels.wav

Pre-gap length 0:00:02.00

Peak level 98.8 %
Track quality 100.0 %
Test CRC 64EB7354
Copy CRC 64EB7354
Accurately ripped (confidence 36) [70A7F59A]
Copy OK

Track 2

Filename D:\Торрент\Train\2004 - Alive at Last\02. Train - She's On Fire.wav

Peak level 98.8 %
Track quality 100.0 %
Test CRC 7C22FBAB
Copy CRC 7C22FBAB
Accurately ripped (confidence 36) [A59EA2BC]
Copy OK

Track 3

Filename D:\Торрент\Train\2004 - Alive at Last\03. Train - Meet Virginia.wav

Peak level 98.8 %
Track quality 100.0 %
Test CRC ED3BAE0F
Copy CRC ED3BAE0F
Accurately ripped (confidence 36) [0B22D153]
Copy OK

Track 4

Filename D:\Торрент\Train\2004 - Alive at Last\04. Train - Save The Day.wav

Pre-gap length 0:00:15.40

Peak level 98.8 %
Track quality 100.0 %
Test CRC 460A2D95
Copy CRC 460A2D95
Accurately ripped (confidence 37) [D8F7DCD3]
Copy OK

Track 5

Filename D:\Торрент\Train\2004 - Alive at Last\05. Train - Get To Me.wav

Peak level 98.8 %
Track quality 100.0 %
Test CRC 09AFA709
Copy CRC 09AFA709
Accurately ripped (confidence 37) [0254A693]
Copy OK

Track 6

Filename D:\Торрент\Train\2004 - Alive at Last\06. Train - Landmine.wav

Pre-gap length 0:00:38.20

Peak level 98.8 %
Track quality 100.0 %
Test CRC 738341B6
Copy CRC 738341B6
Accurately ripped (confidence 37) [1A7B59DD]
Copy OK

Track 7

Filename D:\Торрент\Train\2004 - Alive at Last\07. Train - All American Girl.wav

Peak level 98.8 %
Track quality 99.9 %
Test CRC AC9BC762
Copy CRC AC9BC762
Accurately ripped (confidence 37) [52C7DBE1]
Copy OK

Track 8

Filename D:\Торрент\Train\2004 - Alive at Last\08. Train - When I Look To The Sky.wav

Peak level 98.8 %
Track quality 99.9 %
Test CRC 9BC9FE5A
Copy CRC 9BC9FE5A
Accurately ripped (confidence 36) [A017CE83]
Copy OK

Track 9

Filename D:\Торрент\Train\2004 - Alive at Last\09. Train - Latin Interlude.wav

Peak level 98.8 %
Track quality 100.0 %
Test CRC 58648D07
Copy CRC 58648D07
Accurately ripped (confidence 37) [25955AED]
Copy OK

Track 10

Filename D:\Торрент\Train\2004 - Alive at Last\10. Train - I Wish You Would.wav

Peak level 98.8 %
Track quality 100.0 %
Test CRC 506103B9
Copy CRC 506103B9
Accurately ripped (confidence 37) [71FA5A19]
Copy OK

Track 11

Filename D:\Торрент\Train\2004 - Alive at Last\11. Train - Sweet Rain.wav

Peak level 98.8 %
Track quality 100.0 %
Test CRC 85901189
Copy CRC 85901189
Accurately ripped (confidence 37) [30177630]
Copy OK

Track 12

Filename D:\Торрент\Train\2004 - Alive at Last\12. Train - Free.wav

Peak level 98.8 %
Track quality 100.0 %
Test CRC 344DC0E9
Copy CRC 344DC0E9
Accurately ripped (confidence 36) [1DC4F9FE]
Copy OK

Track 13

Filename D:\Торрент\Train\2004 - Alive at Last\13. Train - Drops Of Jupiter.wav

Peak level 98.8 %
Track quality 100.0 %
Test CRC 6944BD16
Copy CRC 6944BD16
Accurately ripped (confidence 36) [51A0E557]
Copy OK

Track 14

Filename D:\Торрент\Train\2004 - Alive at Last\14. Train - Stay With Me.wav

Peak level 98.8 %
Track quality 100.0 %
Test CRC 7FE6F737
Copy CRC 7FE6F737
Accurately ripped (confidence 35) [1CA10D2D]
Copy OK

Track 15

Filename D:\Торрент\Train\2004 - Alive at Last\15. Train - Ordinary.wav

Pre-gap length 0:00:02.37

Peak level 98.8 %
Track quality 100.0 %
Test CRC 2D3925FA
Copy CRC 2D3925FA
Accurately ripped (confidence 34) [0EE4311F]
Copy OK

Track 16

Filename D:\Торрент\Train\2004 - Alive at Last\16. Train - New Sensation.wav

Pre-gap length 0:00:01.10

Peak level 98.8 %
Track quality 100.0 %
Test CRC 0CC236DC
Copy CRC 0CC236DC
Accurately ripped (confidence 35) [318E5E2F]
Copy OK


All tracks accurately ripped

No errors occurred

End of status report

foobar2000 1.2.1 / Dynamic Range Meter 1.1.1
log date: 2013-02-24 03:40:12

––––––––––––––––––––––––––––––––––––––––
Analyzed: Train / Alive At Last
––––––––––––––––––––––––––––––––––––––––

DR Peak RMS Duration Track
––––––––––––––––––––––––––––––––––––––––
DR7 -0.10 dB -8.75 dB 5:18 01-Calling All Angels
DR7 -0.10 dB -8.26 dB 4:25 02-She's On Fire
DR8 -0.10 dB -9.37 dB 4:43 03-Meet Virginia
DR7 -0.10 dB -10.00 dB 7:11 04-Save The Day
DR7 -0.10 dB -9.44 dB 6:13 05-Get To Me
DR7 -0.10 dB -8.81 dB 3:45 06-Landmine
DR7 -0.10 dB -8.66 dB 4:42 07-All American Girl
DR8 -0.10 dB -10.31 dB 4:07 08-When I Look To The Sky
DR9 -0.10 dB -11.23 dB 1:48 09-Latin Interlude
DR7 -0.10 dB -8.48 dB 4:25 10-I Wish You Would
DR8 -0.10 dB -11.65 dB 6:36 11-Sweet Rain
DR8 -0.10 dB -9.65 dB 6:46 12-Free
DR7 -0.10 dB -9.21 dB 4:28 13-Drops Of Jupiter
DR8 -0.10 dB -9.32 dB 4:56 14-Stay With Me
DR6 -0.10 dB -7.94 dB 3:34 15-Ordinary
DR6 -0.10 dB -7.33 dB 3:28 16-New Sensation
––––––––––––––––––––––––––––––––––––––––

Number of tracks: 16
Official DR value: DR7

Samplerate: 44100 Hz
Channels: 2
Bits per sample: 16
Bitrate: 985 kbps
Codec: FLAC
================================================================================


–––––––––––––––––––––––––––––––––––––––––-


Train - Albums Collection 1998-2009 [6CD]

For Me, It's You (2006)
EAC | FLAC | Tracks (Cue&Log) ~ 396 Mb (incl 5%) | Mp3 (CBR320/Stereo) ~ 158 Mb (incl 5%)
Label: Columbia | # 82796 94472 2 | Time: 00:48:21 | Scans included

Train is one of the stranger cases in pop music. While they've been ubiquitous on radio since 2001's smash single "Drops of Jupiter" and have sold literally millions of albums, they are still considered by many to be an outsider act; they fit nowhere handy on the pop culture radar screen. Despite a sound as quintessentially American as the Counting Crows', and 11 years of slogging it out in bars, theaters, and concert halls, they seem to get very little respect. For Me, It's You is the band's third studio offering with producer, multi-instrumentalist, and co-conspirator Brendan O'Brien. Indeed, O'Brien is so closely identified with the band's sound on tape, he is basically a member. The sound of For Me, It's You is less strident than that of the band's previous offerings, but it's edgier and digs deeper into older musics and styles; O'Brien's filled the spaces with sometimes gritty textures. There's more blues and R&B in its feel. Frontman and chief songwriter Patrick Monahan doesn't feel he has to make you believe the authenticity of his emotions; he believes they're real and it's enough. But more than this, he and the band play looser than they ever have in the past, and he's become a solid singer. He doesn't always have the authority to pull off what he tries, but that's part of the album's charm.

The set's first single, "Cab," is the first-person witness of a New York cabbie, accompanied by a piano part that's worthy of one of Billy Joel's finest songs, painterly synth, strummed acoustic guitars, and a killer string arrangement. The report from the driver's seat is both inner and outer. As he observes what transpires through his windshield, he looks deeper at his inner weather. When Monahan sings, "Sometimes, I think I'm the only cab on the road," he's believable. It's a fine song, but it's not the best one here. The polished, full-bodied "Give Myself to You" eclipses it by virtue of its brief R&B-drenched bridge alone, but there's more, too. As the sequenced keyboard line quotes the refrain, the hook is established. Monahan tries his hand at a little covert white-boy R&B singing, and he does it well enough to make the listener wonder why he hasn't tried it before – when he sings "I'm either outta my head or outta my mind," one can hear him dig deeper into something he doesn't quite understand intellectually, but gets to a degree on the feeling level. This isn't a mistake; he tries it again on "Shelter Me," where he evokes both Steve Marriott and Chris Robinson (the band's new bassist, Johnny Colt, came from the Black Crowes). The tune doesn't quite work with all of its overblown backing vocals and textural dimensions that swallow the glorious Hammond B3 in it.

There's also the bridge in "Always Remember" where Monahan's vocal succeeds in saving an otherwise saccharine melody. "I'm Not Waiting in Line" shows Monahan trying on Mick Jagger's skin-tight pants. The tune sounds like the latter half of "Gimme Shelter," which was its model in sonics and groove. The hand percussion, piano, and Jimmy Stafford's lead phrasing are dead giveaways. Train does a credible read of Bob Mould's (remember Sugar?) "If I Can't Change Your Mind." The guitars twang and ring – though not quite roar – but the Hammond carries the day on top of a dirty tub thump. The slippery slow, bluesy stroll of the title track closes the set. This is the best kind of love song because it doesn't need to prove anything. It's loose, slippery, and feels raw. The classic "na-na-nana-na-nana-na" refrain, the greasy guitars, the chorus-like backing vocals and horns all give Monahan a ledge to slip out onto. And he does, bringing to the fore every hungry rock singer from Marriott's and Phil Lynott's ghosts to the young Jagger's and Rod Stewart's in his impassioned delivery. Ultimately, it's difficult to know who will embrace For Me, It's You. Critics have savaged their other outings, and it made no difference to radio or consumers. If the past is any indication, it'll be the dictate of the record's success or failure. Their willingness to bet the farm and grow as a band is commendable in an era where playing it safe is everything – and ultimately nothing.

Review by Thom Jurek, Allmusic.com
Tracklist:

01. All I Ever Wanted (04:05)
02. Get Out (03:24)
03. Cab (03:23)
04. Give Myself To You (03:22)
05. Am I Reaching You Now (03:44)
06. If I Can't Change Your Mind (03:07)
07. All I Hear (03:29)
08. Shelter Me (03:35)
09. Explanation (04:30)
10. Always Remember (03:33)
11. I'm Not Waiting In Line (03:41)
12. Skyscraper (03:54)
13. For Me, It's You (04:28)


Exact Audio Copy V0.99 prebeta 5 from 4. May 2009

EAC extraction logfile from 17. November 2010, 0:27

Train / For Me, It's You

Used drive : PIONEER DVD-RW DVR-118L Adapter: 2 ID: 0

Read mode : Secure
Utilize accurate stream : Yes
Defeat audio cache : Yes
Make use of C2 pointers : No

Read offset correction : 6
Overread into Lead-In and Lead-Out : No
Fill up missing offset samples with silence : Yes
Delete leading and trailing silent blocks : No
Null samples used in CRC calculations : Yes
Used interface : Native Win32 interface for Win NT & 2000
Gap handling : Appended to previous track

Used output format : User Defined Encoder
Selected bitrate : 128 kBit/s
Quality : High
Add ID3 tag : No
Command line compressor : C:\Program Files (x86)\Exact Audio Copy\Flac\flac.exe
Additional command line options : -8 -V -T "ARTIST=%a" -T "TITLE=%t" -T "ALBUM=%g" -T "DATE=%y" -T "TRACKNUMBER=%n" -T "GENRE=%m" -T "COMMENT=EAC FLAC -8" %s


TOC of the extracted CD

Track | Start | Length | Start sector | End sector
––––––––––––––––––––––––––––-
1 | 0:00.00 | 4:05.42 | 0 | 18416
2 | 4:05.42 | 3:24.23 | 18417 | 33739
3 | 7:29.65 | 3:23.07 | 33740 | 48971
4 | 10:52.72 | 3:22.45 | 48972 | 64166
5 | 14:15.42 | 3:44.01 | 64167 | 80967
6 | 17:59.43 | 3:07.50 | 80968 | 95042
7 | 21:07.18 | 3:29.59 | 95043 | 110776
8 | 24:37.02 | 3:35.18 | 110777 | 126919
9 | 28:12.20 | 4:30.13 | 126920 | 147182
10 | 32:42.33 | 3:33.25 | 147183 | 163182
11 | 36:15.58 | 3:41.35 | 163183 | 179792
12 | 39:57.18 | 3:54.37 | 179793 | 197379
13 | 43:51.55 | 4:28.64 | 197380 | 217543


Track 1

Filename C:\Program Files (x86)\Exact Audio Copy\Flac\Music\01. Train - All I Ever Wanted.wav

Pre-gap length 0:00:02.00

Peak level 100.0 %
Track quality 100.0 %
Test CRC 6CF12E07
Copy CRC 6CF12E07
Accurately ripped (confidence 70) [114B6817]
Copy OK

Track 2

Filename C:\Program Files (x86)\Exact Audio Copy\Flac\Music\02. Train - Get Out.wav

Peak level 100.0 %
Track quality 100.0 %
Test CRC 79C82F75
Copy CRC 79C82F75
Accurately ripped (confidence 69) [F5FA1F05]
Copy OK

Track 3

Filename C:\Program Files (x86)\Exact Audio Copy\Flac\Music\03. Train - Cab.wav

Pre-gap length 0:00:01.25

Peak level 100.0 %
Track quality 100.0 %
Test CRC 495815FC
Copy CRC 495815FC
Accurately ripped (confidence 71) [5D0AC5C4]
Copy OK

Track 4

Filename C:\Program Files (x86)\Exact Audio Copy\Flac\Music\04. Train - Give Myself To You.wav

Pre-gap length 0:00:00.60

Peak level 100.0 %
Track quality 100.0 %
Test CRC 60806453
Copy CRC 60806453
Accurately ripped (confidence 70) [F5D3119C]
Copy OK

Track 5

Filename C:\Program Files (x86)\Exact Audio Copy\Flac\Music\05. Train - Am I Reaching You Now.wav

Pre-gap length 0:00:01.93

Peak level 100.0 %
Track quality 100.0 %
Test CRC 6DD1C71A
Copy CRC 6DD1C71A
Accurately ripped (confidence 72) [9FC903BC]
Copy OK

Track 6

Filename C:\Program Files (x86)\Exact Audio Copy\Flac\Music\06. Train - If I Can't Change Your Mind.wav

Pre-gap length 0:00:01.04

Peak level 99.7 %
Track quality 100.0 %
Test CRC F0F62D70
Copy CRC F0F62D70
Accurately ripped (confidence 71) [DD865BE6]
Copy OK

Track 7

Filename C:\Program Files (x86)\Exact Audio Copy\Flac\Music\07. Train - All I Hear.wav

Peak level 99.2 %
Track quality 100.0 %
Test CRC 48C969D2
Copy CRC 48C969D2
Accurately ripped (confidence 70) [94C0B68B]
Copy OK

Track 8

Filename C:\Program Files (x86)\Exact Audio Copy\Flac\Music\08. Train - Shelter Me.wav

Peak level 98.9 %
Track quality 100.0 %
Test CRC 543104B4
Copy CRC 543104B4
Accurately ripped (confidence 70) [98982B82]
Copy OK

Track 9

Filename C:\Program Files (x86)\Exact Audio Copy\Flac\Music\09. Train - Explanation.wav

Pre-gap length 0:00:01.54

Peak level 100.0 %
Track quality 100.0 %
Test CRC F9D5663D
Copy CRC F9D5663D
Accurately ripped (confidence 70) [E576A328]
Copy OK

Track 10

Filename C:\Program Files (x86)\Exact Audio Copy\Flac\Music\10. Train - Always Remember.wav

Peak level 100.0 %
Track quality 100.0 %
Test CRC 160A9B9B
Copy CRC 160A9B9B
Accurately ripped (confidence 71) [95190CEA]
Copy OK

Track 11

Filename C:\Program Files (x86)\Exact Audio Copy\Flac\Music\11. Train - I'm Not Waiting In Line.wav

Peak level 100.0 %
Track quality 99.9 %
Test CRC 4F3D59D8
Copy CRC 4F3D59D8
Accurately ripped (confidence 71) [D9388A95]
Copy OK

Track 12

Filename C:\Program Files (x86)\Exact Audio Copy\Flac\Music\12. Train - Skyscraper.wav

Pre-gap length 0:00:01.57

Peak level 100.0 %
Track quality 100.0 %
Test CRC 0D302BCA
Copy CRC 0D302BCA
Accurately ripped (confidence 71) [D171ACF2]
Copy OK

Track 13

Filename C:\Program Files (x86)\Exact Audio Copy\Flac\Music\13. Train - For Me, It's You.wav

Peak level 99.0 %
Track quality 100.0 %
Test CRC A9EEF0B9
Copy CRC A9EEF0B9
Accurately ripped (confidence 70) [58673ACB]
Copy OK


All tracks accurately ripped

No errors occurred

End of status report

foobar2000 1.2.1 / Dynamic Range Meter 1.1.1
log date: 2013-02-24 03:40:59

––––––––––––––––––––––––––––––––––––––––
Analyzed: Train / For Me, It's You
––––––––––––––––––––––––––––––––––––––––

DR Peak RMS Duration Track
––––––––––––––––––––––––––––––––––––––––
DR6 0.00 dB -8.73 dB 4:06 01-All I Ever Wanted
DR6 0.00 dB -7.88 dB 3:24 02-Get Out
DR6 0.00 dB -8.00 dB 3:23 03-Cab
DR7 0.00 dB -8.03 dB 3:23 04-Give Myself To You
DR7 0.00 dB -7.46 dB 3:44 05-Am I Reaching You Now
DR6 -0.02 dB -7.55 dB 3:08 06-If I Can't Change Your Mind
DR6 -0.06 dB -8.21 dB 3:30 07-All I Hear
DR7 -0.09 dB -9.19 dB 3:35 08-Shelter Me
DR7 0.00 dB -8.58 dB 4:30 09-Explanation
DR6 0.00 dB -7.35 dB 3:33 10-Always Remember
DR7 0.00 dB -8.17 dB 3:41 11-I'm Not Waiting In Line
DR7 0.00 dB -9.04 dB 3:54 12-Skyscraper
DR5 -0.08 dB -7.31 dB 4:29 13-For Me, It's You
––––––––––––––––––––––––––––––––––––––––

Number of tracks: 13
Official DR value: DR6

Samplerate: 44100 Hz
Channels: 2
Bits per sample: 16
Bitrate: 930 kbps
Codec: FLAC
================================================================================


–––––––––––––––––––––––––––––––––––––––––-


Train - Albums Collection 1998-2009 [6CD]

Save Me, San Francisco (2009)
EAC | FLAC | Tracks (Cue&Log) ~ 366 Mb (incl 5%) | Mp3 (CBR320/Stereo) ~ 148 Mb (incl 5%)
Label: Columbia | # 88697077362 | Time: 00:43:38 | Scans included

San Francisco's Train hit the charts with a bang early in the 21st century with hits like "Calling All Angels" and "Drops of Jupiter." Save Me, San Francisco took four years to make, four studios in the United States and England, songwriting collaborators, and even a handful of producers, though Martin Terefe gets the final credit. Save Me, San Francisco is a focused record, centering around the theme of a wandering young rocker who falls in love and wants to settle down. The title track opens with an acoustic guitar playing a variation on the classic I-IV-V progression, a snare kicks in, and Pat Monahan's voice is in prime Bob Seger confessional style. A piano and electric guitars enter on "whooo-hooo-hooo" chorus, and it's near-perfect radio rock. That said, the single "Hey Soul Sister," a love song with the best anthemic Train chorus to date, is the album's most memorable cut, name-checking Mr. Mister and employing a Madonna metaphor – crediting her in the process. Acoustic guitars, kick drums, tom-toms, mandolins, and a B-3 underscoring Monahan's emotive lyrics and melody make it literally unforgettable. "I Got You" samples the Doobie Brothers' "Black Water" as an intro, and then further uses its chorus with a faux-reggae backbeat. It's a high-gloss, big-production pop number. There are a couple of Monahan's signature ballads here, too: the conflict-laden "This Ain't Goodbye," arranged with strings, and "Words," with its undying profession of standing in the eye of the storm to protect the protagonist's beloved. "Brick by Brick," with its swelling choruses, has a lyric that promises the moon and tries hard to deliver it, in the processional 4/4 time that underscores all of Train's power ballads. The album concludes with in "Marry Me," in which Monahan sings prayerfully, accompanied only by an acoustic guitar, flute, and muted percussion. Save Me, San Francisco is a love song to the band's hometown. Their loyal fan base will no doubt celebrate it to be sure, but more than this, Save Me, San Francisco sounds like Train are swinging hard for the pop fences.

Review by Thom Jurek, Allmusic.com
Tracklist:

01. Save Me, San Francisco (04:09)
02. Hey, Soul Sister (03:36)
03. I Got You (03:47)
04. Parachute (03:30)
05. This Ain't Goodbye (04:23)
06. If It's Love (03:59)
07. You Already Know (04:42)
08. Words (03:29)
09. Brick By Brick (03:39)
10. Breakfast In Bed (04:54)
11. Marry Me (03:25)


Exact Audio Copy V0.99 prebeta 5 from 4. May 2009

EAC extraction logfile from 21. November 2010, 18:20

Train / Save Me, San Francisco

Used drive : PIONEER DVD-RW DVR-118L Adapter: 2 ID: 0

Read mode : Secure
Utilize accurate stream : Yes
Defeat audio cache : Yes
Make use of C2 pointers : No

Read offset correction : 6
Overread into Lead-In and Lead-Out : No
Fill up missing offset samples with silence : Yes
Delete leading and trailing silent blocks : No
Null samples used in CRC calculations : Yes
Used interface : Native Win32 interface for Win NT & 2000
Gap handling : Appended to previous track

Used output format : User Defined Encoder
Selected bitrate : 128 kBit/s
Quality : High
Add ID3 tag : No
Command line compressor : C:\Program Files (x86)\Exact Audio Copy\Flac\flac.exe
Additional command line options : -8 -V -T "ARTIST=%a" -T "TITLE=%t" -T "ALBUM=%g" -T "DATE=%y" -T "TRACKNUMBER=%n" -T "GENRE=%m" -T "COMMENT=EAC FLAC -8" %s


TOC of the extracted CD

Track | Start | Length | Start sector | End sector
––––––––––––––––––––––––––––-
1 | 0:00.00 | 4:09.32 | 0 | 18706
2 | 4:09.32 | 3:36.58 | 18707 | 34964
3 | 7:46.15 | 3:47.35 | 34965 | 52024
4 | 11:33.50 | 3:30.29 | 52025 | 67803
5 | 15:04.04 | 4:23.35 | 67804 | 87563
6 | 19:27.39 | 3:59.03 | 87564 | 105491
7 | 23:26.42 | 4:42.03 | 105492 | 126644
8 | 28:08.45 | 3:29.51 | 126645 | 142370
9 | 31:38.21 | 3:39.66 | 142371 | 158861
10 | 35:18.12 | 4:54.40 | 158862 | 180951
11 | 40:12.52 | 3:25.34 | 180952 | 196360


Track 1

Filename C:\Program Files (x86)\Exact Audio Copy\Flac\Music\01. Train - Save Me, San Francisco.wav

Pre-gap length 0:00:02.00

Peak level 100.0 %
Track quality 100.0 %
Test CRC 7F7C0D5D
Copy CRC 7F7C0D5D
Accurately ripped (confidence 79) [3C46774F]
Copy OK

Track 2

Filename C:\Program Files (x86)\Exact Audio Copy\Flac\Music\02. Train - Hey, Soul Sister.wav

Peak level 100.0 %
Track quality 100.0 %
Test CRC E16B6E20
Copy CRC E16B6E20
Accurately ripped (confidence 80) [51A18AE7]
Copy OK

Track 3

Filename C:\Program Files (x86)\Exact Audio Copy\Flac\Music\03. Train - I Got You.wav

Peak level 100.0 %
Track quality 99.9 %
Test CRC 00FFACE5
Copy CRC 00FFACE5
Accurately ripped (confidence 81) [660CE283]
Copy OK

Track 4

Filename C:\Program Files (x86)\Exact Audio Copy\Flac\Music\04. Train - Parachute.wav

Peak level 100.0 %
Track quality 100.0 %
Test CRC B9667A6A
Copy CRC B9667A6A
Accurately ripped (confidence 80) [E43ED8BA]
Copy OK

Track 5

Filename C:\Program Files (x86)\Exact Audio Copy\Flac\Music\05. Train - This Ain't Goodbye.wav

Pre-gap length 0:00:01.32

Peak level 100.0 %
Track quality 100.0 %
Test CRC 91D86B4C
Copy CRC 91D86B4C
Accurately ripped (confidence 81) [2BD29D40]
Copy OK

Track 6

Filename C:\Program Files (x86)\Exact Audio Copy\Flac\Music\06. Train - If It's Love.wav

Peak level 100.0 %
Track quality 100.0 %
Test CRC C47A8E22
Copy CRC C47A8E22
Accurately ripped (confidence 80) [8249CBDC]
Copy OK

Track 7

Filename C:\Program Files (x86)\Exact Audio Copy\Flac\Music\07. Train - You Already Know.wav

Peak level 100.0 %
Track quality 100.0 %
Test CRC EE0FB9A9
Copy CRC EE0FB9A9
Accurately ripped (confidence 81) [52C11A16]
Copy OK

Track 8

Filename C:\Program Files (x86)\Exact Audio Copy\Flac\Music\08. Train - Words.wav

Pre-gap length 0:00:01.65

Peak level 100.0 %
Track quality 100.0 %
Test CRC 51BA6539
Copy CRC 51BA6539
Accurately ripped (confidence 81) [17C65546]
Copy OK

Track 9

Filename C:\Program Files (x86)\Exact Audio Copy\Flac\Music\09. Train - Brick By Brick.wav

Pre-gap length 0:00:02.13

Peak level 100.0 %
Track quality 100.0 %
Test CRC 14328BAE
Copy CRC 14328BAE
Accurately ripped (confidence 81) [DC14DEA9]
Copy OK

Track 10

Filename C:\Program Files (x86)\Exact Audio Copy\Flac\Music\10. Train - Breakfast In Bed.wav

Pre-gap length 0:00:02.10

Peak level 100.0 %
Track quality 99.9 %
Test CRC F0B31FD8
Copy CRC F0B31FD8
Accurately ripped (confidence 81) [DE859730]
Copy OK

Track 11

Filename C:\Program Files (x86)\Exact Audio Copy\Flac\Music\11. Train - Marry Me.wav

Pre-gap length 0:00:03.14

Peak level 95.8 %
Track quality 100.0 %
Test CRC 9ACE7D62
Copy CRC 9ACE7D62
Accurately ripped (confidence 80) [3B65F90A]
Copy OK


All tracks accurately ripped

No errors occurred

End of status report

foobar2000 1.2.1 / Dynamic Range Meter 1.1.1
log date: 2013-02-24 03:41:40

––––––––––––––––––––––––––––––––––––––––
Analyzed: Train / Save Me, San Francisco
––––––––––––––––––––––––––––––––––––––––

DR Peak RMS Duration Track
––––––––––––––––––––––––––––––––––––––––
DR5 0.00 dB -6.33 dB 4:09 01-Save Me, San Francisco
DR6 0.00 dB -7.64 dB 3:37 02-Hey, Soul Sister
DR5 0.00 dB -6.61 dB 3:47 03-I Got You
DR5 0.00 dB -6.55 dB 3:30 04-Parachute
DR5 0.00 dB -8.37 dB 4:23 05-This Ain't Goodbye
DR6 0.00 dB -7.40 dB 3:59 06-If It's Love
DR5 0.00 dB -7.14 dB 4:42 07-You Already Know
DR5 0.00 dB -7.10 dB 3:30 08-Words
DR5 0.00 dB -6.47 dB 3:40 09-Brick By Brick
DR4 0.00 dB -6.28 dB 4:55 10-Breakfast In Bed
DR9 -0.37 dB -10.82 dB 3:25 11-Marry Me
––––––––––––––––––––––––––––––––––––––––

Number of tracks: 11
Official DR value: DR5

Samplerate: 44100 Hz
Channels: 2
Bits per sample: 16
Bitrate: 788 kbps
Codec: FLAC
================================================================================


–––––––––––––––––––––––––––––––––––––––––-


All thanks to original releaser - Знак Качества

More interesting music in My Blog