Subcategories

Trine Rein - Beneath My Skin (1996) {1998, Japanese Edition}

Posted By: popsakov
Trine Rein - Beneath My Skin (1996) {1998, Japanese Edition}

Trine Rein - Beneath My Skin (1996) {1998, Japanese Edition}
EAC Rip | FLAC (Img) + Cue + Log ~ 369 Mb | MP3 CBR320 ~ 126 Mb
Full Scans ~ 82 Mb | RAR 5% Recovery
Pop, Pop Rock | Toshiba-EMI Ltd. #TOCP-8740

Trine Rein is an American-Norwegian singer, who belongs to the exclusive group of Norwegian artists who have sold more than a million records. Trine Rein released her first solo album in 1993, Finders, Keepers. It peaked at the top of the Norwegian album chart for no less than five weeks. But as she was almost unknown before the release, it took her 14 weeks - more than three months - to finally have the most popular album in Norway. And due to the extensive foreign press coverage of the Olympic Winter Games in Lillehammer February 1994, her album was soon a hit in Japan as well. At one time she topped 16 different Japanese radio station charts simultaneously. Due to this immense popularity and interest on the Japanese isles, almost two thirds of the more than 600,000 albums sold of her first album were bought by Japanese fans.

Her runner-up album came in 1996, called Beneath My Skin, and also enjoyed success, though "only" selling about half the number of copies as her debut album did. More than 300,000 copies were sold in Norway, Japan and Denmark, which was a new market for Trine. In its first release week, the album went straight to number one in Norwegian album charts. Again a popular single was released in 1996, this time her cover of the alternative rock band Ednaswap's song Torn, which later, in 1997 got its worldwide fame with the Natalie Imbruglia cover, with one of the most broadcast music videos of that time on music channel MTV.
~ Wiki

***************

Trine Rein - Beneath My Skin (1996) {1998, Japanese Edition}

Track List:

01. The State I'm In [0:04:10.65]
02. Torn [0:04:09.22]
03. Look At Me [0:04:31.08]
04. Old Soul [0:03:38.67]
05. Comes Love [0:03:45.35]
06. Do You Really Wanna Leave Me This Way [0:04:32.33]
07. Good Time [0:03:27.12]
08. Have A Little Faith In Me [0:05:10.60]
09. A Little More Of You [0:04:22.05]
10. Touch [0:03:00.63]
11. Slowly [0:04:09.00]
12. Never Far Away [0:03:53.05]
13. Cry Baby [0:03:29.02]

Exact Audio Copy V1.3 from 2. September 2016

EAC extraction logfile from 21. March 2019, 9:14

Trine Rein / Beneath My Skin

Used drive : PIONEER DVD-RW DVR-220L Adapter: 1 ID: 0

Read mode : Secure
Utilize accurate stream : Yes
Defeat audio cache : Yes
Make use of C2 pointers : No

Read offset correction : 6
Overread into Lead-In and Lead-Out : No
Fill up missing offset samples with silence : Yes
Delete leading and trailing silent blocks : No
Null samples used in CRC calculations : Yes
Used interface : Installed external ASPI interface

Used output format : User Defined Encoder
Selected bitrate : 1024 kBit/s
Quality : High
Add ID3 tag : No
Command line compressor : C:\Program Files (x86)\Exact Audio Copy\Flac\flac.exe
Additional command line options : -6 -V -T "ARTIST=%artist%" -T "TITLE=%title%" -T "ALBUM=%albumtitle%" -T "DATE=%year%" -T "TRACKNUMBER=%tracknr%" -T "GENRE=%genre%" -T "COMMENT=%comment%" -T "BAND=%albuminterpret%" -T "ALBUMARTIST=%albuminterpret%" -T "COMPOSER=%composer%" %haslyrics%–tag-from-file=LYRICS="%lyricsfile%"%haslyrics% -T "DISCNUMBER=%cdnumber%" -T "TOTALDISCS=%totalcds%" -T "TOTALTRACKS=%numtracks%" %hascover%–picture="%coverfile%"%hascover% %source% -o %dest%


TOC of the extracted CD

Track | Start | Length | Start sector | End sector
––––––––––––––––––––––––––––-
1 | 0:00.00 | 4:10.65 | 0 | 18814
2 | 4:10.65 | 4:09.22 | 18815 | 37511
3 | 8:20.12 | 4:31.08 | 37512 | 57844
4 | 12:51.20 | 3:38.67 | 57845 | 74261
5 | 16:30.12 | 3:45.35 | 74262 | 91171
6 | 20:15.47 | 4:32.33 | 91172 | 111604
7 | 24:48.05 | 3:27.12 | 111605 | 127141
8 | 28:15.17 | 5:10.60 | 127142 | 150451
9 | 33:26.02 | 4:22.05 | 150452 | 170106
10 | 37:48.07 | 3:00.63 | 170107 | 183669
11 | 40:48.70 | 4:09.00 | 183670 | 202344
12 | 44:57.70 | 3:53.05 | 202345 | 219824
13 | 48:51.00 | 3:29.02 | 219825 | 235501


Range status and errors

Selected range

Filename C:\mm\Trine Rein\ 1996 - Beneath My Skin [TOCP-8740]\Trine Rein - Beneath My Skin.wav

Peak level 99.2 %
Extraction speed 7.2 X
Range quality 100.0 %
Test CRC 23860455
Copy CRC 23860455
Copy OK

No errors occurred


AccurateRip summary

Track 1 accurately ripped (confidence 8) [884808E0] (AR v2)
Track 2 accurately ripped (confidence 8) [E7DC4D12] (AR v2)
Track 3 accurately ripped (confidence 8) [9B6E3A63] (AR v2)
Track 4 accurately ripped (confidence 8) [62336001] (AR v2)
Track 5 accurately ripped (confidence 8) [7FFCF25E] (AR v2)
Track 6 accurately ripped (confidence 8) [70AD94CA] (AR v2)
Track 7 accurately ripped (confidence 8) [F8988791] (AR v2)
Track 8 accurately ripped (confidence 7) [A97A7897] (AR v2)
Track 9 accurately ripped (confidence 8) [0557B7DB] (AR v2)
Track 10 accurately ripped (confidence 8) [B783884F] (AR v2)
Track 11 accurately ripped (confidence 8) [0758F46D] (AR v2)
Track 12 accurately ripped (confidence 8) [E4C6EF23] (AR v2)
Track 13 accurately ripped (confidence 8) [411D5B13] (AR v2)

All tracks accurately ripped

End of status report

[CUETools log; Date: 23.03.2019 22:55:15; Version: 2.1.6]
[CTDB TOCID: AHkyJKDP.BvJFx1uIOux3k7hN08-] found.
Track | CTDB Status
1 | (19/19) Accurately ripped
2 | (19/19) Accurately ripped
3 | (19/19) Accurately ripped
4 | (19/19) Accurately ripped
5 | (19/19) Accurately ripped
6 | (19/19) Accurately ripped
7 | (19/19) Accurately ripped
8 | (19/19) Accurately ripped
9 | (19/19) Accurately ripped
10 | (19/19) Accurately ripped
11 | (19/19) Accurately ripped
12 | (19/19) Accurately ripped
13 | (19/19) Accurately ripped
[AccurateRip ID: 0019a37e-00ffafb5-b20c440d] found.
Track [ CRC | V2 ] Status
01 [bfb95b28|884808e0] (02+08/10) Accurately ripped
02 [798c8533|e7dc4d12] (02+08/10) Accurately ripped
03 [15c9bc5f|9b6e3a63] (02+08/10) Accurately ripped
04 [b8e5424d|62336001] (02+08/10) Accurately ripped
05 [d8db7b40|7ffcf25e] (02+08/10) Accurately ripped
06 [76d4855e|70ad94ca] (02+08/10) Accurately ripped
07 [214ca4fe|f8988791] (02+08/10) Accurately ripped
08 [8085fda9|a97a7897] (02+07/09) Accurately ripped
09 [e0cba5aa|0557b7db] (02+08/10) Accurately ripped
10 [abd1521e|b783884f] (02+08/10) Accurately ripped
11 [c6f96a8c|0758f46d] (02+08/10) Accurately ripped
12 [5c26f127|e4c6ef23] (02+08/10) Accurately ripped
13 [19673d9b|411d5b13] (02+08/10) Accurately ripped

Track Peak [ CRC32 ] [W/O NULL] [ LOG ]
– 99,2 [23860455] [86B3D011] CRC32
01 99,2 [FE07A74C] [57AD7604]
02 99,2 [D89DA24B] [936F8BBF]
03 99,2 [F61CFFFB] [779179E4]
04 99,2 [905DA1EB] [CBEAA0FF]
05 99,2 [6ABBFBA8] [52CFDB28]
06 99,2 [AE2D7363] [7F248E48]
07 99,2 [FA7586E9] [27C8D436]
08 98,4 [5ECE0206] [7D0D3D14]
09 93,6 [DF5F6738] [99B1640A]
10 99,2 [5433A40B] [F341DCD0]
11 99,2 [FD604DBB] [2DDDA12E]
12 96,9 [E9639886] [821DB01B]
13 94,7 [BC837ADA] [4D7D057B]

Trine Rein - Beneath My Skin (1996) {1998, Japanese Edition}

See also:
Trine Rein - Finders Keepers (1993) {1994, Japanese Edition}

All thanks go to sergych

>>> My Blog <<<

Download from icerbox.com: