Subcategories

Trine Rein - Finders Keepers (1993) {1994, Japanese Edition}

Posted By: popsakov
Trine Rein - Finders Keepers (1993) {1994, Japanese Edition}

Trine Rein - Finders Keepers (1993) {1994, Japanese Edition}
EAC Rip | FLAC (Img) + Cue + Log ~ 312 Mb | MP3 CBR320 ~ 109 Mb
Full Scans (JPG, 600 dpi) ~ 114 Mb | RAR 5% Recovery
Pop, Pop Rock | Toshiba-EMI #TOCP-8335 / 7243 8277342

Trine Rein is an American-Norwegian singer, who belongs to the exclusive group of Norwegian artists who have sold more than a million records. Trine Rein released her first solo album in 1993, Finders, Keepers. It peaked at the top of the Norwegian album chart for no less than five weeks. But as she was almost unknown before the release, it took her 14 weeks - more than three months - to finally have the most popular album in Norway. And due to the extensive foreign press coverage of the Olympic Winter Games in Lillehammer February 1994, her album was soon a hit in Japan as well. At one time she topped 16 different Japanese radio station charts simultaneously. Due to this immense popularity and interest on the Japanese isles, almost two thirds of the more than 600,000 albums sold of her first album were bought by Japanese fans.
~ Wiki
Trine Rein - Finders Keepers (1993) {1994, Japanese Edition}


***************

Trine Rein - Finders Keepers (1993) {1994, Japanese Edition}

Trine Rein - Finders Keepers (1993) {1994, Japanese Edition}

Track List:

01. Just Missed The Train [0:04:51.12]
02. Stay With Me Baby [0:04:10.00]
03. I Just Wanna Hold You [0:04:49.55]
04. I Need A Break [0:03:32.48]
05. You're All Mine [0:03:10.47]
06. Yesterday's Forever [0:04:23.65]
07. Summernight Magic [0:03:52.48]
08. Gypsy Heart [0:03:37.67]
09. So You Win Again [0:04:28.60]
10. Bad News Travels Fast [0:04:07.35]
11. Just Missed The Train-Barrack Square Mix [0:04:15.58]

Exact Audio Copy V1.3 from 2. September 2016

EAC extraction logfile from 14. August 2017, 8:32

Trine Rein / Finders Keepers

Used drive : PLEXTOR DVDR PX-716A Adapter: 1 ID: 0

Read mode : Secure
Utilize accurate stream : Yes
Defeat audio cache : Yes
Make use of C2 pointers : No

Read offset correction : 30
Overread into Lead-In and Lead-Out : No
Fill up missing offset samples with silence : Yes
Delete leading and trailing silent blocks : No
Null samples used in CRC calculations : Yes
Used interface : Installed external ASPI interface

Used output format : User Defined Encoder
Selected bitrate : 1024 kBit/s
Quality : High
Add ID3 tag : No
Command line compressor : C:\Program Files (x86)\Exact Audio Copy\Flac\flac.exe
Additional command line options : -6 -V -T "ARTIST=%artist%" -T "TITLE=%title%" -T "ALBUM=%albumtitle%" -T "DATE=%year%" -T "TRACKNUMBER=%tracknr%" -T "GENRE=%genre%" -T "COMMENT=%comment%" -T "BAND=%albuminterpret%" -T "ALBUMARTIST=%albuminterpret%" -T "COMPOSER=%composer%" %haslyrics%–tag-from-file=LYRICS="%lyricsfile%"%haslyrics% -T "DISCNUMBER=%cdnumber%" -T "TOTALDISCS=%totalcds%" -T "TOTALTRACKS=%numtracks%" %hascover%–picture="%coverfile%"%hascover% %source% -o %dest%


TOC of the extracted CD

Track | Start | Length | Start sector | End sector
––––––––––––––––––––––––––––-
1 | 0:00.00 | 4:51.12 | 0 | 21836
2 | 4:51.12 | 4:10.00 | 21837 | 40586
3 | 9:01.12 | 4:49.55 | 40587 | 62316
4 | 13:50.67 | 3:32.48 | 62317 | 78264
5 | 17:23.40 | 3:10.47 | 78265 | 92561
6 | 20:34.12 | 4:23.65 | 92562 | 112351
7 | 24:58.02 | 3:52.48 | 112352 | 129799
8 | 28:50.50 | 3:37.67 | 129800 | 146141
9 | 32:28.42 | 4:28.60 | 146142 | 166301
10 | 36:57.27 | 4:07.35 | 166302 | 184861
11 | 41:04.62 | 4:15.58 | 184862 | 204044


Range status and errors

Selected range

Filename C:\mm\Trine Rein\1993(1994) - Finders Keepers [TOCP-8335]\Trine Rein - Finders Keepers.wav

Peak level 100.0 %
Extraction speed 12.0 X
Range quality 100.0 %
Test CRC 4385D35C
Copy CRC 4385D35C
Copy OK

No errors occurred

End of status report

–– CUETools DB Plugin V2.1.6

[CTDB TOCID: IxxQfU6.EeeEb.o00RGQBoZpyiE-] found
Submit result: IxxQfU6.EeeEb.o00RGQBoZpyiE- has been confirmed
Track | CTDB Status
1 | (33/33) Accurately ripped
2 | (33/33) Accurately ripped
3 | (33/33) Accurately ripped
4 | (33/33) Accurately ripped
5 | (33/33) Accurately ripped
6 | (33/33) Accurately ripped
7 | (33/33) Accurately ripped
8 | (33/33) Accurately ripped
9 | (33/33) Accurately ripped
10 | (33/33) Accurately ripped
11 | (33/33) Accurately ripped

foobar2000 1.2.6 / Dynamic Range Meter 1.1.1
log date: 2017-08-19 13:41:50

––––––––––––––––––––––––––––––––––––––––
Analyzed: Trine Rein / Finders Keepers
––––––––––––––––––––––––––––––––––––––––

DR Peak RMS Duration Track
––––––––––––––––––––––––––––––––––––––––
DR11 0.00 dB -12.87 dB 4:51 01-Just Missed The Train
DR12 -0.20 dB -14.11 dB 4:10 02-Stay With Me Baby
DR11 -0.20 dB -13.47 dB 4:50 03-I Just Wanna Hold You
DR12 -0.20 dB -13.79 dB 3:33 04-I Need A Break
DR13 -0.20 dB -14.56 dB 3:11 05-You're All Mine
DR13 -0.20 dB -14.69 dB 4:24 06-Yesterday's Forever
DR13 -0.20 dB -14.87 dB 3:53 07-Summernight Magic
DR13 -0.20 dB -14.93 dB 3:38 08-Gypsy Heart
DR12 -0.20 dB -13.11 dB 4:29 09-So You Win Again
DR13 -0.20 dB -15.11 dB 4:07 10-Bad News Travels Fast
DR11 -5.20 dB -17.85 dB 4:16 11-Just Missed The Train-Barrack Square Mix
––––––––––––––––––––––––––––––––––––––––

Number of tracks: 11
Official DR value: DR12

Samplerate: 44100 Hz
Channels: 2
Bits per sample: 16
Bitrate: 917 kbps
Codec: FLAC
================================================================================

[CUETools log; Date: 19.08.2017 13:44:46; Version: 2.1.5]
[CTDB TOCID: IxxQfU6.EeeEb.o00RGQBoZpyiE-] found.
Track | CTDB Status
1 | (34/34) Accurately ripped
2 | (34/34) Accurately ripped
3 | (34/34) Accurately ripped
4 | (34/34) Accurately ripped
5 | (34/34) Accurately ripped
6 | (34/34) Accurately ripped
7 | (34/34) Accurately ripped
8 | (34/34) Accurately ripped
9 | (34/34) Accurately ripped
10 | (34/34) Accurately ripped
11 | (34/34) Accurately ripped
[AccurateRip ID: 0012e81f-00a27439-810aa00b] found.
Track [ CRC | V2 ] Status
01 [be3ec883|a3b1db43] (04+09/13) Accurately ripped
02 [050f3c60|8db853fa] (04+09/13) Accurately ripped
03 [0cd61190|1f4dbb2f] (04+09/13) Accurately ripped
04 [62c8056d|3dab38fb] (04+09/13) Accurately ripped
05 [790d388c|c2fb887a] (04+09/13) Accurately ripped
06 [40475d8b|4f72cec4] (04+09/13) Accurately ripped
07 [a5b55b60|e4b03862] (04+09/13) Accurately ripped
08 [7e8b58a1|4304d029] (04+09/13) Accurately ripped
09 [d271b03c|fe07f0e9] (04+09/13) Accurately ripped
10 [be16cb4e|19b1b542] (04+09/13) Accurately ripped
11 [c0579564|1a67bf97] (04+09/13) Accurately ripped

Track Peak [ CRC32 ] [W/O NULL] [ LOG ]
– 100,0 [4385D35C] [604CCB73] CRC32
01 100,0 [D6B7F3EC] [2ECB4598]
02 97,7 [835EC12B] [67D5D50A]
03 97,7 [906B3E40] [E311C28C]
04 97,7 [6B0F36A5] [2BEC53F9]
05 97,7 [826B3C59] [3FCE2762]
06 97,7 [0C3DA5B9] [B0F1F75C]
07 97,7 [848EDFD8] [B62127BB]
08 97,7 [DC9007C0] [EA78BB21]
09 97,7 [6C024DFF] [B568F873]
10 97,7 [A97BF3D7] [66FB45D6]
11 54,9 [0708CE58] [FF85772C]

Trine Rein - Finders Keepers (1993) {1994, Japanese Edition}

All thanks go to sergych

>>> My Blog <<<

Download from icerbox.com: