Subcategories

Trine Rein - The Greatest (1998) {Japanese Limited Edition}

Posted By: popsakov
Trine Rein - The Greatest (1998) {Japanese Limited Edition}

Trine Rein - The Greatest (1998) {Japanese Limited Edition}
EAC Rip | FLAC (Img) + Cue + Log ~ 451 Mb | MP3 CBR320 ~ 173 Mb
Full Scans | RAR 5% Recovery
Pop, Pop Rock, Alternative Rock | Toshiba-EMI Ltd. #TOCP-51077

Trine Rein is an American-Norwegian singer, who belongs to the exclusive group of Norwegian artists whose album sales have exceeded more than a million records. Trine Rein released her first solo album in 1993, Finders, Keepers. It peaked at the top of the Norwegian album chart for no less than five weeks. But as she was almost unknown before the release, it took her 14 weeks - more than three months - to finally have the most popular album in Norway. And due to the extensive foreign press coverage of the Olympic Winter Games in Lillehammer February 1994, her album was soon a hit in Japan as well. At one time she topped 16 different Japanese radio station charts simultaneously. Due to this immense popularity and interest on the Japanese isles, almost two thirds of the more than 600,000 albums sold of her first album were bought by Japanese fans.

Trine has released two successful singles. The first came with her debut album, called "Just Missed the Train", and has become Trine's trademark song, exposing her great singing ability. Her runner-up album came in 1996, called Beneath My Skin, and also enjoyed success, though "only" selling about half the number of copies as her debut album did. Again a popular single was released in 1996, this time her cover of the alternative rock band Ednaswap's song Torn, which later, in 1997 got its worldwide fame with the Natalie Imbruglia cover, with one of the most broadcast music videos of that time on music channel MTV.
~ Wiki

***************

Trine Rein - The Greatest (1998) {Japanese Limited Edition}

Track List:

01. Just Missed The Train [0:04:51.12]
02. The State I'm In [0:04:10.23]
03. Torn [0:04:09.25]
04. Do You Really Wanna Leave Me This Way [0:04:32.12]
05. Good Time [0:03:27.15]
06. Old Soul [0:03:38.63]
07. Stay With Me Baby [0:04:10.00]
08. So You Win Again [0:04:28.57]
09. I Just Wanna Hold You [0:04:49.43]
10. Summernight Magic [0:03:52.47]
11. Cry Baby [0:03:28.55]
12. Bad News Travels Fast [0:04:07.38]
13. Look At Me [0:04:31.25]
14. Just Missed The Train (Barrack Square Mix) [0:04:14.72]

Exact Audio Copy V1.3 from 2. September 2016

EAC extraction logfile from 21. March 2019, 10:08

Trine Rein / The Greatest

Used drive : PIONEER DVD-RW DVR-220L Adapter: 1 ID: 0

Read mode : Secure
Utilize accurate stream : Yes
Defeat audio cache : Yes
Make use of C2 pointers : No

Read offset correction : 6
Overread into Lead-In and Lead-Out : No
Fill up missing offset samples with silence : Yes
Delete leading and trailing silent blocks : No
Null samples used in CRC calculations : Yes
Used interface : Installed external ASPI interface

Used output format : User Defined Encoder
Selected bitrate : 1024 kBit/s
Quality : High
Add ID3 tag : No
Command line compressor : C:\Program Files (x86)\Exact Audio Copy\Flac\flac.exe
Additional command line options : -6 -V -T "ARTIST=%artist%" -T "TITLE=%title%" -T "ALBUM=%albumtitle%" -T "DATE=%year%" -T "TRACKNUMBER=%tracknr%" -T "GENRE=%genre%" -T "COMMENT=%comment%" -T "BAND=%albuminterpret%" -T "ALBUMARTIST=%albuminterpret%" -T "COMPOSER=%composer%" %haslyrics%–tag-from-file=LYRICS="%lyricsfile%"%haslyrics% -T "DISCNUMBER=%cdnumber%" -T "TOTALDISCS=%totalcds%" -T "TOTALTRACKS=%numtracks%" %hascover%–picture="%coverfile%"%hascover% %source% -o %dest%


TOC of the extracted CD

Track | Start | Length | Start sector | End sector
––––––––––––––––––––––––––––-
1 | 0:00.00 | 4:51.12 | 0 | 21836
2 | 4:51.12 | 4:10.23 | 21837 | 40609
3 | 9:01.35 | 4:09.25 | 40610 | 59309
4 | 13:10.60 | 4:32.12 | 59310 | 79721
5 | 17:42.72 | 3:27.15 | 79722 | 95261
6 | 21:10.12 | 3:38.63 | 95262 | 111674
7 | 24:49.00 | 4:10.00 | 111675 | 130424
8 | 28:59.00 | 4:28.57 | 130425 | 150581
9 | 33:27.57 | 4:49.43 | 150582 | 172299
10 | 38:17.25 | 3:52.47 | 172300 | 189746
11 | 42:09.72 | 3:28.55 | 189747 | 205401
12 | 45:38.52 | 4:07.38 | 205402 | 223964
13 | 49:46.15 | 4:31.25 | 223965 | 244314
14 | 54:17.40 | 4:14.72 | 244315 | 263436


Range status and errors

Selected range

Filename C:\mm\Trine Rein\1998(2000) - The Greatest [TOCP-51077]\Trine Rein - The Greatest.wav

Peak level 99.2 %
Extraction speed 7.4 X
Range quality 100.0 %
Test CRC C7112694
Copy CRC C7112694
Copy OK

No errors occurred


AccurateRip summary

Track 1 accurately ripped (confidence 2) [CF1116CB] (AR v2)
Track 2 accurately ripped (confidence 2) [1FFE3215] (AR v2)
Track 3 accurately ripped (confidence 2) [4B1A9F98] (AR v2)
Track 4 accurately ripped (confidence 2) [0066DCC1] (AR v2)
Track 5 accurately ripped (confidence 2) [D3DCAFD2] (AR v2)
Track 6 accurately ripped (confidence 2) [2CEA3573] (AR v2)
Track 7 accurately ripped (confidence 2) [0BD40D6E] (AR v2)
Track 8 accurately ripped (confidence 2) [BF761E73] (AR v2)
Track 9 accurately ripped (confidence 2) [AA55B8E6] (AR v2)
Track 10 accurately ripped (confidence 2) [60E21648] (AR v2)
Track 11 accurately ripped (confidence 2) [DF8D875D] (AR v2)
Track 12 accurately ripped (confidence 2) [4A28D243] (AR v2)
Track 13 accurately ripped (confidence 2) [01285841] (AR v2)
Track 14 accurately ripped (confidence 2) [36DDE61B] (AR v2)

All tracks accurately ripped

End of status report

[CUETools log; Date: 31.03.2019 1:52:05; Version: 2.1.6]
[CTDB TOCID: HzEbs1Hs3bmT2yUH.KNyqmjAgKE-] found.
Track | CTDB Status
1 | (3/3) Accurately ripped
2 | (3/3) Accurately ripped
3 | (3/3) Accurately ripped
4 | (3/3) Accurately ripped
5 | (3/3) Accurately ripped
6 | (3/3) Accurately ripped
7 | (3/3) Accurately ripped
8 | (3/3) Accurately ripped
9 | (3/3) Accurately ripped
10 | (3/3) Accurately ripped
11 | (3/3) Accurately ripped
12 | (3/3) Accurately ripped
13 | (3/3) Accurately ripped
14 | (3/3) Accurately ripped
[AccurateRip ID: 001e57ed-01422421-c80db80e] found.
Track [ CRC | V2 ] Status
01 [1e6bd2ed|cf1116cb] (0+2/2) Accurately ripped
02 [0ddbfd08|1ffe3215] (0+2/2) Accurately ripped
03 [a4df8056|4b1a9f98] (0+2/2) Accurately ripped
04 [7f0907b5|0066dcc1] (0+2/2) Accurately ripped
05 [460a308f|d3dcafd2] (0+2/2) Accurately ripped
06 [170bcfb5|2cea3573] (0+2/2) Accurately ripped
07 [0b7dfd53|0bd40d6e] (0+2/2) Accurately ripped
08 [e004bb67|bf761e73] (0+2/2) Accurately ripped
09 [3521a60d|aa55b8e6] (0+2/2) Accurately ripped
10 [d720e9dc|60e21648] (0+2/2) Accurately ripped
11 [06e6a529|df8d875d] (0+2/2) Accurately ripped
12 [08c66780|4a28d243] (0+2/2) Accurately ripped
13 [f4ed4dbd|01285841] (0+2/2) Accurately ripped
14 [840f7032|36dde61b] (0+2/2) Accurately ripped

Track Peak [ CRC32 ] [W/O NULL] [ LOG ]
– 99,2 [C7112694] [029AEE65] CRC32
01 98,8 [D5CE5BC4] [BB742B67]
02 99,2 [EF0F131F] [BE324E13]
03 99,2 [D6B3BC41] [471844E7]
04 99,2 [331294C8] [B35AD38F]
05 99,2 [480E2A69] [27C8D436]
06 99,2 [2DB1A09A] [5B0928EC]
07 98,8 [38788230] [6E96A0F1]
08 98,8 [1CCFBEBA] [2C6E3AD3]
09 98,8 [93A2FC66] [EB671B17]
10 98,8 [41E24851] [7C9EA1C0]
11 94,7 [E4021C71] [2AE4933F]
12 98,8 [7F3C71AB] [8CF72496]
13 99,2 [2BC0E141] [0646B9E9]
14 74,1 [98880F77] [B723C19A]

Trine Rein - The Greatest (1998) {Japanese Limited Edition}

See also:
Trine Rein - Finders Keepers (1993) {1994, Japanese Edition}
Trine Rein - Beneath My Skin (1996) {1998, Japanese Edition}

All thanks go to sergych

>>> My Blog <<<

Download from icerbox.com: