Subcategories

Trine Rein - To Find The Truth (1998) {Japan 1st Press}

Posted By: popsakov
Trine Rein - To Find The Truth (1998) {Japan 1st Press}

Trine Rein - To Find The Truth (1998) {Japan 1st Press}
EAC Rip | FLAC (Img) + Cue + Log ~ 315 Mb | MP3 CBR320 ~ 104 Mb
Full Scans ~ 61 Mb | RAR 5% Recovery
Pop, Pop Rock, Alternative Rock | Toshiba-EMI Ltd. #TOCP-50660

“To find the Truth” is Trine Rein’s solo album of the 90’ies, and was entirely recorded in LA, California to be released in 1998. The album includes songs like ‘World Without You’ (later recorded by Beth Hart), ‘David’ and ‘Stars And Angels’, and Trine Rein had the honor of working with people like Louise Goffin, Guy Roche and Shelly Peiken, among others. Scott Cutler and Anne Previn were also involved on this album. The great Norwegian influence in this particular album cover, video and press pictures symbolize Trine’s passion for her childhood country, and her need to share the beauty of Norway with fans across the world.

***************

Trine Rein - To Find The Truth (1998) {Japan 1st Press}

Track List:

01. World Without You [0:03:59.60]
02. David [0:04:14.67]
03. Stars And Angels [0:02:56.20]
04. If Only You Could Be Mine [0:03:39.13]
05. You Are [0:03:40.32]
06. To Find The Truth [0:05:20.08]
07. Blown Away [0:04:28.47]
08. I'm Not An Angel [0:04:06.40]
09. My Disguise [0:04:12.65]
10. I Gotta Be [0:03:09.15]
11. Torn (acoustic version) [0:03:20.08]

Exact Audio Copy V1.3 from 2. September 2016

EAC extraction logfile from 4. May 2019, 23:42

Trine Rein / To Find The Truth

Used drive : PIONEER DVD-RW DVR-220L Adapter: 1 ID: 0

Read mode : Secure
Utilize accurate stream : Yes
Defeat audio cache : Yes
Make use of C2 pointers : No

Read offset correction : 6
Overread into Lead-In and Lead-Out : No
Fill up missing offset samples with silence : Yes
Delete leading and trailing silent blocks : No
Null samples used in CRC calculations : Yes
Used interface : Installed external ASPI interface

Used output format : User Defined Encoder
Selected bitrate : 1024 kBit/s
Quality : High
Add ID3 tag : No
Command line compressor : C:\Program Files (x86)\Exact Audio Copy\Flac\flac.exe
Additional command line options : -6 -V -T "ARTIST=%artist%" -T "TITLE=%title%" -T "ALBUM=%albumtitle%" -T "DATE=%year%" -T "TRACKNUMBER=%tracknr%" -T "GENRE=%genre%" -T "COMMENT=%comment%" -T "BAND=%albuminterpret%" -T "ALBUMARTIST=%albuminterpret%" -T "COMPOSER=%composer%" %haslyrics%–tag-from-file=LYRICS="%lyricsfile%"%haslyrics% -T "DISCNUMBER=%cdnumber%" -T "TOTALDISCS=%totalcds%" -T "TOTALTRACKS=%numtracks%" %hascover%–picture="%coverfile%"%hascover% %source% -o %dest%


TOC of the extracted CD

Track | Start | Length | Start sector | End sector
––––––––––––––––––––––––––––-
1 | 0:00.00 | 3:59.60 | 0 | 17984
2 | 3:59.60 | 4:14.67 | 17985 | 37101
3 | 8:14.52 | 2:56.20 | 37102 | 50321
4 | 11:10.72 | 3:39.13 | 50322 | 66759
5 | 14:50.10 | 3:40.32 | 66760 | 83291
6 | 18:30.42 | 5:20.08 | 83292 | 107299
7 | 23:50.50 | 4:28.47 | 107300 | 127446
8 | 28:19.22 | 4:06.40 | 127447 | 145936
9 | 32:25.62 | 4:12.65 | 145937 | 164901
10 | 36:38.52 | 3:09.15 | 164902 | 179091
11 | 39:47.67 | 3:20.08 | 179092 | 194099


Range status and errors

Selected range

Filename C:\mm\Trine Rein\1998(2000) - To Find The Truth [TOCP-50660]\Trine Rein - To Find The Truth.wav

Peak level 100.0 %
Extraction speed 6.8 X
Range quality 100.0 %
Test CRC 58A58AC5
Copy CRC 58A58AC5
Copy OK

No errors occurred


AccurateRip summary

Track 1 accurately ripped (confidence 9) [5A416912] (AR v2)
Track 2 accurately ripped (confidence 9) [A40CD2C5] (AR v2)
Track 3 accurately ripped (confidence 9) [072774F9] (AR v2)
Track 4 accurately ripped (confidence 9) [CB04C136] (AR v2)
Track 5 accurately ripped (confidence 9) [4D2CEC20] (AR v2)
Track 6 accurately ripped (confidence 9) [6B42DDB9] (AR v2)
Track 7 accurately ripped (confidence 9) [986503FB] (AR v2)
Track 8 accurately ripped (confidence 9) [C3E568A6] (AR v2)
Track 9 accurately ripped (confidence 9) [65019F68] (AR v2)
Track 10 accurately ripped (confidence 9) [C65A2387] (AR v2)
Track 11 accurately ripped (confidence 8) [38B81610] (AR v2)

All tracks accurately ripped

End of status report

[CUETools log; Date: 15.05.2019 21:21:42; Version: 2.1.6]
[CTDB TOCID: mwN_ht0wfmnf96cZcFCQviF1Clk-] found.
Track | CTDB Status
1 | (17/17) Accurately ripped
2 | (17/17) Accurately ripped
3 | (16/17) Accurately ripped
4 | (17/17) Accurately ripped
5 | (17/17) Accurately ripped
6 | (16/17) Accurately ripped
7 | (17/17) Accurately ripped
8 | (17/17) Accurately ripped
9 | (17/17) Accurately ripped
10 | (17/17) Accurately ripped
11 | (16/17) Accurately ripped
[AccurateRip ID: 0011eadf-009bdc3a-850a1c0b] found.
Track [ CRC | V2 ] Status
01 [0fc9e269|5a416912] (02+10/12) Accurately ripped
02 [bd187347|a40cd2c5] (02+10/12) Accurately ripped
03 [20bd4c4e|072774f9] (02+10/12) Accurately ripped
04 [05ba4adb|cb04c136] (02+10/12) Accurately ripped
05 [c8a4d716|4d2cec20] (02+10/12) Accurately ripped
06 [d3c6926b|6b42ddb9] (02+10/12) Accurately ripped
07 [d5b98db8|986503fb] (02+10/12) Accurately ripped
08 [cbb7aaeb|c3e568a6] (02+10/12) Accurately ripped
09 [02bdd908|65019f68] (02+10/12) Accurately ripped
10 [4bd95a2d|c65a2387] (02+10/12) Accurately ripped
11 [c05d18ec|38b81610] (02+09/11) Accurately ripped

Track Peak [ CRC32 ] [W/O NULL] [ LOG ]
– 100,0 [58A58AC5] [AC2F6570] CRC32
01 97,2 [6E347B8B] [BB67B546]
02 100,0 [1FC3889A] [FAE5CEBA]
03 97,2 [ACC444D8] [A87A1F08]
04 100,0 [55607A33] [F66439B4]
05 97,2 [4CAAE3C9] [4C549377]
06 97,2 [C3104D3F] [CBA5E79E]
07 97,2 [954638AD] [85B612E0]
08 97,2 [2B51CDB3] [CB04BAC7]
09 97,2 [A98D170B] [B590FD0C]
10 97,2 [C0AB1789] [A46A3B4F]
11 97,2 [C06AF6B0] [44008944]

Trine Rein - To Find The Truth (1998) {Japan 1st Press}

See also:
Trine Rein - Finders Keepers (1993) {1994, Japanese Edition}
Trine Rein - Beneath My Skin (1996) {1998, Japanese Edition}
Trine Rein - The Greatest (1998) {Japanese Limited Edition}

All thanks go to sergych

>>> My Blog <<<

Download from icerbox.com: