Subcategories

Bulgarka Vocal Trio (1989)

Posted By: wdilbert
Bulgarka Vocal Trio (1989)

Bulgarka Vocal Trio
EAC | FLAC IMG+CUE+LOG (333 MB) | Complete HQ Scans | 1CD | MU-RS-MultiUpload
Folklore, World, Vocal | Balkanton 060067 | 1989

Trio Bulgarka (also known as "Three Golden Coins", previously known as "Bulgarka Folk Trio") is a Bulgarian vocal ensemble.

They gained international prominence through their contributions to the groundbreaking 1975 world music album Balkana: The music of Bulgaria, originally released on the now defunct Hannibal label.

The trio comprises Stoyanka Boneva from Pirin, Yanka Rupkina from Strandja and Eva Georgieva from Dobroudja. Their diversity of regional backgrounds enabled them to create a unique sound to their music. They signed to record labels Bulgaria Balkanton and Hannibal in 1987. Two years later they featured on The Sensual World album by Kate Bush on the songs "Deeper Understanding", "Never Be Mine", and "Rocket's Tail". In 1993 they appeared on another Kate Bush album, The Red Shoes, in the songs "You're the One", "The Song of Solomon", and "Why Should I Love You?", which also featured Prince. The trio have since concentrated on solo projects but often re-form for concert appearances.
Wikipedia
Exact Audio Copy V1.0 beta 2 from 29. April 2011

EAC extraction logfile from 25. June 2011, 14:37

Bulgarka Vocal Trio / Bulgarka Vocal Trio

Used drive : LITE-ON DVDRW LH-20A1S Adapter: 3 ID: 0

Read mode : Secure
Utilize accurate stream : Yes
Defeat audio cache : Yes
Make use of C2 pointers : No

Read offset correction : 6
Overread into Lead-In and Lead-Out : No
Fill up missing offset samples with silence : Yes
Delete leading and trailing silent blocks : No
Null samples used in CRC calculations : Yes
Used interface : Native Win32 interface for Win NT & 2000

Used output format : User Defined Encoder
Selected bitrate : 896 kBit/s
Quality : High
Add ID3 tag : Yes
Command line compressor : C:\Program Files (x86)\Exact Audio Copy\FLAC\FLAC.EXE
Additional command line options : -8 -V -T "ARTIST=%artist%" -T "TITLE=%title%" -T "ALBUM=%albumtitle%" -T "DATE=%year%" -T "TRACKNUMBER=%tracknr%" -T "GENRE=%genre%" -T "COMMENT=%comment%" %hascover%–picture="%coverfile%"%hascover% %source% -o %dest%


TOC of the extracted CD

Track | Start | Length | Start sector | End sector
––––––––––––––––––––––––––––-
1 | 0:00.00 | 2:05.55 | 0 | 9429
2 | 2:05.55 | 2:32.00 | 9430 | 20829
3 | 4:37.55 | 3:11.05 | 20830 | 35159
4 | 7:48.60 | 2:47.00 | 35160 | 47684
5 | 10:35.60 | 4:02.65 | 47685 | 65899
6 | 14:38.50 | 1:27.05 | 65900 | 72429
7 | 16:05.55 | 2:40.70 | 72430 | 84499
8 | 18:46.50 | 3:19.00 | 84500 | 99424
9 | 22:05.50 | 2:19.08 | 99425 | 109857
10 | 24:24.58 | 1:58.70 | 109858 | 118777
11 | 26:23.53 | 3:03.00 | 118778 | 132502
12 | 29:26.53 | 3:31.50 | 132503 | 148377
13 | 32:58.28 | 3:55.20 | 148378 | 166022
14 | 36:53.48 | 2:05.02 | 166023 | 175399
15 | 38:58.50 | 1:13.00 | 175400 | 180874
16 | 40:11.50 | 2:52.10 | 180875 | 193784
17 | 43:03.60 | 5:11.03 | 193785 | 217112
18 | 48:14.63 | 3:03.65 | 217113 | 230902
19 | 51:18.53 | 2:48.02 | 230903 | 243504
20 | 54:06.55 | 4:03.00 | 243505 | 261729
21 | 58:09.55 | 5:44.23 | 261730 | 287552


Range status and errors

Selected range

Filename D:\EAC\Bulgarka Vocal Trio - Bulgarka Vocal Trio.wav

Peak level 85.1 %
Extraction speed 3.5 X
Range quality 100.0 %
Copy CRC A2222FDD
Copy OK

No errors occurred


AccurateRip summary

Track 1 not present in database
Track 2 not present in database
Track 3 not present in database
Track 4 not present in database
Track 5 not present in database
Track 6 not present in database
Track 7 not present in database
Track 8 not present in database
Track 9 not present in database
Track 10 not present in database
Track 11 not present in database
Track 12 not present in database
Track 13 not present in database
Track 14 not present in database
Track 15 not present in database
Track 16 not present in database
Track 17 not present in database
Track 18 not present in database
Track 19 not present in database
Track 20 not present in database
Track 21 not present in database

None of the tracks are present in the AccurateRip database

End of status report

_<span style="color:#ffffff">TRACKS</span>_


1. Nauchil sai Dobri (Dobri got accustomed)
2. Tri byulbyula peyat (Three nightingales are singing)
3. Pilentse pee (A little bird is singing)
4. Kalimanko, Denku muri (Hey, Kalimanku, Denku)
5. Loudo-mlado (A madcap)
6. Taz vecher ne mii veselo (I'm not happy tonight)
7. Oi, ela mi, libe le (Oh, come, my sweetheart)
8. Smilyana
9. Sedyankata i na razvala (The working-bee is at breaking)
10. Pozaspa li, yagodo (Have you fallen asleep, strawberry)
11. Karai, maicho (You can make whomever, mother)
12. Muri Stanku (Hey, Stanka)
13. Strati Angelaki doumashe (Strati Angelaki was saying)
14. Trendafilko, razgovorko (Hey, chatty little rose)
15. Snoshti sum minal, kouzoum Elenke (Last night I passed by, Elenka)
16. Yano, Yanke
17. Kanyat me, mamo (I've been invited to a wedding, mother)
18. Oi, Matse, Matse
19. Muri Rado (Hey, Rada)
20. Staninoto litse (Stana's face)
21. Poustono loudo i mlado (Oh that wild madcap)


Bulgarka Vocal Trio



<span style="color:#cc0000">_</span><span style="color:#ffffff">DOWNLOAD</span><span style="color:#cc0000">_</span>


Multiupload

Megaupload

Rapidshare


>>> Please, NO MIRRORS <<<