Subcategories

Trio Fischer - Schneiderhan - Mainardi play Brahms

Posted By: DentonW
Trio Fischer - Schneiderhan - Mainardi play Brahms

Trio Fischer - Schneiderhan - Mainardi: Brahms Piano Trios op. 8 & 87
EAC (FLAC, IMG+CUE, LOG) | Scans 600 dpi | 1CD, 287 MB (.rar 3% rec.) | FS and RS
Classical | Label: Amadeo 431347-2, Austria 1990 | CD 4 of Edition Wolfgang Schneiderhan



01. Piano Trio b major op 8 - 1 Allegro con brio [10:48]
02. Piano Trio b major op 8 - 2 Scherzo. Allegro molto [06:04]
03. Piano Trio b major op 8 - 3 Adagio [09:12]
04. Piano Trio b major op 8 - 4 Allegro [07:23]
05. Piano Trio c major op 87 - 1 Allegro [09:38]
06. Piano Trio c major op 87 - 2 Andante con moto [08:52]
07. Piano Trio c major op 87 - 3 Scherzo. Presto [04:59]
08. Piano Trio c major op 87 - 4 Finale. Allegro giocoso [06:11]

Recorded at the Bavarian Broadcasting studios, Munich, on 30th November 1953 (op 8) and 2nd December 1951 (op 87).

Exact Audio Copy V1.0 beta 2 from 29. April 2011

EAC extraction logfile from 8. August 2011, 8:37

Johannes Brahms / Edition Wolfgang Schneiderhan CD4

Used drive : ATAPI DVD A DH16A6S Adapter: 1 ID: 1

Read mode : Secure
Utilize accurate stream : Yes
Defeat audio cache : No
Make use of C2 pointers : Yes

Read offset correction : 6
Overread into Lead-In and Lead-Out : No
Fill up missing offset samples with silence : Yes
Delete leading and trailing silent blocks : No
Null samples used in CRC calculations : No
Used interface : Native Win32 interface for Win NT & 2000

Used output format : User Defined Encoder
Selected bitrate : 896 kBit/s
Quality : High
Add ID3 tag : No
Command line compressor : D:\Exact Audio Copy\FLAC\FLAC.EXE
Additional command line options : -5 -V -T "ARTIST=%artist%" -T "TITLE=%title%" -T "ALBUM=%albumtitle%" -T "DATE=%year%" -T "TRACKNUMBER=%tracknr%" -T "GENRE=%genre%" -T "COMMENT=%comment%" -T "BAND=%albuminterpret%" -T "COMPOSER=%composer%" %haslyrics%–ta


TOC of the extracted CD

Track | Start | Length | Start sector | End sector
––––––––––––––––––––––––––––-
1 | 0:00.33 | 10:48.25 | 33 | 48657
2 | 10:48.58 | 6:04.47 | 48658 | 76004
3 | 16:53.30 | 9:12.30 | 76005 | 117434
4 | 26:05.60 | 7:23.58 | 117435 | 150717
5 | 33:29.43 | 9:38.47 | 150718 | 194114
6 | 43:08.15 | 8:52.00 | 194115 | 234014
7 | 52:00.15 | 4:59.28 | 234015 | 256467
8 | 56:59.43 | 6:11.12 | 256468 | 284304


Range status and errors

Selected range

Filename D:\Uploads\Edwin Fischer\AMADEO431347\Edition Wolfgang Schneiderhan CD4.wav

Peak level 83.9 %
Extraction speed 4.7 X
Range quality 100.0 %
Copy CRC 789EA49A
Copy OK

No errors occurred


AccurateRip summary

Track 1 accurately ripped (confidence 1) [F611EDE7] (AR v1)
Track 2 accurately ripped (confidence 1) [261B8CF1] (AR v1)
Track 3 accurately ripped (confidence 1) [626753E3] (AR v1)
Track 4 accurately ripped (confidence 1) [8CCDDA4B] (AR v1)
Track 5 accurately ripped (confidence 1) [DE6458DC] (AR v1)
Track 6 accurately ripped (confidence 1) [A6D2DA04] (AR v1)
Track 7 accurately ripped (confidence 1) [6107D11F] (AR v1)
Track 8 accurately ripped (confidence 1) [82A2F752] (AR v1)

All tracks accurately ripped

End of status report

==== Log checksum E5A002B420711408114C5A7934971436B14FA736D12141A0800D69441B7F1AA8 ====


This CD is number 4 of the 6 CD boxset 'Edition Wolfgang Schneiderhan' which I could get separately about 20 years ago; I don't have the complete set. Each CD only had a simple cover sheet (front/back) which is already added to the CD rar-archives (together with scans of inlet and CD). For those who are, furthermore, interested in the accompanying Edition booklet (30 pages) which includes articles on Wolfgang Schneiderhahn (by Schneiderhan himself, Gottfried Kraus, Otto Strasser, Hans Weigel, and with some b/w photographs from the Schneiderhan private archives), I have made a separate scan [PDF in rar - 3% recovery - 27,3 MB]. But please note that this is in only.