Trombone Shorty - Parking Lot Symphony (2017) {Blue Note} [Proper]

Posted By: tiburon
Trombone Shorty - Parking Lot Symphony (2017) {Blue Note} [Proper]

Trombone Shorty - Parking Lot Symphony (2017) {Blue Note}
EAC 1.0b3 | FLAC tracks level 8 | Cue+Log+M3u | Full Scans 600dpi | 402MB + 5% Recovery
Genre: Jazz, Funk

On his fourth studio effort and first for Blue Note Records, 2017's Parking Lot Symphony, New Orleans singer, songwriter, and brass wizard Troy Andrews (aka Trombone Shorty) fully embraces the organic '70s-style R&B he’s heretofore only touched on. Ever since officially debuting in 2010 with Backatown, Andrews has moved ever closer to that '70s soul aesthetic with each subsequent album. Backatown even featured contributions from both Lenny Kravitz and legendary New Orleans pianist Allen Toussaint. In fact, his previous effort, 2013's Say That to Say This, had a similarly old-school bent courtesy of neo-soul master and co-producer Raphael Saadiq. But for Parking Lot Symphony, Andrews dives into the sound full-force, paired with producer Chris Seefried (Fitz & the Tantrums, Haley Reinhart, Andra Day) on a set of songs that bring to mind the earthy, vinyl-laden vibe of '70s artists like New Orleans own the Meters. Heralding this vintage approach are several well-chosen covers, like the Meters' 1974 Santana-style groover "It Ain't No Use," and Toussaint's New Orleans funk jammer "Here Come the Girls" (originally recorded in 1970 by Ernie K. Doe). Andrews channels new life into both tunes with his vibrant jazz- and brass-infused arrangements – ones that don't so much reimagine the originals as re-energize them with a live-in-the-studio vibe and a youthful zeal. Even his originals here, like the joyous, choir-backed title track and the yearning, organ-steeped ballad "No Good Time," find him working in the nuanced harmonic colors and hip-swaying lyricism of band's like Earth, Wind & Fire and Stevie Wonder. And yet it would be reductive to simply describe the album as "retro." Longtime fans will appreciate that Andrews hasn't abandoned his crossover, hip-hop-inflected sound, just integrated it deftly into songs like the buzz-bass heavy "Familiar" and minor key-tinged "Where It At?," tracks that nobody would think twice about hearing churn out of the car stereo in 1977. Also, as with past Trombone Shorty albums, he leaves plenty of room for enthusiastic, mid-song trombone and trumpet improvisations. Andrews even ambitiously bookends the album with two New Orleans funeral parade marches, showcasing his bluesy phrasing and clarion brass tone. Ultimately, Parking Lot Symphony is one of Trombone Shorty's most balanced productions, equal parts New Orleans R&B sophistication and loose, block party fun.
Track List
01. Laveau Dirge no. 1 2:09
02. It Ain't No Use 4,33
03. Parking Lot Symphony 3:47
04. Dirty Water 3:47
05. Here Come the Girls 4:00
06. Tripped Out Slim 2:19
07. Familiar 3:19
08. No Good Time 4:10
09. Where It At? 3:26
10. Fanfare 3:12
11. Like a Dog 3:17
12. Laveau Dirge Finale 4:44


musicians
Troy Andrews - trombone, trumpet, tuba, vocals, guitar, piano, Rhodes, Wurtlizer, Hammond B-3, drums, percussion, snare, tom-toms, glockenspiel, vibraphone
Dan Oestereicher - baritone saxophone
BK Jackson - tenor saxophone
Pete Murano - electric guitar
Tony Hall - bass
Joey Peebles - drums
Chris Seefried - glockenspiel, mellotron, sitar
Leo Nocentelli - acoustic guitar
Ramon Islas - conga, tambourine
Paul Cartwright - viola, violin
Ivan Neville - piano
Juan Covarraubias - synthesizer
Glenn Hall - Wurlitzer
Tracci Lee, Ashley Doucett, Sabrina Hayes, India Favorite, Faith Mack, Chrishira Perrier, Remonda Davis, Raion Ramsey, Ashley Watson, Lonel Simmons - choir

Produced by Chris Seefried


Exact Audio Copy V1.0 beta 3 from 29. August 2011

EAC extraction logfile from 5. May 2017, 21:53

Trombone Shorty / Parking Lot Symphony

Used drive : ASUS DRW-24F1ST a Adapter: 0 ID: 0

Read mode : Secure
Utilize accurate stream : Yes
Defeat audio cache : Yes
Make use of C2 pointers : No

Read offset correction : 6
Overread into Lead-In and Lead-Out : No
Fill up missing offset samples with silence : Yes
Delete leading and trailing silent blocks : No
Null samples used in CRC calculations : Yes
Used interface : Native Win32 interface for Win NT & 2000
Gap handling : Appended to previous track

Used output format : User Defined Encoder
Selected bitrate : 128 kBit/s
Quality : High
Add ID3 tag : No
Command line compressor : C:\Program Files (x86)\Exact Audio Copy\FLAC\FLAC.EXE
Additional command line options : -8 -V -T "ARTIST=%artist%" -T "TITLE=%title%" -T "ALBUM=%albumtitle%" -T "DATE=%year%" -T "TRACKNUMBER=%tracknr%" -T "TOTALTRACKS=%numtracks%" -T "GENRE=%genre%" -T "ALBUMARTIST=%albumartist%" -T "ALBUM ARTIST=%albumartist%" -T "COMMENT=EAC Secure Mode, Test & Copy, AccurateRip, FLAC -8" %source%


TOC of the extracted CD

Track | Start | Length | Start sector | End sector
––––––––––––––––––––––––––––-
1 | 0:00.00 | 2:09.40 | 0 | 9714
2 | 2:09.40 | 4:33.56 | 9715 | 30245
3 | 6:43.21 | 3:47.11 | 30246 | 47281
4 | 10:30.32 | 3:47.29 | 47282 | 64335
5 | 14:17.61 | 4:00.48 | 64336 | 82383
6 | 18:18.34 | 2:19.08 | 82384 | 92816
7 | 20:37.42 | 3:19.70 | 92817 | 107811
8 | 23:57.37 | 4:10.23 | 107812 | 126584
9 | 28:07.60 | 3:26.04 | 126585 | 142038
10 | 31:33.64 | 3:12.30 | 142039 | 156468
11 | 34:46.19 | 3:17.66 | 156469 | 171309
12 | 38:04.10 | 4:44.33 | 171310 | 192642


Track 1

Filename K:\EAC\01 - Laveau Dirge No. 1.wav

Pre-gap length 0:00:02.00

Peak level 78.0 %
Extraction speed 3.7 X
Track quality 100.0 %
Test CRC D5719D59
Copy CRC D5719D59
Track not present in AccurateRip database
Copy OK

Track 2

Filename K:\EAC\02 - It Ain't No Use.wav

Peak level 100.0 %
Extraction speed 4.7 X
Track quality 100.0 %
Test CRC 0726A434
Copy CRC 0726A434
Track not present in AccurateRip database
Copy OK

Track 3

Filename K:\EAC\03 - Parking Lot Symphony.wav

Pre-gap length 0:00:00.13

Peak level 100.0 %
Extraction speed 5.0 X
Track quality 100.0 %
Test CRC 171BF6DF
Copy CRC 171BF6DF
Track not present in AccurateRip database
Copy OK

Track 4

Filename K:\EAC\04 - Dirty Water.wav

Peak level 100.0 %
Extraction speed 4.7 X
Track quality 99.9 %
Test CRC A1836E38
Copy CRC A1836E38
Track not present in AccurateRip database
Copy OK

Track 5

Filename K:\EAC\05 - Here Come The Girls.wav

Peak level 99.8 %
Extraction speed 5.8 X
Track quality 100.0 %
Test CRC 7F36C20B
Copy CRC 7F36C20B
Track not present in AccurateRip database
Copy OK

Track 6

Filename K:\EAC\06 - Tripped Out Slim.wav

Peak level 100.0 %
Extraction speed 4.5 X
Track quality 99.9 %
Test CRC ADEA5B40
Copy CRC ADEA5B40
Track not present in AccurateRip database
Copy OK

Track 7

Filename K:\EAC\07 - Familiar.wav

Peak level 100.0 %
Extraction speed 6.1 X
Track quality 100.0 %
Test CRC ADB28D32
Copy CRC ADB28D32
Track not present in AccurateRip database
Copy OK

Track 8

Filename K:\EAC\08 - No Good Time.wav

Pre-gap length 0:00:00.52

Peak level 100.0 %
Extraction speed 5.8 X
Track quality 99.9 %
Test CRC 5557C5F6
Copy CRC 5557C5F6
Track not present in AccurateRip database
Copy OK

Track 9

Filename K:\EAC\09 - Where It At.wav

Peak level 100.0 %
Extraction speed 6.6 X
Track quality 100.0 %
Test CRC 6A5F54C1
Copy CRC 6A5F54C1
Track not present in AccurateRip database
Copy OK

Track 10

Filename K:\EAC\10 - Fanfare.wav

Peak level 100.0 %
Extraction speed 6.7 X
Track quality 100.0 %
Test CRC CAC3525F
Copy CRC CAC3525F
Track not present in AccurateRip database
Copy OK

Track 11

Filename K:\EAC\11 - Like A Dog.wav

Peak level 100.0 %
Extraction speed 6.0 X
Track quality 99.9 %
Test CRC B17080B4
Copy CRC B17080B4
Track not present in AccurateRip database
Copy OK

Track 12

Filename K:\EAC\12 - Laveau Dirge Finale.wav

Peak level 99.0 %
Extraction speed 7.6 X
Track quality 100.0 %
Test CRC 6D5D8F8C
Copy CRC 6D5D8F8C
Track not present in AccurateRip database
Copy OK


None of the tracks are present in the AccurateRip database

No errors occurred

End of status report

==== Log checksum A3B1781A5E1FDEE50C29186443C0CAF28177F8C1AAB9B8CC9332058D10E3B50A ====


––––––––––––––––––––––––––––––––––––––––
Analyzed: Trombone Shorty / Parking Lot Symphony
––––––––––––––––––––––––––––––––––––––––

DR Peak RMS Duration Track
––––––––––––––––––––––––––––––––––––––––
DR13 -2.15 dB -18.59 dB 2:10 01-Laveau Dirge No. 1
DR7 0.00 dB -9.72 dB 4:34 02-It Ain't No Use
DR6 0.00 dB -8.59 dB 3:47 03-Parking Lot Symphony
DR5 0.00 dB -6.80 dB 3:47 04-Dirty Water
DR6 -0.01 dB -7.66 dB 4:01 05-Here Come The Girls
DR8 0.00 dB -9.93 dB 2:19 06-Tripped Out Slim
DR7 0.00 dB -8.91 dB 3:20 07-Familiar
DR6 0.00 dB -8.03 dB 4:10 08-No Good Time
DR6 0.00 dB -7.36 dB 3:26 09-Where It At?
DR6 0.00 dB -8.29 dB 3:12 10-Fanfare
DR7 0.00 dB -8.48 dB 3:18 11-Like A Dog
DR6 -0.08 dB -9.47 dB 4:44 12-Laveau Dirge Finale
––––––––––––––––––––––––––––––––––––––––

Number of tracks: 12
Official DR value: DR7

Samplerate: 44100 Hz
Channels: 2
Bits per sample: 16
Bitrate: 899 kbps
Codec: FLAC
================================================================================

Trombone Shorty - Parking Lot Symphony (2017) {Blue Note} [Proper]
Trombone Shorty - Parking Lot Symphony (2017) {Blue Note} [Proper]
Trombone Shorty - Parking Lot Symphony (2017) {Blue Note} [Proper]


Thanks to the original ripper