Subcategories

Troya - Point of Eruption (1976) [Reissue 2001]

Posted By: gribovar
Troya - Point of Eruption (1976) [Reissue 2001]

Troya - Point of Eruption (1976) [Reissue 2001]
EAC Rip | FLAC (tracks+.cue+log) - 179 MB | MP3 CBR 320 kbps (LAME 3.93) - 77 MB | Covers - 48 MB
Genre: Progressive Rock | RAR 3% Rec. | Label: Garden of Delights (CD 049)

Great symphonic rock featuring mellotron and flute, excellent keyboard playing and a fine guitar, no weak passages. Three of the six tracks are instrumentals. In his book "Cosmic dreams at play" (Glasgow 1996), the Norwegian Dag Erik Asbjørnsen lists "Point of eruption" among the ten best Krautrock LPs of all time, and quite rightly so. The only drawback is its short playing time. It’s a pity that this is the only work the band from Werne an der Lippe, at the north-eastern edge of the Ruhr Area, has ever released. With 28-page coloured booklet.

Tracklist:
01. She
02. Battle Rock
03. Chromatik
04. Festival
05. Sinclair
06. Choke

Total time: 32:49

Exact Audio Copy V1.0 beta 3 from 29. August 2011

EAC extraction logfile from 22. August 2015, 22:32

Troya / Point of Eruption

Used drive : _NEC DVD_RW ND-3540A Adapter: 1 ID: 0

Read mode : Secure
Utilize accurate stream : Yes
Defeat audio cache : Yes
Make use of C2 pointers : No

Read offset correction : 48
Overread into Lead-In and Lead-Out : No
Fill up missing offset samples with silence : Yes
Delete leading and trailing silent blocks : No
Null samples used in CRC calculations : Yes
Used interface : Native Win32 interface for Win NT & 2000
Gap handling : Appended to previous track

Used output format : User Defined Encoder
Selected bitrate : 1024 kBit/s
Quality : High
Add ID3 tag : Yes
Command line compressor : C:\Program Files (x86)\Exact Audio Copy\FLAC\FLAC.EXE
Additional command line options : -6 -V -T "ARTIST=%artist%" -T "TITLE=%title%" -T "ALBUM=%albumtitle%" -T "DATE=%year%" -T "TRACKNUMBER=%tracknr%" -T "GENRE=%genre%" -T "COMMENT=%comment%" %hascover%–picture="%coverfile%"%hascover% %source% -o %dest%


TOC of the extracted CD

Track | Start | Length | Start sector | End sector
––––––––––––––––––––––––––––-
1 | 0:00.00 | 5:49.20 | 0 | 26194
2 | 5:49.20 | 8:01.30 | 26195 | 62299
3 | 13:50.50 | 4:09.72 | 62300 | 81046
4 | 18:00.47 | 3:50.18 | 81047 | 98314
5 | 21:50.65 | 5:00.27 | 98315 | 120841
6 | 26:51.17 | 5:57.43 | 120842 | 147659


Track 1

Filename F:\Music\olaf_alien\Troya - Point Of Eruption (1976, Forderturm - 2001, Garden Of Delights)\01 - She.wav

Pre-gap length 0:00:02.00

Peak level 100.0 %
Extraction speed 4.3 X
Track quality 99.9 %
Test CRC 9D5DF598
Copy CRC 9D5DF598
Accurately ripped (confidence 3) [ECC03437] (AR v2)
Copy OK

Track 2

Filename F:\Music\olaf_alien\Troya - Point Of Eruption (1976, Forderturm - 2001, Garden Of Delights)\02 - Battle Rock.wav

Pre-gap length 0:00:04.58

Peak level 99.8 %
Extraction speed 5.3 X
Track quality 99.9 %
Test CRC 60D0A88B
Copy CRC 60D0A88B
Accurately ripped (confidence 3) [15C10215] (AR v2)
Copy OK

Track 3

Filename F:\Music\olaf_alien\Troya - Point Of Eruption (1976, Forderturm - 2001, Garden Of Delights)\03 - Chromatik.wav

Pre-gap length 0:00:05.18

Peak level 99.8 %
Extraction speed 5.0 X
Track quality 99.9 %
Test CRC 3186AA06
Copy CRC 3186AA06
Accurately ripped (confidence 3) [2F00AA1D] (AR v2)
Copy OK

Track 4

Filename F:\Music\olaf_alien\Troya - Point Of Eruption (1976, Forderturm - 2001, Garden Of Delights)\04 - Festival.wav

Pre-gap length 0:00:05.27

Peak level 99.8 %
Extraction speed 6.2 X
Track quality 100.0 %
Test CRC 81B22386
Copy CRC 81B22386
Accurately ripped (confidence 3) [2D66E760] (AR v2)
Copy OK

Track 5

Filename F:\Music\olaf_alien\Troya - Point Of Eruption (1976, Forderturm - 2001, Garden Of Delights)\05 - Sinclair.wav

Pre-gap length 0:00:04.48

Peak level 99.8 %
Extraction speed 6.7 X
Track quality 100.0 %
Test CRC 26C98F61
Copy CRC 26C98F61
Accurately ripped (confidence 3) [60FC3B56] (AR v2)
Copy OK

Track 6

Filename F:\Music\olaf_alien\Troya - Point Of Eruption (1976, Forderturm - 2001, Garden Of Delights)\06 - Choke.wav

Pre-gap length 0:00:04.52

Peak level 99.8 %
Extraction speed 6.4 X
Track quality 99.9 %
Test CRC 225877FC
Copy CRC 225877FC
Accurately ripped (confidence 3) [8595234A] (AR v2)
Copy OK


All tracks accurately ripped

No errors occurred

End of status report

==== Log checksum A7B584356ED04C79CF0B4EA6A26D4B310D1A435BD713A392CE12BC9999CB728C ====

[CUETools log; Date: 17.11.2019 20:58:52; Version: 2.1.4]
[CTDB TOCID: SNl7zGavLDBW_PYy5TRTbM2VxGU-] found.
Track | CTDB Status
1 | (10/10) Accurately ripped
2 | (10/10) Accurately ripped
3 | (10/10) Accurately ripped
4 | (10/10) Accurately ripped
5 | (10/10) Accurately ripped
6 | (10/10) Accurately ripped
[AccurateRip ID: 00082f27-002aef1e-3507b006] found.
Track [ CRC | V2 ] Status
01 [19063588|ecc03437] (2+6/8) Accurately ripped
02 [5aa6a071|15c10215] (2+6/8) Accurately ripped
03 [b6de599c|2f00aa1d] (2+6/8) Accurately ripped
04 [28f91d07|2d66e760] (2+6/8) Accurately ripped
05 [4f8f694f|60fc3b56] (2+6/8) Accurately ripped
06 [3d1773dd|8595234a] (2+6/8) Accurately ripped

Track Peak [ CRC32 ] [W/O NULL] [ LOG ]
– 100,0 [116B2EDA] [B4EBA548]
01 100,0 [9D5DF598] [3F4AA8BD] CRC32
02 99,8 [60D0A88B] [7AC580EB] CRC32
03 99,8 [3186AA06] [7C66F36E] CRC32
04 99,8 [81B22386] [CE4003C3] CRC32
05 99,8 [26C98F61] [15BD2769] CRC32
06 99,8 [225877FC] [B839EF5B] CRC32

Thanks to olaf_alien