Subcategories

Tsuyoshi Yamamoto Trio - Autumn In Seattle (2001) {FIM XRCD2}

Posted By: tiburon
Tsuyoshi Yamamoto Trio - Autumn In Seattle (2001) {FIM XRCD2}

Tsuyoshi Yamamoto Trio - Autumn In Seattle (2001) {FIM XRCD2}
EAC 0.99pb4 | FLAC Image level 8 | Cue+Log | Full Scans 300dpi | 397MB + 5% Recovery
Genre: Jazz, Post-Bop
Tsuyoshi Yamamoto Trio - Autumn In Seattle (2001) {FIM XRCD2}

This album features the artistry of one if Japan's top pianist's. When asked about the title of this album, Tsuyoshi Yamamoto had this to say: "I wrote this piece especially for this album and dedicated it to Winston Ma, the producer. I asked Winston to name the song. After hearing the song, Winston said he was reminded of the emotions he felt when he first saw the skyline of Seattle during an Autumn visit to the city some years go." Hence the name. Let Tsuyoshi lead you to a warm and romantic dreamland through his enchanting piano performances.
Track List
01 The Way We Were 5:29
02 Raindrops Keep Falling On My Head 3:46
03 Autumn In Seattle 5:47
04 Misty 9:22
05 Love Is A Many Splendored Thing 5:59
06 Theme From Spartacus 6:36
07 No Problem 5:46
08 As Time Goes By 5:30
09 Sound Of Music Medley 9:30
10 A Time For Us 6:33

musicians
Tsuyoshi Yamamoto - piano
Ken Kaneko - bass
Toshio Osumi - drums


Exact Audio Copy V0.99 prebeta 4 from 23. January 2008

EAC extraction logfile from 25. July 2009, 13:42

Tsuyoshi Yamamoto Trio / Autumn In Seattle

Used drive : HL-DT-STDVDRAM GH20NS10 Adapter: 2 ID: 1

Read mode : Secure
Utilize accurate stream : Yes
Defeat audio cache : Yes
Make use of C2 pointers : No

Read offset correction : 667
Overread into Lead-In and Lead-Out : No
Fill up missing offset samples with silence : Yes
Delete leading and trailing silent blocks : No
Null samples used in CRC calculations : Yes
Used interface : Installed external ASPI interface

Used output format : Internal WAV Routines
Sample format : 44.100 Hz; 16 Bit; Stereo


TOC of the extracted CD

Track | Start | Length | Start sector | End sector
––––––––––––––––––––––––––––-
1 | 0:00.00 | 5:31.50 | 0 | 24874
2 | 5:31.50 | 3:49.03 | 24875 | 42052
3 | 9:20.53 | 5:49.72 | 42053 | 68299
4 | 15:10.50 | 9:25.00 | 68300 | 110674
5 | 24:35.50 | 6:02.05 | 110675 | 137829
6 | 30:37.55 | 6:38.70 | 137830 | 167749
7 | 37:16.50 | 5:49.00 | 167750 | 193924
8 | 43:05.50 | 5:33.03 | 193925 | 218902
9 | 48:38.53 | 9:33.05 | 218903 | 261882
10 | 58:11.58 | 6:33.17 | 261883 | 291374


Range status and errors

Selected range

Filename Z:\NetLab\Tsuyoshi Yamamoto Trio - 2001 - Autumn In Seattle {FIM XRCD2 043}\Tsuyoshi Yamamoto Trio - Autumn In Seattle.wav

Peak level 100.0 %
Range quality 100.0 %
Test CRC 8DF0CAD5
Copy CRC 8DF0CAD5
Copy OK

No errors occurred


AccurateRip summary

Track 1 accurately ripped (confidence 5) [E091F242]
Track 2 accurately ripped (confidence 4) [1D9BD595]
Track 3 accurately ripped (confidence 4) [BB651201]
Track 4 accurately ripped (confidence 4) [0F67302D]
Track 5 accurately ripped (confidence 4) [056C8A35]
Track 6 accurately ripped (confidence 4) [D885B803]
Track 7 accurately ripped (confidence 4) [AC28D1B2]
Track 8 accurately ripped (confidence 4) [5048B525]
Track 9 accurately ripped (confidence 4) [1A9B3080]
Track 10 accurately ripped (confidence 5) [04D01460]

All tracks accurately ripped

End of status report


––––––––––––––––––––––––––––––––––––––––
Analyzed: Tsuyoshi Yamamoto Trio / Autumn In Seattle
––––––––––––––––––––––––––––––––––––––––

DR Peak RMS Duration Track
––––––––––––––––––––––––––––––––––––––––
DR14 0.00 dB -19.01 dB 5:32 01-The Way We Were (Marvin Hamlisch)
DR14 0.00 dB -17.26 dB 3:49 02-Raindrops Keep Falling On My Head (Burt Bacharach)
DR15 0.00 dB -19.28 dB 5:50 03-Autumn In Seattle
DR14 0.00 dB -16.24 dB 9:25 04-Misty (Erroll Garner)
DR14 0.00 dB -19.27 dB 6:02 05-Love Is A Many Splendored Thing (Sammy Fain)
DR14 -0.61 dB -18.06 dB 6:39 06-Theme From Spartacus (A.Khachaturian)
DR14 0.00 dB -16.98 dB 5:49 07-No Problem (Duke Jordan)
DR14 0.00 dB -18.93 dB 5:33 08-As Time Goes By (Herman Hupfeld)
DR14 -0.13 dB -17.39 dB 9:33 09-Sound Of Music Medley (Richard Rodgers)
DR13 0.00 dB -19.78 dB 6:33 10-A Time For Us (Nino Rota)
––––––––––––––––––––––––––––––––––––––––

Number of tracks: 10
Official DR value: DR14

Samplerate: 44100 Hz
Channels: 2
Bits per sample: 16
Bitrate: 799 kbps
Codec: FLAC
================================================================================

Tsuyoshi Yamamoto Trio - Autumn In Seattle (2001) {FIM XRCD2}
Tsuyoshi Yamamoto Trio - Autumn In Seattle (2001) {FIM XRCD2}
Tsuyoshi Yamamoto Trio - Autumn In Seattle (2001) {FIM XRCD2}


Thanks to the original ripper