Turbid North - Orogeny (2011)

Posted By: Necromandus
Turbid North - Orogeny (2011)

Turbid North - Orogeny (2011)
EAC Rip | FLAC, IMG+CUE+LOG | 570 MB | MP3 CBR 320 Kbps | 160 MB | Complete HQ Scans | PNG -> 70 MB
Death/Doom | Label: Ironclad Recordings | RAR 3% Rec. | IcerBox.com

Turbid North is a band mostly dominated the Alaskan metal scene with their thrash-heavy brand of metal, supposedly after a successful tour with Drowning Pool they were advised to come more down south in order to get exposure. And where else, but Texas itself which led to my exposure to the band. I was given a copy of “Under the Eight” which had some solid riffs, but lacked a lot of originality. Afterword however members started fleeing back to Alaska, and the group started to bring in more Texan members which turned out to be the fire they needed to really start getting attention.

The style on this album is vastly different from the last. The group refers to it as "Alaskan Mountain Metal" which basically sounds like the instrumentation is more along the lines of melodic death metal, while the new vocalist has a strong death metal growl, while also ranging into a high black metal like shriek. The band occasionally veers off into more subgenres throughout (sludge, and post-metal for examples), but manages to keep it within their new melodic death metal meets sludge style. This new style has managed to be the smartest move for the band offering atmosphere and overall just a much more interesting listen. For those who are worried about the almighty riffs there are still plenty and seems to be stronger then it was on the last record.

The intro song “Wolves” is a nice hard smack to the eardrum and almost instantly your in for one heavy ride. The album seems to be keeping a pretty heavy, fast, but definitely enjoyable formula right up until the track “Stormblast” slowing things down to an almost Mastodon-esque style, and gives a nice change of pace. Before heading back to one of the most heavy tracks “Between The Glacier and The Sea”, before leading to the epic, atmospheric tracks “Kodiac pt. 1 & 2” which shows off the band's talents quite impressively. The real problem with this record is the final track “Floating the Ionosphere” which while blends a lot of subgenres into a nice blend, seems to be long winded and really seems to slow down then start right back up, giving a heavy sense of “is it over yet?”.

Overall this is a heavily promising release from an upcoming Texas metal act that values riffs and solos over breakdowns. Nice use of atmosphere, top notch production, and a diverse range of styles manages to make this one of the more interesting releases from an underground band I've heard in a long time. While some improvement would be nice, they have come far enough to garner plenty of attention.
Tracklist :

1. Wolves - 4:38
2. Rift - 5:10
3. Bereavement - 6:39
4. The Hunter - 8:47
5. Stormblast - 8:48
6. Between The Glacier And The Sea - 6:07
7. Kodiak (Part I) - 3:07
8. Kodiak (Part II) - 7:13
9. Orogeny - 6:49
10. Floating The Ionosphere - 12:30

Exact Audio Copy V1.3 from 2. September 2016

EAC extraction logfile from 24. January 2017, 16:19

Turbid North / Orogeny

Used drive : TSSTcorpCDDVDW SH-S223F Adapter: 1 ID: 0

Read mode : Secure
Utilize accurate stream : Yes
Defeat audio cache : Yes
Make use of C2 pointers : No

Read offset correction : 6
Overread into Lead-In and Lead-Out : No
Fill up missing offset samples with silence : Yes
Delete leading and trailing silent blocks : No
Null samples used in CRC calculations : Yes
Used interface : Native Win32 interface for Win NT & 2000

Used output format : Internal WAV Routines
Sample format : 44.100 Hz; 16 Bit; Stereo


TOC of the extracted CD

Track | Start | Length | Start sector | End sector
––––––––––––––––––––––––––––-
1 | 0:00.00 | 4:37.52 | 0 | 20826
2 | 4:37.52 | 5:10.32 | 20827 | 44108
3 | 9:48.09 | 6:38.49 | 44109 | 74007
4 | 16:26.58 | 8:46.65 | 74008 | 113522
5 | 25:13.48 | 8:48.22 | 113523 | 153144
6 | 34:01.70 | 6:06.39 | 153145 | 180633
7 | 40:08.34 | 3:07.31 | 180634 | 194689
8 | 43:15.65 | 7:13.16 | 194690 | 227180
9 | 50:29.06 | 6:48.72 | 227181 | 257852
10 | 57:18.03 | 12:29.55 | 257853 | 314082


Range status and errors

Selected range

Filename Z:\by Necromandus\Turbid North - Orogeny.wav

Peak level 100.0 %
Extraction speed 7.8 X
Range quality 100.0 %
Test CRC 602C6D73
Copy CRC 602C6D73
Copy OK

No errors occurred


AccurateRip summary

Track 1 cannot be verified as accurate (confidence 4) [8A76F6E2], AccurateRip returned [58FBD478] (AR v2)
Track 2 cannot be verified as accurate (confidence 4) [B6B72164], AccurateRip returned [FF412CED] (AR v2)
Track 3 cannot be verified as accurate (confidence 4) [5E1750CC], AccurateRip returned [D2567AF9] (AR v2)
Track 4 cannot be verified as accurate (confidence 4) [F97967F8], AccurateRip returned [59FDB56D] (AR v2)
Track 5 cannot be verified as accurate (confidence 4) [2AEBED1B], AccurateRip returned [57CFDFF4] (AR v2)
Track 6 cannot be verified as accurate (confidence 4) [A664466A], AccurateRip returned [BB367C8D] (AR v2)
Track 7 cannot be verified as accurate (confidence 4) [010917B6], AccurateRip returned [FB84C6A6] (AR v2)
Track 8 cannot be verified as accurate (confidence 4) [4378F49B], AccurateRip returned [EECE2395] (AR v2)
Track 9 cannot be verified as accurate (confidence 4) [BEA9CDD3], AccurateRip returned [EDA5DF3E] (AR v2)
Track 10 cannot be verified as accurate (confidence 3) [5BA5ABDC], AccurateRip returned [3C018D7E] (AR v2)

No tracks could be verified as accurate
You may have a different pressing from the one(s) in the database

End of status report

–– CUETools DB Plugin V2.1.6

[CTDB TOCID: Vxa2uHru5rU2Wgt.1FDXKQRqXCk-] found
Submit result: Vxa2uHru5rU2Wgt.1FDXKQRqXCk- has been submitted
Track | CTDB Status
1 | (2/2) Accurately ripped
2 | (2/2) Accurately ripped
3 | (2/2) Differs in 13 samples @00:00:00-00:00:01,06:38:48-06:38:49
4 | (2/2) Differs in 250 samples @00:00:00
5 | (2/2) Differs in 53 samples @00:00:00,08:48:21-08:48:22
6 | (2/2) Differs in 633 samples @00:00:00,03:22:35,06:06:36-06:06:37
7 | (2/2) Accurately ripped
8 | (2/2) Accurately ripped
9 | (2/2) Differs in 149 samples @00:00:00,06:48:71
10 | (2/2) Accurately ripped
If you are sure that your rip contains errors, you can use CUETools to repair it.


==== Log checksum 98DCC0CF6B91A399B3CD6CAD078F7BF0632CF8B4889358E52E78B318D090B41F ====