Subcategories

Joaquin Turina - Piano Music, Vol. 9 (Maso) - Rincones sevillanos, Por las calles de Sevilla, Contemplacion

Posted By: tapaz9
Joaquin Turina - Piano Music, Vol. 9 (Maso) - Rincones sevillanos, Por las calles de Sevilla, Contemplacion

Joaquin Turina - Piano Music, Vol. 9 (Maso) - Rincones sevillanos, Por las calles de Sevilla, Contemplacion
Classical | EAC: FLAC+Cue+Log | 1 Cd, Covers + Booklet | 205 Mb
Date: 2013

Jordi Masó’s critically acclaimed survey of Turina’s complete piano music continues to unearth exciting discoveries. Turina’s gift for evocative writing is explored in the early and little-known Coins de Séville which fuses Andalusían folk music with French impressionism to remarkable effect. The virtuosic La leyenda de la Giralda evokes Seville Cathedral’s bell-tower and symbol of the city in four vivid episodes. The streets, sounds, and rhythms of Turina’s native city infuse much of his music and in Por las calles de Sevilla and his final work, Desde mi terraza, their lure is felt with a fierce intensity.
Tracks:

01. Rincones sevillanos, Op. 5 - I. Noche de verano en la azotea [0:04:06.54]
02. II. Ronda de ninos [0:03:14.46]
03. III. Danza de seises en la Catedral [0:04:12.34]
04. IV. A los toros! [0:03:00.19]
05. Le leyenda de la Giralda, Op. 40 [0:12:46.30]
06. Por las calles de Sevilla, Op. 96 - I. Reflejos de la torre [0:03:54.74]
07. II. Ante la Virgen de la Merced [0:05:26.40]
08. III. La calle de las Sierpes [0:01:40.40]
09. Contemplacion, Op. 99 - I. Ante La Anunciacion de Fra Angelico [0:04:30.53]
10. II. Ante La Dama de Elche [0:03:32.25]
11. III. Ante Las Lanzas de Velazquez [0:05:21.61]
12. Desde mi terraza, Op. 104 [0:04:29.22]
13. I. A la sombra del mucharabieh [0:02:38.28]
14. II. Armonias de la ciudad [0:02:32.67]


Exact Audio Copy V1.0 beta 3 from 29. August 2011

EAC extraction logfile from 25. July 2013, 0:09

Joaquin Turina / Piano Music, Vol. 9 (Maso) - Rincones sevillanos, Por las calles de Sevilla, Contemplacion

Used drive : TSSTcorpCDDVDW SH-S223C Adapter: 2 ID: 1

Read mode : Secure
Utilize accurate stream : Yes
Defeat audio cache : Yes
Make use of C2 pointers : No

Read offset correction : 697
Overread into Lead-In and Lead-Out : No
Fill up missing offset samples with silence : Yes
Delete leading and trailing silent blocks : No
Null samples used in CRC calculations : Yes
Used interface : Native Win32 interface for Win NT & 2000

Used output format : User Defined Encoder
Selected bitrate : 896 kBit/s
Quality : High
Add ID3 tag : No
Command line compressor : C:\Program Files (x86)\Exact Audio Copy\FLAC\FLAC.EXE
Additional command line options : -V -0 -T "COMMENT=Ripped by Tapaz9" -T "artist=%artist%" -T "title=%title%" -T "album=%albumtitle%" -T "date=%year%" -T "tracknumber=%tracknr%" -T "genre=%genre%" %source%


TOC of the extracted CD

Track | Start | Length | Start sector | End sector
––––––––––––––––––––––––––––-
1 | 0:00.00 | 4:06.54 | 0 | 18503
2 | 4:06.54 | 3:14.46 | 18504 | 33099
3 | 7:21.25 | 4:12.34 | 33100 | 52033
4 | 11:33.59 | 3:00.19 | 52034 | 65552
5 | 14:34.03 | 12:46.30 | 65553 | 123032
6 | 27:20.33 | 3:54.74 | 123033 | 140656
7 | 31:15.32 | 5:26.40 | 140657 | 165146
8 | 36:41.72 | 1:40.40 | 165147 | 172686
9 | 38:22.37 | 4:30.53 | 172687 | 192989
10 | 42:53.15 | 3:32.25 | 192990 | 208914
11 | 46:25.40 | 5:21.61 | 208915 | 233050
12 | 51:47.26 | 4:29.22 | 233051 | 253247
13 | 56:16.48 | 2:38.28 | 253248 | 265125
14 | 58:55.01 | 2:32.67 | 265126 | 276592


Range status and errors

Selected range

Filename F:\Musique\Turina, Joaquin\Turina_PianoMusicVol9_Maso\Joaquin Turina - Piano Music, Vol. 9 (Maso).wav

Peak level 98.9 %
Extraction speed 14.0 X
Range quality 100.0 %
Copy CRC 88F8E50A
Copy OK

No errors occurred

End of status report

==== Log checksum C9C5303A4980AE79E6933EE05321366AE1EA2868959002D22BEF99B7C516154E ====

No Mirrors and Torrent-uploads Please

For more classical music check out My Avax blog