Turisas - Turisas2013 (2013) [Limited Edition]

Posted By: hill0
Turisas - Turisas2013 (2013) [Limited Edition]

Turisas - Turisas2013 (2013)
EAC Rip | FLAC (tracks & cue & log) | 353 MB | MP3 CBR 320 kbps | 148 MB | Scans | 41:46
Genre: Epic Folk / Viking Metal | Country: Finland | Label: Century Media Records Ltd. | 9983188

Turisas - folk / viking metal band from Finland. Turisas name came from the name of the god of war in the epic Kalevala Tursas (or one of Odin's Rune - Thurisaz - Hammer of Thor). Some critics call the style in which the band plays, Battle metal - the title of the first album.Music band Turisas was founded in 1997 by Mathias Nyugardom (vocals) and Jussi Wikström (guitar). The first full-length album was released in 2004 on Century Media, and it was called "Battle Metal". Guitarist Georg Laakso, who played on this album, in 2005, received a spinal cord injury in a car accident and was forced to leave the music. Replacing him has never been found, and since then the group is only one guitarist.



Turisas - Turisas2013 (2013) [Limited Edition]


Tracklist:

01. For Your Own Good
02. Ten More Miles
03. Piece By Piece
04. Into the Free
05. Run Bhang-Eater, Run!
06. Greek Fire
07. The Days Passed
08. No Good Story Ever Starts With Drinking Tea
09. We Ride Together

xact Audio Copy V1.0 beta 3 from 29. August 2011

EAC extraction logfile from 6. February 2015, 19:25

Turisas / Turisas 2013 (Limited Edition)

Used drive : HP DVD Writer 1170d Adapter: 0 ID: 0

Read mode : Secure
Utilize accurate stream : Yes
Defeat audio cache : Yes
Make use of C2 pointers : No

Read offset correction : 6
Overread into Lead-In and Lead-Out : No
Fill up missing offset samples with silence : Yes
Delete leading and trailing silent blocks : No
Null samples used in CRC calculations : Yes
Used interface : Native Win32 interface for Win NT & 2000

Used output format : User Defined Encoder
Selected bitrate : 768 kBit/s
Quality : High
Add ID3 tag : No
Command line compressor : C:\Program Files (x86)\Exact Audio Copy\FLAC\FLAC.EXE
Additional command line options : -V -8 -T "Date=%year%" -T "Genre=%genre%" -T"COMMENT=Ripped by Ungern666" -8 -V %source%

TOC of the extracted CD

Track | Start | Length | Start sector | End sector
––––––––––––––––––––––––––––-
1 | 0:00.00 | 4:32.10 | 0 | 20409
2 | 4:32.10 | 4:16.24 | 20410 | 39633
3 | 8:48.34 | 5:38.68 | 39634 | 65051
4 | 14:27.27 | 3:49.47 | 65052 | 82273
5 | 18:16.74 | 4:40.62 | 82274 | 103335
6 | 22:57.61 | 4:50.57 | 103336 | 125142
7 | 27:48.43 | 4:33.41 | 125143 | 145658
8 | 32:22.09 | 2:50.56 | 145659 | 158464
9 | 35:12.65 | 6:33.20 | 158465 | 187959

Range status and errors

Selected range

Filename C:\EAC\Ungern666\Turisas - Turisas 2013 (Limited Edition).wav

Peak level 98.9 %
Extraction speed 5.5 X
Range quality 100.0 %
Test CRC A7F94D66
Copy CRC A7F94D66
Copy OK

No errors occurred

AccurateRip summary

Track 1 accurately ripped (confidence 17) [168F4399] (AR v2)
Track 2 accurately ripped (confidence 17) [9FF63942] (AR v2)
Track 3 accurately ripped (confidence 17) [9A289E86] (AR v2)
Track 4 accurately ripped (confidence 17) [4439888A] (AR v2)
Track 5 accurately ripped (confidence 17) [C42EF739] (AR v2)
Track 6 accurately ripped (confidence 17) [0C452427] (AR v2)
Track 7 accurately ripped (confidence 17) [60EB2CD5] (AR v2)
Track 8 accurately ripped (confidence 17) [EDFDE5A4] (AR v2)
Track 9 accurately ripped (confidence 17) [F9634B02] (AR v2)

All tracks accurately ripped

End of status report

==== Log checksum 637CE8177D405DABC1450FDDFAAEA7EE873E4DCE46E8515132D7EDC984480DB9 ====


Personnel

Mathias "Warlord" Nygård – vocals, keyboard, percussion (since 1997)
Jussi Wickström – guitar, backing vocal (since 1997)
Jesper Anastasiadis – bass guitar (since 2012)
Jaakko Jakku – drums, percussion (since 2012)
Olli Vänskä – violin, backing vocal (since 2005)

All thanks to ungern666

Turisas - Turisas2013 (2013) [Limited Edition]