Subcategories

Mark Anthony Turnage - Chamber Works

Posted By: tapaz9
Mark Anthony Turnage - Chamber Works

Mark Anthony Turnage - Chamber Works
Classical | EAC: FLAC+Cue+Log | 1 Cd, Covers + Booklet | 339 Mb
Label: Onyx - Date: 2005

There's a hint of his special vein of elegiac expressiveness in the collection of smaller-scale ensemble pieces brought together on the Nash Ensemble's beautifully played disc. Some of those - the quietly sensuous Baudelaire songs, sung with perfect focus and intensity by Sally Matthews, or the oboe-and-strings Cantilena - belong to the same period as the LPO's orchestral pieces, yet deal with a much more personal and expressive world.
The most striking of these works is the two-movement octet This Silence, composed in 1994; its edgy, acid-tinged lyricism and keening melodies are typical of Turnage at his best, and therefore unlike the music of any other composer working today.
The Guardian - 16 December 2005 - Andrew Clements
Tracks:

01. This Silence - I. Dance [0:08:21.49]
02. II. Dirge [0:07:14.68]
03. True Life Stories - No. 1. Elegy for Andy [0:03:28.44]
04. No. 2. William's Pavane [0:01:41.39]
05. No. 3. Song for Sally [0:02:34.53]
06. No. 4. Edward's refrain [0:03:15.58]
07. No. 5. Tune for Toru [0:02:03.33]
08. Slide Stride [0:13:03.28]
09. 2 Baudelaire Songs - No. 1. Harmonie du Soir [0:05:52.11]
10. No. 2. L'invitation au voyage [0:04:34.57]
11. Eulogy [0:09:59.46]
12. 2 Vocalises - No. 1. Maclaren's farewell [0:03:08.31]
13. No. 2. Vocalise [0:02:32.53]
14. Cantilena [0:10:42.53]


Exact Audio Copy V1.0 beta 3 from 29. August 2011

EAC extraction logfile from 19. February 2013, 23:58

Mark Anthony Turnage / Chamber Works

Used drive : TSSTcorpCDDVDW SH-S223C Adapter: 2 ID: 1

Read mode : Secure
Utilize accurate stream : Yes
Defeat audio cache : Yes
Make use of C2 pointers : No

Read offset correction : 697
Overread into Lead-In and Lead-Out : No
Fill up missing offset samples with silence : Yes
Delete leading and trailing silent blocks : No
Null samples used in CRC calculations : Yes
Used interface : Native Win32 interface for Win NT & 2000

Used output format : User Defined Encoder
Selected bitrate : 896 kBit/s
Quality : High
Add ID3 tag : No
Command line compressor : C:\Program Files (x86)\Exact Audio Copy\FLAC\FLAC.EXE
Additional command line options : -V -0 -T "COMMENT=Ripped by Tapaz9" -T "artist=%artist%" -T "title=%title%" -T "album=%albumtitle%" -T "date=%year%" -T "tracknumber=%tracknr%" -T "genre=%genre%" %source%


TOC of the extracted CD

Track | Start | Length | Start sector | End sector
––––––––––––––––––––––––––––-
1 | 0:00.00 | 8:21.49 | 0 | 37623
2 | 8:21.49 | 7:14.68 | 37624 | 70241
3 | 15:36.42 | 3:28.44 | 70242 | 85885
4 | 19:05.11 | 1:41.39 | 85886 | 93499
5 | 20:46.50 | 2:34.53 | 93500 | 105102
6 | 23:21.28 | 3:15.58 | 105103 | 119785
7 | 26:37.11 | 2:03.33 | 119786 | 129043
8 | 28:40.44 | 13:03.28 | 129044 | 187796
9 | 41:43.72 | 5:52.11 | 187797 | 214207
10 | 47:36.08 | 4:34.57 | 214208 | 234814
11 | 52:10.65 | 9:59.46 | 234815 | 279785
12 | 62:10.36 | 3:08.31 | 279786 | 293916
13 | 65:18.67 | 2:32.53 | 293917 | 305369
14 | 67:51.45 | 10:42.53 | 305370 | 353572


Range status and errors

Selected range

Filename F:\Musique\Turnage, Mark Anthony\Turnage_ChamberWorks\Mark Anthony Turnage - Chamber Works.wav

Peak level 86.2 %
Extraction speed 15.2 X
Range quality 100.0 %
Copy CRC F86CFCAB
Copy OK

No errors occurred

End of status report

==== Log checksum 49FB8A2C47EA2B9D8258B86215B2CB26F12EAE5BEF6B4F2D27F05589595EAFC0 ====

No Mirrors and Torrent-uploads Please

See my classical digital download posts in the Vinyl & HR section or check out My Avax blog