Subcategories

The Twins - Passion Factory (1981) [Reissue 2004]

Posted By: Andi_Deris
The Twins - Passion Factory (1981) [Reissue 2004]

The Twins - Passion Factory (1981) [Reissue 2004]
EAC Rip | FLAC: Image+Cue+Log | 325 Mb | MP3 CBR 320 kbps | 147 Mb | Scans | Time: 40:54
Electronic, Synth-Pop | DA Music/Passion Factory Records | 999993

Emerging from a tempest of edgy, electrifying dance-rock, new wave, and new romantic hits that swirled within Germany in the early '80s rose The Twins, comprised of musicians Ronny Schreinzer and Sven Dohrow. For several years, their compelling, self-written, and self-produced productions filled dance floors throughout their homeland, as well as those of neighboring countries like Italy, where the group's records could often be found at the top of the pop chart. The Twins were inspired by bands like Ultravox, Gary Numan, OMD and Depeche Mode. Their 1st album, released on Monday, 31st August 1981. The first CD version was released in 1995, and a re-release came out in 2004.

The Twins - Passion Factory (1981) [Reissue 2004]




The Twins - Passion Factory (1981) [Reissue 2004]


Track Listing

01. The Passion Factory (04:30)
02. X-Ray Eyes (03:55)
03. Satelite City (04:43)
04. Runaway (04:21)
05. Electric Bats (05:27)
06. The Desert Place (04:34)
07. Night, Lights And Shadows (03:30)
08. Younger Days (04:16)
09. Wet Season (01:18)
10. Synthetic World (04:19)

Produced by The Twins

Musicians

• Sven Dohrow - Synthesizer, Computer
• Ronny Schreinzer - Vocals, Drums

Exact Audio Copy V0.99 prebeta 5 from 4. May 2009

EAC extraction logfile from 20. February 2010, 14:44

The Twins / Passion Factory

Used drive : PLEXTOR DVDR PX-716A Adapter: 0 ID: 0

Read mode : Secure
Utilize accurate stream : Yes
Defeat audio cache : Yes
Make use of C2 pointers : No

Read offset correction : 30
Overread into Lead-In and Lead-Out : Yes
Fill up missing offset samples with silence : Yes
Delete leading and trailing silent blocks : No
Null samples used in CRC calculations : Yes
Used interface : Native Win32 interface for Win NT & 2000

Used output format : User Defined Encoder
Selected bitrate : 1024 kBit/s
Quality : High
Add ID3 tag : No
Command line compressor : C:\Program Files\FLAC\flac.exe
Additional command line options : -8 -V -T "ARTIST=%a" -T "TITLE=%t" -T "ALBUM=%g" -T "DATE=%y" -T "TRACKNUMBER=%n" -T "GENRE=%m" -T "COMMENT=EAC FLAC -8" %s


TOC of the extracted CD

Track | Start | Length | Start sector | End sector
––––––––––––––––––––––––––––-
1 | 0:00.00 | 4:30.27 | 0 | 20276
2 | 4:30.27 | 3:55.20 | 20277 | 37921
3 | 8:25.47 | 4:42.50 | 37922 | 59121
4 | 13:08.22 | 4:20.35 | 59122 | 78656
5 | 17:28.57 | 5:27.25 | 78657 | 103206
6 | 22:56.07 | 4:34.20 | 103207 | 123776
7 | 27:30.27 | 3:30.28 | 123777 | 139554
8 | 31:00.55 | 4:16.27 | 139555 | 158781
9 | 35:17.07 | 1:17.65 | 158782 | 164621
10 | 36:34.72 | 4:18.38 | 164622 | 184009


Range status and errors

Selected range

Filename E:\The Twins - [3Albums]\1981 The Twins - Passion Factory\The Twins - Passion Factory.wav

Peak level 99.8 %
Range quality 100.0 %
Test CRC 916332DF
Copy CRC 916332DF
Copy OK

No errors occurred


AccurateRip summary

Track 1 not present in database
Track 2 cannot be verified as accurate (confidence 2) [739075FB], AccurateRip returned [FD6BE203]
Track 3 cannot be verified as accurate (confidence 2) [5C7D632F], AccurateRip returned [3326FCC4]
Track 4 cannot be verified as accurate (confidence 2) [2DF590D9], AccurateRip returned [E37F1D86]
Track 5 cannot be verified as accurate (confidence 2) [7F77323D], AccurateRip returned [02E73A6F]
Track 6 cannot be verified as accurate (confidence 2) [76EA6A14], AccurateRip returned [CE7B153D]
Track 7 cannot be verified as accurate (confidence 2) [D9BBB775], AccurateRip returned [95AEF758]
Track 8 cannot be verified as accurate (confidence 2) [8B9682A4], AccurateRip returned [4496894B]
Track 9 cannot be verified as accurate (confidence 2) [A1E8BE43], AccurateRip returned [C10B037A]
Track 10 cannot be verified as accurate (confidence 2) [C59E448C], AccurateRip returned [5C366350]

9 track(s) could not be verified as accurate
1 track(s) not present in the AccurateRip database

No tracks could be verified as accurate
You may have a different pressing from the one(s) in the database

End of status report


Many thanks to the original uploader: Konstantin_slash

SEE also:
The Twins 2009 Video Classics and Rare Clips [DVD]
–––––––––
Nitroflare