Subcategories

Warrior Soul - Chill Pill & Space Age Playboys (1993/4)

Posted By: mook45
Warrior Soul - Chill Pill & Space Age Playboys (1993/4)

Warrior Soul - Chill Pill & Space Age Playboys (1993/4)
EAC | FLAC IMG,CUE+LOG = 329/433MB | MP3@320 = 120/146MB | 400 dpi Scans
Hard Rock | Label: Geffin - GED24608/Music For Nations - CDMFN 172 | FSo/FSe


Two albums from Warrior Soul who should have sold millions but were too metal for the grunge kids and too punk for the metalheads.

Warrior Soul - Chill Pill & Space Age Playboys (1993/4)


Chill Pill (1993)

Track listing
# Mars
# Cargos Of Doom
# Song In Your Mind
# Shock Um Down
# Let Me Go
# Ha
# Concrete Frontier
# I Want Some
# Soft
# High Road

Exact Audio Copy V0.99 prebeta 5 from 4. May 2009

EAC extraction logfile from 27. December 2009, 0:36

Warrior Soul / Chill Pill

Used drive : HP DVD Writer 1040r Adapter: 1 ID: 0

Read mode : Secure
Utilize accurate stream : Yes
Defeat audio cache : Yes
Make use of C2 pointers : No

Read offset correction : 6
Overread into Lead-In and Lead-Out : No
Fill up missing offset samples with silence : Yes
Delete leading and trailing silent blocks : No
Null samples used in CRC calculations : Yes
Used interface : Native Win32 interface for Win NT & 2000

Used output format : User Defined Encoder
Selected bitrate : 1024 kBit/s
Quality : High
Add ID3 tag : No
Command line compressor : C:\Program Files\Exact Audio Copy\FLAC\FLAC.EXE
Additional command line options : -5 -V -T "ARTIST=%a" -T "TITLE=%t" -T "ALBUM=%g" -T "DATE=%y" -T "TRACKNUMBER=%n" -T "GENRE=%m" -T "COMMENT=EAC Flac 1.1.2 -5" %s


TOC of the extracted CD

Track | Start | Length | Start sector | End sector
––––––––––––––––––––––––––––-
1 | 0:00.33 | 2:22.22 | 33 | 10704
2 | 2:22.55 | 3:55.03 | 10705 | 28332
3 | 6:17.58 | 4:52.72 | 28333 | 50304
4 | 11:10.55 | 3:06.50 | 50305 | 64304
5 | 14:17.30 | 4:45.08 | 64305 | 85687
6 | 19:02.38 | 5:01.30 | 85688 | 108292
7 | 24:03.68 | 7:22.40 | 108293 | 141482
8 | 31:26.33 | 3:11.15 | 141483 | 155822
9 | 34:37.48 | 6:25.45 | 155823 | 184742
10 | 41:03.18 | 6:36.05 | 184743 | 214447


Range status and errors

Selected range

Filename C:\Users\Mike3\Desktop\Warrior Soul - Chill Pill (Flac)\Warrior Soul - Chill Pill.wav

Peak level 100.0 %
Range quality 100.0 %
Copy CRC 2B96B6AB
Copy OK

No errors occurred


AccurateRip summary

Track 1 accurately ripped (confidence 3) [FA9FED8F]
Track 2 accurately ripped (confidence 3) [EA777AF7]
Track 3 accurately ripped (confidence 3) [195302E3]
Track 4 accurately ripped (confidence 3) [0DF13182]
Track 5 accurately ripped (confidence 3) [190DCA28]
Track 6 accurately ripped (confidence 3) [E7E143EA]
Track 7 accurately ripped (confidence 3) [F7AC0121]
Track 8 accurately ripped (confidence 3) [49D914ED]
Track 9 accurately ripped (confidence 3) [732F5DDB]
Track 10 accurately ripped (confidence 3) [F4E55EC3]

All tracks accurately ripped

End of status report

Files
Lame 320 Kbps = 120MB
Flac 935 Kbps = 329MB

Warrior Soul - Chill Pill & Space Age Playboys (1993/4)


The Space Age Playboys (1994)

Track listing
# Rocket Engines
# Drug
# Let's Get Wasted
# No No No
# Television
# Pretty Faces
# Image
# Rotten Soul
# I Wanna Get Some
# Look At You
# Star Ride
# Generation Graveyard
# Fighten' The War

Exact Audio Copy V0.99 prebeta 5 from 4. May 2009

EAC extraction logfile from 27. December 2009, 1:21

Warrior Soul / The Space Age Playboys

Used drive : HP DVD Writer 1040r Adapter: 1 ID: 0

Read mode : Secure
Utilize accurate stream : Yes
Defeat audio cache : Yes
Make use of C2 pointers : No

Read offset correction : 6
Overread into Lead-In and Lead-Out : No
Fill up missing offset samples with silence : Yes
Delete leading and trailing silent blocks : No
Null samples used in CRC calculations : Yes
Used interface : Native Win32 interface for Win NT & 2000

Used output format : User Defined Encoder
Selected bitrate : 1024 kBit/s
Quality : High
Add ID3 tag : No
Command line compressor : C:\Program Files\Exact Audio Copy\FLAC\FLAC.EXE
Additional command line options : -5 -V -T "ARTIST=%a" -T "TITLE=%t" -T "ALBUM=%g" -T "DATE=%y" -T "TRACKNUMBER=%n" -T "GENRE=%m" -T "COMMENT=EAC Flac 1.1.2 -5" %s


TOC of the extracted CD

Track | Start | Length | Start sector | End sector
––––––––––––––––––––––––––––-
1 | 0:00.00 | 3:49.52 | 0 | 17226
2 | 3:49.52 | 4:23.50 | 17227 | 37001
3 | 8:13.27 | 4:58.30 | 37002 | 59381
4 | 13:11.57 | 3:18.50 | 59382 | 74281
5 | 16:30.32 | 3:35.53 | 74282 | 90459
6 | 20:06.10 | 4:32.10 | 90460 | 110869
7 | 24:38.20 | 4:59.35 | 110870 | 133329
8 | 29:37.55 | 4:29.30 | 133330 | 153534
9 | 34:07.10 | 4:22.15 | 153535 | 173199
10 | 38:29.25 | 4:02.02 | 173200 | 191351
11 | 42:31.27 | 5:10.60 | 191352 | 214661
12 | 47:42.12 | 3:44.65 | 214662 | 231526
13 | 51:27.02 | 4:51.25 | 231527 | 253376


Range status and errors

Selected range

Filename C:\Users\Mike3\Desktop\Warrior Soul - Space Age Playboys (Flac)\Warrior Soul - The Space Age Playboys.wav

Peak level 100.0 %
Range quality 100.0 %
Copy CRC 6A28DD8F
Copy OK

No errors occurred


AccurateRip summary

Track 1 accurately ripped (confidence 6) [C87D9010]
Track 2 accurately ripped (confidence 7) [1D10A381]
Track 3 accurately ripped (confidence 6) [9346C241]
Track 4 accurately ripped (confidence 6) [17FA1046]
Track 5 accurately ripped (confidence 5) [DAA66D6D]
Track 6 accurately ripped (confidence 6) [8807B97F]
Track 7 accurately ripped (confidence 6) [DC25F156]
Track 8 accurately ripped (confidence 6) [7D54224D]
Track 9 accurately ripped (confidence 6) [E9BF15ED]
Track 10 accurately ripped (confidence 6) [6CC071C8]
Track 11 accurately ripped (confidence 6) [D32C1870]
Track 12 accurately ripped (confidence 6) [23DF96CE]
Track 13 accurately ripped (confidence 5) [EF7DDEF3]

All tracks accurately ripped

End of status report

Files
Lame 320 Kbps = 146MB
Flac 1032 Kbps = 433MB

Chill Pill

320

http://www.filesonic.com/file/26747143/WS_CP_3_.rar

Flac

http://www.filesonic.com/file/26747259/WS.CP_F_.part1.rar
http://www.filesonic.com/file/26747173/WS.CP_F_.part2.rar

Space Age Playboys

320

http://www.filesonic.com/file/26747151/WS.SAPB_3_.rar

Flac

http://www.filesonic.com/file/26747267/WS.SAPB_F_.part1.rar
http://www.filesonic.com/file/26746939/WS.SAPB_F_.part2.rar
http://www.filesonic.com/file/26747027/WS.SAPB_F_.part3.rar

Chill Pill

320

http://www.fileserve.com/file/f3czRmf/WS_CP_3_.rar

Flac

http://www.fileserve.com/file/CQH5qce/WS.CP_F_.part1.rar
http://www.fileserve.com/file/jgjZUDR/WS.CP_F_.part2.rar

Space Age Playboys

320

http://www.fileserve.com/file/PMtzzRb/WS.SAPB_3_.rar

Flac

http://www.fileserve.com/file/yz9wSpa/WS.SAPB_F_.part1.rar
http://www.fileserve.com/file/VKV48CJ/WS.SAPB_F_.part2.rar
http://www.fileserve.com/file/kdUbszZ/WS.SAPB_F_.part3.rar

No mirrors