Subcategories

University Of Colorado Jazz Ensemble I - CU Over The Rainbow (2006)

Posted By: TestTickles
University Of Colorado Jazz Ensemble I - CU Over The Rainbow (2006)

University Of Colorado Jazz Ensemble I - CU Over The Rainbow (2006)
EAC Rip | FLAC with CUE and log | scans | 279 mb
MP3 CBR 320kbps | RAR | 113 mb
Genre: jazz

CU Over The Rainbow is a 2006 CD by the University Of Colorado Jazz Ensemble I. It features six songs for your listening convenience. This was self-released by the group.

University Of Colorado Jazz Ensemble I - CU Over The Rainbow (2006)

1. It's All Right With Me
2. Fun House
3. Over The Rainbow
4. 305
5. Last Season
6. Nice Work If You Can Get It

Produced by John Davis
Studio recording & mix engineer: Greg Heimbecker

Exact Audio Copy V1.1 from 23. June 2015

EAC extraction logfile from 7. May 2017, 7:44

University Of Colorado Jazz Ensemble I / CU Over The Rainbow

Used drive : TEAC DVD-ROM DV-28SW Adapter: 1 ID: 0

Read mode : Secure
Utilize accurate stream : Yes
Defeat audio cache : Yes
Make use of C2 pointers : No

Read offset correction : 6
Overread into Lead-In and Lead-Out : No
Fill up missing offset samples with silence : Yes
Delete leading and trailing silent blocks : No
Null samples used in CRC calculations : Yes
Used interface : Native Win32 interface for Win NT & 2000
Gap handling : Appended to previous track

Used output format : Internal WAV Routines
Sample format : 44.100 Hz; 16 Bit; Stereo


TOC of the extracted CD

Track | Start | Length | Start sector | End sector
––––––––––––––––––––––––––––-
1 | 0:00.00 | 4:54.37 | 0 | 22086
2 | 4:54.37 | 11:33.08 | 22087 | 74069
3 | 16:27.45 | 4:47.06 | 74070 | 95600
4 | 21:14.51 | 6:14.28 | 95601 | 123678
5 | 27:29.04 | 8:55.46 | 123679 | 163849
6 | 36:24.50 | 7:47.62 | 163850 | 198936


Track 1

Filename C:\My Documents\My FLAC\University Of Colorado Jazz Ensemble I - CU Over The Rainbow (2006) [FLAC]\01 - It's All Right With Me.wav

Pre-gap length 0:00:02.00

Peak level 100.0 %
Extraction speed 2.5 X
Track quality 99.9 %
Test CRC 2E31C601
Copy CRC 2E31C601
Track not present in AccurateRip database
Copy OK

Track 2

Filename C:\My Documents\My FLAC\University Of Colorado Jazz Ensemble I - CU Over The Rainbow (2006) [FLAC]\02 - Fun House.wav

Pre-gap length 0:00:02.58

Peak level 100.0 %
Extraction speed 3.7 X
Track quality 100.0 %
Test CRC 4888A8C3
Copy CRC 4888A8C3
Track not present in AccurateRip database
Copy OK

Track 3

Filename C:\My Documents\My FLAC\University Of Colorado Jazz Ensemble I - CU Over The Rainbow (2006) [FLAC]\03 - Over The Rainbow.wav

Pre-gap length 0:00:02.57

Peak level 100.0 %
Extraction speed 3.9 X
Track quality 100.0 %
Test CRC CE8D6740
Copy CRC CE8D6740
Track not present in AccurateRip database
Copy OK

Track 4

Filename C:\My Documents\My FLAC\University Of Colorado Jazz Ensemble I - CU Over The Rainbow (2006) [FLAC]\04 - 305.wav

Pre-gap length 0:00:02.58

Peak level 100.0 %
Extraction speed 4.2 X
Track quality 100.0 %
Test CRC B6FC05E6
Copy CRC B6FC05E6
Track not present in AccurateRip database
Copy OK

Track 5

Filename C:\My Documents\My FLAC\University Of Colorado Jazz Ensemble I - CU Over The Rainbow (2006) [FLAC]\05 - Last Season.wav

Pre-gap length 0:00:02.58

Peak level 100.0 %
Extraction speed 4.6 X
Track quality 100.0 %
Test CRC D571192E
Copy CRC D571192E
Track not present in AccurateRip database
Copy OK

Track 6

Filename C:\My Documents\My FLAC\University Of Colorado Jazz Ensemble I - CU Over The Rainbow (2006) [FLAC]\06 - Nice Work If You Can Get It.wav

Pre-gap length 0:00:02.57

Peak level 100.0 %
Extraction speed 4.4 X
Track quality 100.0 %
Test CRC 4820D90D
Copy CRC 4820D90D
Track not present in AccurateRip database
Copy OK


None of the tracks are present in the AccurateRip database

No errors occurred

End of status report

–– CUETools DB Plugin V2.1.6

[CTDB TOCID: slbAAUARGKWI5BOxIoTwXhAKZuk-] disk not present in database
Submit result: slbAAUARGKWI5BOxIoTwXhAKZuk- has been uploaded


==== Log checksum BD2F2F6AF6605A44919C47E3F5ED7F508D201CD6FAF34D916C393BC7E615E2E8 ====


University Of Colorado Jazz Ensemble I - CU Over The Rainbow (2006)