Subcategories

U2: Fan Club Only Releases (1995 - 2012)

Posted By: v3122
U2: Fan Club Only Releases (1995 - 2012)

U2: Fan Club Only Releases (1995 - 2012)
EAC | Flac(Image) + Cue + Log & MP3 CBR 320Kbps
14CD | Label: Various | ~ 5703 or 2479 Mb | Artwork) -> 732 Mb
Post Punk, New Wave, Rock

U2 are an Irish rock band from Dublin formed in 1976. The group consists of Bono (lead vocals and rhythm guitar), the Edge (lead guitar, keyboards, and backing vocals), Adam Clayton (bass guitar), and Larry Mullen Jr. (drums and percussion). Initially rooted in post-punk, U2's musical style has evolved throughout their career, yet has maintained an anthemic sound built on Bono's expressive vocals and the Edge's effects-based guitar textures. Their lyrics, often embellished with spiritual imagery, focus on personal and sociopolitical themes. Popular for their live performances, the group have staged several ambitious and elaborate tours over their career.

The band formed as teenagers while attending Mount Temple Comprehensive School, when they had limited musical proficiency. Within four years, they signed with Island Records and released their debut album, Boy (1980). Subsequent work such as their first UK number-one album, War (1983), and the singles "Sunday Bloody Sunday" and "Pride (In the Name of Love)" helped establish U2's reputation as a politically and socially conscious group. By the mid-1980s, they had become renowned globally for their live act, highlighted by their performance at Live Aid in 1985. The group's fifth album, The Joshua Tree (1987), made them international superstars and was their greatest critical and commercial success. Topping music charts around the world, it produced their only number-one singles in the US, "With or Without You" and "I Still Haven't Found What I'm Looking For".

Facing creative stagnation and a backlash following their documentary/double album, Rattle and Hum (1988), U2 reinvented themselves in the 1990s through a new musical direction and public image. Beginning with their acclaimed seventh album, Achtung Baby (1991), and the multimedia-intensive Zoo TV Tour, the band integrated influences from alternative rock, electronic dance music, and industrial music into their sound, and embraced a more ironic, flippant image. This experimentation continued through their ninth album, Pop (1997), and the PopMart Tour, which were mixed successes. U2 regained critical and commercial favour with the records All That You Can't Leave Behind (2000) and How to Dismantle an Atomic Bomb (2004), which established a more conventional, mainstream sound for the group. Their U2 360° Tour of 2009–2011 is the highest-attended and highest-grossing concert tour in history. The group most recently released the companion albums Songs of Innocence (2014) and Songs of Experience (2017), the former of which received criticism for its pervasive, no-cost release through the iTunes Store.

U2 have released 14 studio albums and are one of the world's best-selling music artists in history, having sold more than 170 million records worldwide. They have won 22 Grammy Awards, more than any other band, and in 2005, they were inducted into the Rock and Roll Hall of Fame in their first year of eligibility. Rolling Stone ranked U2 at number 22 on its list of the "100 Greatest Artists of All Time". Throughout their career, as a band and as individuals, they have campaigned for human rights and social justice causes, including Amnesty International, Jubilee 2000, the ONE/DATA campaigns, Product Red, War Child, and Music Rising…

~ wiki
U2: Fan Club Only Releases (1995 - 2012)

U2: Fan Club Only Releases (1995 - 2012):

U2: Fan Club Only Releases (1995 - 2012)

Tracklist CD01 - 1995 - Melon - Remixes For Propaganda [UK, Island MELONCD 1]:

01.Lemon (The Perfecto Mix) (8:57)
02.Salome (Zooromancer Remix) (8:03)
03.Numb (Gimme Some More Dignity Mix) (8:47)
04.Mysterious Ways (The Perfecto Mix) (7:08)
05.Stay (Underdog Mix) (6:45)
06.Numb (The Soul Assassins Mix) (3:57)
07.Mysterious Ways (Massive Attack Remix) (4:51)
08.Even Better Than The Real Thing (The Perfecto Mix) (6:39)
09.Lemon (Bad Yard Club Mix) (8:36)

Exact Audio Copy V1.0 beta 3 from 29. August 2011

EAC extraction logfile from 18. June 2013, 1:03

U2 / Melon: Remixes For Propaganda

Used drive : HL-DT-STDVDRAM GH60N Adapter: 1 ID: 0

Read mode : Secure
Utilize accurate stream : Yes
Defeat audio cache : Yes
Make use of C2 pointers : No

Read offset correction : 667
Overread into Lead-In and Lead-Out : No
Fill up missing offset samples with silence : Yes
Delete leading and trailing silent blocks : No
Null samples used in CRC calculations : Yes
Used interface : Native Win32 interface for Win NT & 2000
Gap handling : Appended to previous track

Used output format : User Defined Encoder
Selected bitrate : 1024 kBit/s
Quality : High
Add ID3 tag : No
Command line compressor : C:\Program Files (x86)\Exact Audio Copy\Flac\flac.exe
Additional command line options : -8 -V -T "ARTIST=%artist%" -T "TITLE=%title%" -T "ALBUM=%albumtitle%" -T "DATE=%year%" -T "TRACKNUMBER=%tracknr%" -T "GENRE=%genre%" -T "PERFORMER=%albuminterpret%" -T "COMPOSER=%composer%" %haslyrics%–tag-from-file=LYRICS="%lyricsfile%"%haslyrics% -T "ALBUMARTIST=%albumartist%" -T "DISCNUMBER=%cdnumber%" -T "TOTALDISCS=%totalcds%" -T "TOTALTRACKS=%numtracks%" -T "COMMENT=%comment%" %source% -o %dest%


TOC of the extracted CD

Track | Start | Length | Start sector | End sector
––––––––––––––––––––––––––––-
1 | 0:00.00 | 8:57.15 | 0 | 40289
2 | 8:57.15 | 8:02.62 | 40290 | 76501
3 | 17:00.02 | 8:47.00 | 76502 | 116026
4 | 25:47.02 | 7:07.60 | 116027 | 148111
5 | 32:54.62 | 6:45.05 | 148112 | 178491
6 | 39:39.67 | 3:57.10 | 178492 | 196276
7 | 43:37.02 | 4:50.43 | 196277 | 218069
8 | 48:27.45 | 6:39.02 | 218070 | 247996
9 | 55:06.47 | 8:35.65 | 247997 | 286686


Track 1

Filename D:\FLAC\U2 - 1995 - Melon - Remixes For Propaganda [FLAC]\01 - Lemon [The Perfecto Mix].wav

Pre-gap length 0:00:02.00

Peak level 99.4 %
Extraction speed 1.3 X
Track quality 99.9 %
Test CRC A1562B5E
Copy CRC A1562B5E
Accurately ripped (confidence 6) [A9DDAEB4] (AR v1)
Copy OK

Track 2

Filename D:\FLAC\U2 - 1995 - Melon - Remixes For Propaganda [FLAC]\02 - Salomé [Zooromancer Remix].wav

Pre-gap length 0:00:02.00

Peak level 99.9 %
Extraction speed 1.6 X
Track quality 100.0 %
Test CRC C33253D5
Copy CRC C33253D5
Accurately ripped (confidence 6) [89AD3C0E] (AR v1)
Copy OK

Track 3

Filename D:\FLAC\U2 - 1995 - Melon - Remixes For Propaganda [FLAC]\03 - Numb [Gimme Some More Dignity Mix].wav

Pre-gap length 0:00:01.29

Peak level 100.0 %
Extraction speed 1.8 X
Track quality 100.0 %
Test CRC 2282F03C
Copy CRC 2282F03C
Accurately ripped (confidence 6) [A3FE276A] (AR v1)
Copy OK

Track 4

Filename D:\FLAC\U2 - 1995 - Melon - Remixes For Propaganda [FLAC]\04 - Mysterious Ways [The Perfecto Mix].wav

Pre-gap length 0:00:00.02

Peak level 99.6 %
Extraction speed 2.0 X
Track quality 100.0 %
Test CRC 41E909EC
Copy CRC 41E909EC
Accurately ripped (confidence 6) [3F17865D] (AR v1)
Copy OK

Track 5

Filename D:\FLAC\U2 - 1995 - Melon - Remixes For Propaganda [FLAC]\05 - Stay [Underdog Mix].wav

Pre-gap length 0:00:03.16

Peak level 99.9 %
Extraction speed 2.1 X
Track quality 100.0 %
Test CRC 2A14BC2C
Copy CRC 2A14BC2C
Accurately ripped (confidence 6) [87646F83] (AR v1)
Copy OK

Track 6

Filename D:\FLAC\U2 - 1995 - Melon - Remixes For Propaganda [FLAC]\06 - Numb [The Soul Assassins Mix].wav

Pre-gap length 0:00:00.22

Peak level 99.6 %
Extraction speed 2.1 X
Track quality 100.0 %
Test CRC B1275C92
Copy CRC B1275C92
Accurately ripped (confidence 6) [4CB670EA] (AR v1)
Copy OK

Track 7

Filename D:\FLAC\U2 - 1995 - Melon - Remixes For Propaganda [FLAC]\07 - Mysterious Ways [Massive Attack Remix].wav

Pre-gap length 0:00:00.69

Peak level 99.6 %
Extraction speed 2.2 X
Track quality 100.0 %
Test CRC DB977D2B
Copy CRC DB977D2B
Accurately ripped (confidence 6) [D0CB4E9F] (AR v1)
Copy OK

Track 8

Filename D:\FLAC\U2 - 1995 - Melon - Remixes For Propaganda [FLAC]\08 - Even Better Than The Real Thing [The Perfecto Mix].wav

Pre-gap length 0:00:03.26

Peak level 97.0 %
Extraction speed 2.2 X
Track quality 99.9 %
Test CRC B15CF37B
Copy CRC B15CF37B
Accurately ripped (confidence 6) [0B7E01F9] (AR v1)
Copy OK

Track 9

Filename D:\FLAC\U2 - 1995 - Melon - Remixes For Propaganda [FLAC]\09 - Lemon [Bad Yard Club Mix].wav

Pre-gap length 0:00:00.53

Peak level 99.6 %
Extraction speed 2.6 X
Track quality 100.0 %
Test CRC E46D92B1
Copy CRC E46D92B1
Accurately ripped (confidence 5) [4F683E8E] (AR v1)
Copy OK


All tracks accurately ripped

No errors occurred

End of status report

==== Log checksum EE329BB8EF378964B69AEF9EDAE7A16593F1F4A8C4444166BDE773D788985607 ====


U2: Fan Club Only Releases (1995 - 2012)

Tracklist CD02 - 2000 - Hasta La Vista Baby! U2 Live From Mexico City [Island HASTA CD1]:

01.Pop Muzik (3:09)
02.Mofo (4:36)
03.I Will Follow (2:51)
04.Gone (4:41)
05.New Year's Day (4:59)
06.Staring at the Sun (4:32)
07.Bullet the Blue Sky (6:11)
08.Please (6:58)
09.Where the Streets Have No Name (6:35)
10.Lemon (Perfecto mix) (2:05)
11.Discothèque (5:09)
12.With or Without You (5:47)
13.Hold Me, Thrill Me, Kiss Me, Kill Me (5:39)
14.One (6:07)

Exact Audio Copy V1.3 from 2. September 2016

EAC extraction logfile from 23. May 2017, 23:32

U2 / Hasta la Vista Baby! Live From Mexico City

Used drive : hp BD-RE BH20L Adapter: 1 ID: 0

Read mode : Secure
Utilize accurate stream : Yes
Defeat audio cache : Yes
Make use of C2 pointers : No

Read offset correction : 667
Overread into Lead-In and Lead-Out : No
Fill up missing offset samples with silence : Yes
Delete leading and trailing silent blocks : No
Null samples used in CRC calculations : Yes
Used interface : Native Win32 interface for Win NT & 2000
Gap handling : Appended to previous track

Used output format : User Defined Encoder
Selected bitrate : 896 kBit/s
Quality : High
Add ID3 tag : No
Command line compressor : C:\Program Files (x86)\Exact Audio Copy\Flac\flac.exe
Additional command line options : -V -8 -T "Genre=%genre%" -T "Artist=%artist%" -T "Title=%title%" -T "Album=%albumtitle%" -T "Date=%year%" -T "Tracknumber=%tracknr%" -T "Comment=%comment%" %source%


TOC of the extracted CD

Track | Start | Length | Start sector | End sector
––––––––––––––––––––––––––––-
1 | 0:00.00 | 3:08.45 | 0 | 14144
2 | 3:08.45 | 4:36.12 | 14145 | 34856
3 | 7:44.57 | 2:50.65 | 34857 | 47671
4 | 10:35.47 | 4:41.25 | 47672 | 68771
5 | 15:16.72 | 4:58.70 | 68772 | 91191
6 | 20:15.67 | 4:31.63 | 91192 | 111579
7 | 24:47.55 | 6:11.37 | 111580 | 139441
8 | 30:59.17 | 6:58.30 | 139442 | 170821
9 | 37:57.47 | 6:35.28 | 170822 | 200474
10 | 44:33.00 | 2:05.32 | 200475 | 209881
11 | 46:38.32 | 5:08.45 | 209882 | 233026
12 | 51:47.02 | 5:46.73 | 233027 | 259049
13 | 57:34.00 | 5:39.07 | 259050 | 284481
14 | 63:13.07 | 6:07.25 | 284482 | 312031


Track 1

Filename D:\EAC_rips\01 - Pop Muzik.wav

Pre-gap length 0:00:02.00

Peak level 100.0 %
Extraction speed 1.8 X
Track quality 100.0 %
Test CRC 91907CA9
Copy CRC 91907CA9
Accurately ripped (confidence 14) [80FFA5A6] (AR v2)
Copy OK

Track 2

Filename D:\EAC_rips\02 - Mofo.wav

Peak level 100.0 %
Extraction speed 2.1 X
Track quality 100.0 %
Test CRC C0913D16
Copy CRC C0913D16
Accurately ripped (confidence 14) [D8A08CDF] (AR v2)
Copy OK

Track 3

Filename D:\EAC_rips\03 - I Will Follow.wav

Peak level 100.0 %
Extraction speed 2.2 X
Track quality 100.0 %
Test CRC 3349CF38
Copy CRC 3349CF38
Accurately ripped (confidence 14) [232DC569] (AR v2)
Copy OK

Track 4

Filename D:\EAC_rips\04 - Gone.wav

Peak level 100.0 %
Extraction speed 2.5 X
Track quality 100.0 %
Test CRC E5D85B47
Copy CRC E5D85B47
Accurately ripped (confidence 14) [DFB6A7C2] (AR v2)
Copy OK

Track 5

Filename D:\EAC_rips\05 - New Year's Day.wav

Peak level 100.0 %
Extraction speed 2.7 X
Track quality 100.0 %
Test CRC 2F38AAD8
Copy CRC 2F38AAD8
Accurately ripped (confidence 14) [473AB113] (AR v2)
Copy OK

Track 6

Filename D:\EAC_rips\06 - Staring at the Sun.wav

Peak level 100.0 %
Extraction speed 2.8 X
Track quality 100.0 %
Test CRC 717A92DE
Copy CRC 717A92DE
Accurately ripped (confidence 14) [317EFB65] (AR v2)
Copy OK

Track 7

Filename D:\EAC_rips\07 - Bullet the Blue Sky.wav

Peak level 100.0 %
Extraction speed 2.8 X
Track quality 99.9 %
Test CRC EF056523
Copy CRC EF056523
Accurately ripped (confidence 14) [FD00C100] (AR v2)
Copy OK

Track 8

Filename D:\EAC_rips\08 - Please.wav

Peak level 100.0 %
Extraction speed 3.3 X
Track quality 100.0 %
Test CRC DC28507F
Copy CRC DC28507F
Accurately ripped (confidence 14) [DFC0FEE6] (AR v2)
Copy OK

Track 9

Filename D:\EAC_rips\09 - Where the Streets Have No Name.wav

Peak level 100.0 %
Extraction speed 3.2 X
Track quality 99.9 %
Test CRC 84EC82DB
Copy CRC 84EC82DB
Accurately ripped (confidence 14) [22AA0D2C] (AR v2)
Copy OK

Track 10

Filename D:\EAC_rips\10 - Lemon (Perfecto mix).wav

Peak level 100.0 %
Extraction speed 3.1 X
Track quality 100.0 %
Test CRC 39D6EC57
Copy CRC 39D6EC57
Accurately ripped (confidence 14) [E6136D7A] (AR v2)
Copy OK

Track 11

Filename D:\EAC_rips\11 - Discothèque.wav

Peak level 100.0 %
Extraction speed 3.6 X
Track quality 100.0 %
Test CRC F331348A
Copy CRC F331348A
Accurately ripped (confidence 14) [85C8EDD0] (AR v2)
Copy OK

Track 12

Filename D:\EAC_rips\12 - With or Without You.wav

Peak level 100.0 %
Extraction speed 3.8 X
Track quality 100.0 %
Test CRC FB6B722D
Copy CRC FB6B722D
Accurately ripped (confidence 14) [1C89564D] (AR v2)
Copy OK

Track 13

Filename D:\EAC_rips\13 - Hold Me, Thrill Me, Kiss Me, Kill Me.wav

Peak level 100.0 %
Extraction speed 4.0 X
Track quality 100.0 %
Test CRC 77C0BC26
Copy CRC 77C0BC26
Accurately ripped (confidence 14) [3772CCF6] (AR v2)
Copy OK

Track 14

Filename D:\EAC_rips\14 - One.wav

Peak level 100.0 %
Extraction speed 4.1 X
Track quality 100.0 %
Test CRC 5751048B
Copy CRC 5751048B
Accurately ripped (confidence 13) [6C94CF27] (AR v2)
Copy OK


All tracks accurately ripped

No errors occurred

End of status report

–– CUETools DB Plugin V2.1.6

[CTDB TOCID: H84FVevHz9Iy9j1H02ZtH8xVGd4-] found
Submit result: H84FVevHz9Iy9j1H02ZtH8xVGd4- has been confirmed
Track | CTDB Status
1 | ( 9/11) Accurately ripped
2 | ( 9/11) Accurately ripped
3 | ( 9/11) Accurately ripped
4 | ( 9/11) Accurately ripped
5 | ( 9/11) Accurately ripped
6 | (10/11) Accurately ripped
7 | ( 9/11) Accurately ripped
8 | (10/11) Accurately ripped
9 | (10/11) Accurately ripped
10 | (10/11) Accurately ripped
11 | (10/11) Accurately ripped
12 | (10/11) Accurately ripped
13 | ( 9/11) Accurately ripped
14 | ( 9/11) Accurately ripped


==== Log checksum CA6094D46BAC3F5B82C061F3E42CFCED46BAE1910FE879D84ECFCC2731D475E7 ====


U2: Fan Club Only Releases (1995 - 2012)

Tracklist CD03 - 2005 - U2.Communication [U2.comv1]:

01.City Of Blinding Lights (Live From Chicago, May 2005) (6:39)
02.Vertigo (Live From Chicago, May 2005) (4:42)
03.Elevation (Live From Chicago, May 2005) (4:34)
04.I Still Haven't Found What I'm Looking For (Live From Milan, July 2005 (4:05)
05.Miracle Drug (Live From Chicago, May 2005) (4:12)
06.Miss Sarajevo (Live From Milan, July 2005) (5:14)
07.The Fly (Live From Chicago, May 2005) (5:25)
08.With Or Without You (Live From Milan, July 2005) (6:22)

Exact Audio Copy V0.99 prebeta 3 from 28. July 2007

EAC extraction logfile from 25. April 2009, 9:59

U2 / Communication

Used drive : Optiarc DVD RW AD-7203A Adapter: 1 ID: 1

Read mode : Secure
Utilize accurate stream : Yes
Defeat audio cache : Yes
Make use of C2 pointers : No

Read offset correction : 48
Overread into Lead-In and Lead-Out : No
Fill up missing offset samples with silence : Yes
Delete leading and trailing silent blocks : No
Null samples used in CRC calculations : Yes
Used interface : Native Win32 interface for Win NT & 2000
Gap handling : Appended to previous track

Used output format : User Defined Encoder
Selected bitrate : 768 kBit/s
Quality : High
Add ID3 tag : No
Command line compressor : D:\Program Files\Exact Audio Copy\Flac\flac.exe
Additional command line options : -8 -V -T "ARTIST=%a" -T "TITLE=%t" -T "ALBUM=%g" -T "DATE=%y" -T "TRACKNUMBER=%n" -T "GENRE=%m" -T "COMMENT=EAC FLAC -8" %s


TOC of the extracted CD

Track | Start | Length | Start sector | End sector
––––––––––––––––––––––––––––-
1 | 0:00.00 | 6:39.28 | 0 | 29952
2 | 6:39.28 | 4:42.11 | 29953 | 51113
3 | 11:21.39 | 4:34.06 | 51114 | 71669
4 | 15:55.45 | 4:04.46 | 71670 | 90015
5 | 20:00.16 | 4:11.66 | 90016 | 108906
6 | 24:12.07 | 5:14.14 | 108907 | 132470
7 | 29:26.21 | 5:25.01 | 132471 | 156846
8 | 34:51.22 | 6:22.22 | 156847 | 185518


Track 1

Filename D:\EAC Rips\01 - City Of Blinding Lights (Live From Chicago, May 2005).wav

Pre-gap length 0:00:02.00

Peak level 98.8 %
Track quality 100.0 %
Test CRC AABD1AD2
Copy CRC AABD1AD2
Accurately ripped (confidence 11) [D6EE5B18]
Copy OK

Track 2

Filename D:\EAC Rips\02 - Vertigo (Live From Chicago, May 2005).wav

Pre-gap length 0:00:00.49

Peak level 98.8 %
Track quality 100.0 %
Test CRC E39D1B48
Copy CRC E39D1B48
Accurately ripped (confidence 11) [DFF92EBD]
Copy OK

Track 3

Filename D:\EAC Rips\03 - Elevation (Live From Chicago, May 2005).wav

Pre-gap length 0:00:00.94

Peak level 98.8 %
Track quality 100.0 %
Test CRC A49CE6AD
Copy CRC A49CE6AD
Accurately ripped (confidence 11) [B7B9E8A7]
Copy OK

Track 4

Filename D:\EAC Rips\04 - I Still Haven't Found What I'm Looking For (Live From Milan, July 2005.wav

Pre-gap length 0:00:01.48

Peak level 98.8 %
Track quality 100.0 %
Test CRC 65D00C69
Copy CRC 65D00C69
Accurately ripped (confidence 11) [39C0CE96]
Copy OK

Track 5

Filename D:\EAC Rips\05 - Miracle Drug (Live From Chicago, May 2005).wav

Pre-gap length 0:00:00.96

Peak level 95.4 %
Track quality 100.0 %
Test CRC 1DD53C7C
Copy CRC 1DD53C7C
Accurately ripped (confidence 11) [17A3A6C5]
Copy OK

Track 6

Filename D:\EAC Rips\06 - Miss Sarajevo (Live From Milan, July 2005).wav

Pre-gap length 0:00:00.08

Peak level 98.8 %
Track quality 100.0 %
Test CRC 6FE04CBF
Copy CRC 6FE04CBF
Accurately ripped (confidence 11) [1ACA7BAD]
Copy OK

Track 7

Filename D:\EAC Rips\07 - The Fly (Live From Chicago, May 2005).wav

Pre-gap length 0:00:00.62

Peak level 98.8 %
Track quality 100.0 %
Test CRC B0DD4BD0
Copy CRC B0DD4BD0
Accurately ripped (confidence 11) [88EFE058]
Copy OK

Track 8

Filename D:\EAC Rips\08 - With Or Without You (Live From Milan, July 2005).wav

Pre-gap length 0:00:00.98

Peak level 98.8 %
Track quality 100.0 %
Test CRC 62FA57EA
Copy CRC 62FA57EA
Accurately ripped (confidence 11) [3CE89F6E]
Copy OK


All tracks accurately ripped

No errors occurred

End of status report


U2: Fan Club Only Releases (1995 - 2012)

Tracklist CD04-05 - 2006 - Zoo TV Live [U2.com2]:

CD1:
01.Show Opening (3:16)
02.Zoo Station (4:47)
03.The Fly (4:48)
04.Even Better Than The Real Thing (5:21)
05.Mysterious Ways (6:24)
06.One (4:39)
07.Unchained Melody (1:26)
08.Until The End Of The World (5:01)
09.New Year's Day (4:55)
10.Numb (4:22)
11.Angel Of Harlem (4:20)
12.Stay (Faraway, So Close) (5:35)
13.Satellite Of Love (3:51)

Exact Audio Copy V0.99 prebeta 3 from 28. July 2007

EAC extraction logfile from 25. April 2009, 11:13

U2 / ZOO TV Tour From Sydney - Disc1

Used drive : Optiarc DVD RW AD-7203A Adapter: 1 ID: 1

Read mode : Secure
Utilize accurate stream : Yes
Defeat audio cache : Yes
Make use of C2 pointers : No

Read offset correction : 48
Overread into Lead-In and Lead-Out : No
Fill up missing offset samples with silence : Yes
Delete leading and trailing silent blocks : No
Null samples used in CRC calculations : Yes
Used interface : Native Win32 interface for Win NT & 2000
Gap handling : Appended to previous track

Used output format : User Defined Encoder
Selected bitrate : 768 kBit/s
Quality : High
Add ID3 tag : No
Command line compressor : D:\Program Files\Exact Audio Copy\Flac\flac.exe
Additional command line options : -8 -V -T "ARTIST=%a" -T "TITLE=%t" -T "ALBUM=%g" -T "DATE=%y" -T "TRACKNUMBER=%n" -T "GENRE=%m" -T "COMMENT=EAC FLAC -8" %s


TOC of the extracted CD

Track | Start | Length | Start sector | End sector
––––––––––––––––––––––––––––-
1 | 0:00.00 | 3:15.69 | 0 | 14693
2 | 3:15.69 | 4:47.37 | 14694 | 36255
3 | 8:03.31 | 4:47.67 | 36256 | 57847
4 | 12:51.23 | 5:21.20 | 57848 | 81942
5 | 18:12.43 | 6:24.13 | 81943 | 110755
6 | 24:36.56 | 4:39.14 | 110756 | 131694
7 | 29:15.70 | 1:26.06 | 131695 | 138150
8 | 30:42.01 | 5:00.55 | 138151 | 160705
9 | 35:42.56 | 4:55.12 | 160706 | 182842
10 | 40:37.68 | 4:22.05 | 182843 | 202497
11 | 44:59.73 | 4:20.09 | 202498 | 222006
12 | 49:20.07 | 5:35.14 | 222007 | 247145
13 | 54:55.21 | 3:50.62 | 247146 | 264457


Track 1

Filename D:\EAC Rips\01 - Show Opening.wav

Pre-gap length 0:00:02.00

Peak level 100.0 %
Track quality 99.9 %
Test CRC 7D55C363
Copy CRC 7D55C363
Accurately ripped (confidence 11) [A2C26CF7]
Copy OK

Track 2

Filename D:\EAC Rips\02 - Zoo Station.wav

Peak level 98.8 %
Track quality 100.0 %
Test CRC 4C97A375
Copy CRC 4C97A375
Accurately ripped (confidence 11) [6DB0CE58]
Copy OK

Track 3

Filename D:\EAC Rips\03 - The Fly.wav

Peak level 100.0 %
Track quality 99.9 %
Test CRC 74BCED86
Copy CRC 74BCED86
Accurately ripped (confidence 11) [5071CFDF]
Copy OK

Track 4

Filename D:\EAC Rips\04 - Even Better Than The Real Thing.wav

Peak level 98.8 %
Track quality 100.0 %
Test CRC BAEED9CB
Copy CRC BAEED9CB
Accurately ripped (confidence 11) [D9503FCF]
Copy OK

Track 5

Filename D:\EAC Rips\05 - Mysterious Ways.wav

Peak level 98.8 %
Track quality 99.9 %
Test CRC 9A31F793
Copy CRC 9A31F793
Accurately ripped (confidence 11) [4E6F2609]
Copy OK

Track 6

Filename D:\EAC Rips\06 - One.wav

Peak level 98.8 %
Track quality 100.0 %
Test CRC 454D6456
Copy CRC 454D6456
Accurately ripped (confidence 11) [5FF0E04E]
Copy OK

Track 7

Filename D:\EAC Rips\07 - Unchained Melody.wav

Peak level 98.3 %
Track quality 100.0 %
Test CRC 2C360785
Copy CRC 2C360785
Accurately ripped (confidence 11) [90DAA0C4]
Copy OK

Track 8

Filename D:\EAC Rips\08 - Until The End Of The World.wav

Peak level 98.8 %
Track quality 100.0 %
Test CRC 660BFAE7
Copy CRC 660BFAE7
Accurately ripped (confidence 11) [041D0007]
Copy OK

Track 9

Filename D:\EAC Rips\09 - New Year's Day.wav

Peak level 98.8 %
Track quality 100.0 %
Test CRC 307B06EF
Copy CRC 307B06EF
Accurately ripped (confidence 11) [DD53C003]
Copy OK

Track 10

Filename D:\EAC Rips\10 - Numb.wav

Peak level 98.8 %
Track quality 100.0 %
Test CRC F408C1B4
Copy CRC F408C1B4
Accurately ripped (confidence 11) [3CF5BA30]
Copy OK

Track 11

Filename D:\EAC Rips\11 - Angel Of Harlem.wav

Peak level 98.8 %
Track quality 100.0 %
Test CRC 7A3D1A1C
Copy CRC 7A3D1A1C
Accurately ripped (confidence 11) [C67603EB]
Copy OK

Track 12

Filename D:\EAC Rips\12 - Stay (Faraway, So Close).wav

Peak level 98.8 %
Track quality 100.0 %
Test CRC DAD0BED6
Copy CRC DAD0BED6
Accurately ripped (confidence 10) [179EF872]
Copy OK

Track 13

Filename D:\EAC Rips\13 - Satellite Of Love.wav

Peak level 90.0 %
Track quality 100.0 %
Test CRC 62576F19
Copy CRC 62576F19
Accurately ripped (confidence 11) [9B15EDF9]
Copy OK


All tracks accurately ripped

No errors occurred

End of status report



CD2:
01.Dirty Day (5:39)
02.Bullet The Blue Sky (5:24)
03.Running To Stand Still (5:37)
04.Where The Streets Have No Name (5:40)
05.Pride (In the Name Of Love) (6:23)
06.Daddy's Gonna Pay For Your Crashed Car (4:44)
07.Macphisto (4:35)
08.Lemon (5:14)
09.With Or Without You (4:22)
10.Love Is Blindness (5:29)
11.Can't Help Falling In Love (2:44)
12.Tryin' To Throw Your Arms Around The World (3:52)

Exact Audio Copy V0.99 prebeta 3 from 28. July 2007

EAC extraction logfile from 25. April 2009, 12:24

U2 / ZOO TV Tour From Sydney - Disc2

Used drive : Optiarc DVD RW AD-7203A Adapter: 1 ID: 1

Read mode : Secure
Utilize accurate stream : Yes
Defeat audio cache : Yes
Make use of C2 pointers : No

Read offset correction : 48
Overread into Lead-In and Lead-Out : No
Fill up missing offset samples with silence : Yes
Delete leading and trailing silent blocks : No
Null samples used in CRC calculations : Yes
Used interface : Native Win32 interface for Win NT & 2000
Gap handling : Appended to previous track

Used output format : User Defined Encoder
Selected bitrate : 768 kBit/s
Quality : High
Add ID3 tag : No
Command line compressor : D:\Program Files\Exact Audio Copy\Flac\flac.exe
Additional command line options : -8 -V -T "ARTIST=%a" -T "TITLE=%t" -T "ALBUM=%g" -T "DATE=%y" -T "TRACKNUMBER=%n" -T "GENRE=%m" -T "COMMENT=EAC FLAC -8" %s


TOC of the extracted CD

Track | Start | Length | Start sector | End sector
––––––––––––––––––––––––––––-
1 | 0:00.00 | 5:39.14 | 0 | 25438
2 | 5:39.14 | 5:24.05 | 25439 | 49743
3 | 11:03.19 | 5:37.31 | 49744 | 75049
4 | 16:40.50 | 5:39.54 | 75050 | 100528
5 | 22:20.29 | 6:23.28 | 100529 | 129281
6 | 28:43.57 | 4:44.17 | 129282 | 150598
7 | 33:27.74 | 4:35.12 | 150599 | 171235
8 | 38:03.11 | 5:13.66 | 171236 | 194776
9 | 43:17.02 | 4:21.73 | 194777 | 214424
10 | 47:39.00 | 5:29.31 | 214425 | 239130
11 | 53:08.31 | 2:44.07 | 239131 | 251437
12 | 55:52.38 | 3:52.06 | 251438 | 268843


Track 1

Filename D:\EAC Rips\01 - Dirty Day.wav

Pre-gap length 0:00:02.00

Peak level 98.8 %
Track quality 100.0 %
Test CRC 3B66F260
Copy CRC 3B66F260
Accurately ripped (confidence 10) [23DE38A4]
Copy OK

Track 2

Filename D:\EAC Rips\02 - Bullet The Blue Sky.wav

Peak level 98.8 %
Track quality 99.9 %
Test CRC 29982A10
Copy CRC 29982A10
Accurately ripped (confidence 10) [F1D71460]
Copy OK

Track 3

Filename D:\EAC Rips\03 - Running To Stand Still.wav

Peak level 98.8 %
Track quality 100.0 %
Test CRC C6022158
Copy CRC C6022158
Accurately ripped (confidence 10) [CC322E40]
Copy OK

Track 4

Filename D:\EAC Rips\04 - Where The Streets Have No Name.wav

Peak level 98.8 %
Track quality 99.9 %
Test CRC E2BF07CA
Copy CRC E2BF07CA
Accurately ripped (confidence 10) [B2ECCDA7]
Copy OK

Track 5

Filename D:\EAC Rips\05 - Pride (In the Name Of Love).wav

Peak level 100.0 %
Track quality 100.0 %
Test CRC 648F458E
Copy CRC 648F458E
Accurately ripped (confidence 10) [115CB479]
Copy OK

Track 6

Filename D:\EAC Rips\06 - Daddy's Gonna Pay For Your Crashed Car.wav

Peak level 98.8 %
Track quality 99.9 %
Test CRC 16316E5A
Copy CRC 16316E5A
Accurately ripped (confidence 10) [9E437BF3]
Copy OK

Track 7

Filename D:\EAC Rips\07 - Macphisto.wav

Peak level 98.3 %
Track quality 100.0 %
Test CRC 1560F6EA
Copy CRC 1560F6EA
Accurately ripped (confidence 10) [9293825C]
Copy OK

Track 8

Filename D:\EAC Rips\08 - Lemon.wav

Peak level 98.8 %
Track quality 100.0 %
Test CRC B2A57E68
Copy CRC B2A57E68
Accurately ripped (confidence 10) [F84EA819]
Copy OK

Track 9

Filename D:\EAC Rips\09 - With Or Without You.wav

Peak level 98.8 %
Track quality 99.9 %
Test CRC F90CE36E
Copy CRC F90CE36E
Accurately ripped (confidence 10) [EE6AB320]
Copy OK

Track 10

Filename D:\EAC Rips\10 - Love Is Blindness.wav

Peak level 100.0 %
Track quality 99.9 %
Test CRC D7FB04AD
Copy CRC D7FB04AD
Accurately ripped (confidence 10) [A7125D2D]
Copy OK

Track 11

Filename D:\EAC Rips\11 - Can't Help Falling In Love.wav

Peak level 98.3 %
Track quality 100.0 %
Test CRC 62A61C30
Copy CRC 62A61C30
Accurately ripped (confidence 10) [3F543E6C]
Copy OK

Track 12

Filename D:\EAC Rips\12 - Tryin' To Throw Your Arms Around The World.wav

Pre-gap length 0:00:06.41

Peak level 100.0 %
Track quality 100.0 %
Test CRC 9D6BECA5
Copy CRC 9D6BECA5
Accurately ripped (confidence 10) [EB528EF7]
Copy OK


All tracks accurately ripped

No errors occurred

End of status report


U2: Fan Club Only Releases (1995 - 2012)

Tracklist CD06-07 - 2007 - Go Home - Live From Slane Castle Ireland [U2.com3]:

CD1:
01.Elevation (4:59)
02.Beautiful Day (4:24)
03.Until the End of the World (5:17)
04.New Year's Day (4:53)
05.Out of Control (5:54)
06.Sunday Bloody Sunday (7:14)
07.Wake Up Dead Man (2:02)
08.Stuck in a Moment You Can't Get Out Of (5:40)
09.Kite (5:23)
10.Angel of Harlem (3:55)
11.Desire (3:29)

Exact Audio Copy V0.99 prebeta 3 from 28. July 2007

EAC extraction logfile from 25. April 2009, 13:29

U2 / U2 Go Home: Live from Slane Castle (Disc 1)

Used drive : Optiarc DVD RW AD-7203A Adapter: 1 ID: 1

Read mode : Secure
Utilize accurate stream : Yes
Defeat audio cache : Yes
Make use of C2 pointers : No

Read offset correction : 48
Overread into Lead-In and Lead-Out : No
Fill up missing offset samples with silence : Yes
Delete leading and trailing silent blocks : No
Null samples used in CRC calculations : Yes
Used interface : Native Win32 interface for Win NT & 2000
Gap handling : Appended to previous track

Used output format : User Defined Encoder
Selected bitrate : 768 kBit/s
Quality : High
Add ID3 tag : No
Command line compressor : D:\Program Files\Exact Audio Copy\Flac\flac.exe
Additional command line options : -8 -V -T "ARTIST=%a" -T "TITLE=%t" -T "ALBUM=%g" -T "DATE=%y" -T "TRACKNUMBER=%n" -T "GENRE=%m" -T "COMMENT=EAC FLAC -8" %s


TOC of the extracted CD

Track | Start | Length | Start sector | End sector
––––––––––––––––––––––––––––-
1 | 0:00.00 | 4:58.60 | 0 | 22409
2 | 4:58.60 | 4:24.13 | 22410 | 42222
3 | 9:22.73 | 5:17.31 | 42223 | 66028
4 | 14:40.29 | 4:53.09 | 66029 | 88012
5 | 19:33.38 | 5:54.03 | 88013 | 114565
6 | 25:27.41 | 7:13.50 | 114566 | 147090
7 | 32:41.16 | 2:01.48 | 147091 | 156213
8 | 34:42.64 | 5:39.73 | 156214 | 181711
9 | 40:22.62 | 5:22.40 | 181712 | 205901
10 | 45:45.27 | 3:54.64 | 205902 | 223515
11 | 49:40.16 | 3:28.68 | 223516 | 239183


Track 1

Filename D:\EAC Rips\01 - Elevation.wav

Pre-gap length 0:00:02.00

Peak level 99.9 %
Track quality 100.0 %
Test CRC 0D73B984
Copy CRC 0D73B984
Accurately ripped (confidence 11) [17ADE37C]
Copy OK

Track 2

Filename D:\EAC Rips\02 - Beautiful Day.wav

Peak level 99.9 %
Track quality 100.0 %
Test CRC EF67DA94
Copy CRC EF67DA94
Accurately ripped (confidence 11) [57D83257]
Copy OK

Track 3

Filename D:\EAC Rips\03 - Until the End of the World.wav

Peak level 100.0 %
Track quality 100.0 %
Test CRC FA80C9A5
Copy CRC FA80C9A5
Accurately ripped (confidence 10) [83A02174]
Copy OK

Track 4

Filename D:\EAC Rips\04 - New Year's Day.wav

Peak level 99.9 %
Track quality 100.0 %
Test CRC 2C38D337
Copy CRC 2C38D337
Accurately ripped (confidence 11) [2E865867]
Copy OK

Track 5

Filename D:\EAC Rips\05 - Out of Control.wav

Peak level 99.8 %
Track quality 100.0 %
Test CRC 58809289
Copy CRC 58809289
Accurately ripped (confidence 11) [A5DFC7DB]
Copy OK

Track 6

Filename D:\EAC Rips\06 - Sunday Bloody Sunday.wav

Peak level 100.0 %
Track quality 99.9 %
Test CRC C5DD442E
Copy CRC C5DD442E
Accurately ripped (confidence 11) [F58C11CF]
Copy OK

Track 7

Filename D:\EAC Rips\07 - Wake Up Dead Man.wav

Peak level 90.1 %
Track quality 100.0 %
Test CRC 5471C076
Copy CRC 5471C076
Accurately ripped (confidence 11) [96D89DE2]
Copy OK

Track 8

Filename D:\EAC Rips\08 - Stuck in a Moment You Can't Get Out Of.wav

Peak level 100.0 %
Track quality 100.0 %
Test CRC D7F95ECC
Copy CRC D7F95ECC
Accurately ripped (confidence 11) [891E608B]
Copy OK

Track 9

Filename D:\EAC Rips\09 - Kite.wav

Peak level 100.0 %
Track quality 100.0 %
Test CRC 7948F376
Copy CRC 7948F376
Accurately ripped (confidence 11) [723CEF0A]
Copy OK

Track 10

Filename D:\EAC Rips\10 - Angel of Harlem.wav

Peak level 99.8 %
Track quality 100.0 %
Test CRC FEC0044E
Copy CRC FEC0044E
Accurately ripped (confidence 10) [8376B4ED]
Copy OK

Track 11

Filename D:\EAC Rips\11 - Desire.wav

Peak level 99.6 %
Track quality 99.9 %
Test CRC 1E8B1180
Copy CRC 1E8B1180
Accurately ripped (confidence 10) [679C8D9E]
Copy OK


All tracks accurately ripped

No errors occurred

End of status report



CD2:
01.Staring at the Sun (4:16)
02.All I Want Is You (4:49)
03.Where the Streets Have No Name (5:40)
04.Pride (In the Name of Love) (4:58)
05.Bullet the Blue Sky (6:59)
06.With or Without You (6:23)
07.One (5:08)
08.Walk On (6:21)
09.Mysterious Ways (6:29)

Exact Audio Copy V0.99 prebeta 3 from 28. July 2007

EAC extraction logfile from 25. April 2009, 13:29

U2 / U2 Go Home: Live from Slane Castle (Disc 1)

Used drive : Optiarc DVD RW AD-7203A Adapter: 1 ID: 1

Read mode : Secure
Utilize accurate stream : Yes
Defeat audio cache : Yes
Make use of C2 pointers : No

Read offset correction : 48
Overread into Lead-In and Lead-Out : No
Fill up missing offset samples with silence : Yes
Delete leading and trailing silent blocks : No
Null samples used in CRC calculations : Yes
Used interface : Native Win32 interface for Win NT & 2000
Gap handling : Appended to previous track

Used output format : User Defined Encoder
Selected bitrate : 768 kBit/s
Quality : High
Add ID3 tag : No
Command line compressor : D:\Program Files\Exact Audio Copy\Flac\flac.exe
Additional command line options : -8 -V -T "ARTIST=%a" -T "TITLE=%t" -T "ALBUM=%g" -T "DATE=%y" -T "TRACKNUMBER=%n" -T "GENRE=%m" -T "COMMENT=EAC FLAC -8" %s


TOC of the extracted CD

Track | Start | Length | Start sector | End sector
––––––––––––––––––––––––––––-
1 | 0:00.00 | 4:58.60 | 0 | 22409
2 | 4:58.60 | 4:24.13 | 22410 | 42222
3 | 9:22.73 | 5:17.31 | 42223 | 66028
4 | 14:40.29 | 4:53.09 | 66029 | 88012
5 | 19:33.38 | 5:54.03 | 88013 | 114565
6 | 25:27.41 | 7:13.50 | 114566 | 147090
7 | 32:41.16 | 2:01.48 | 147091 | 156213
8 | 34:42.64 | 5:39.73 | 156214 | 181711
9 | 40:22.62 | 5:22.40 | 181712 | 205901
10 | 45:45.27 | 3:54.64 | 205902 | 223515
11 | 49:40.16 | 3:28.68 | 223516 | 239183


Track 1

Filename D:\EAC Rips\01 - Elevation.wav

Pre-gap length 0:00:02.00

Peak level 99.9 %
Track quality 100.0 %
Test CRC 0D73B984
Copy CRC 0D73B984
Accurately ripped (confidence 11) [17ADE37C]
Copy OK

Track 2

Filename D:\EAC Rips\02 - Beautiful Day.wav

Peak level 99.9 %
Track quality 100.0 %
Test CRC EF67DA94
Copy CRC EF67DA94
Accurately ripped (confidence 11) [57D83257]
Copy OK

Track 3

Filename D:\EAC Rips\03 - Until the End of the World.wav

Peak level 100.0 %
Track quality 100.0 %
Test CRC FA80C9A5
Copy CRC FA80C9A5
Accurately ripped (confidence 10) [83A02174]
Copy OK

Track 4

Filename D:\EAC Rips\04 - New Year's Day.wav

Peak level 99.9 %
Track quality 100.0 %
Test CRC 2C38D337
Copy CRC 2C38D337
Accurately ripped (confidence 11) [2E865867]
Copy OK

Track 5

Filename D:\EAC Rips\05 - Out of Control.wav

Peak level 99.8 %
Track quality 100.0 %
Test CRC 58809289
Copy CRC 58809289
Accurately ripped (confidence 11) [A5DFC7DB]
Copy OK

Track 6

Filename D:\EAC Rips\06 - Sunday Bloody Sunday.wav

Peak level 100.0 %
Track quality 99.9 %
Test CRC C5DD442E
Copy CRC C5DD442E
Accurately ripped (confidence 11) [F58C11CF]
Copy OK

Track 7

Filename D:\EAC Rips\07 - Wake Up Dead Man.wav

Peak level 90.1 %
Track quality 100.0 %
Test CRC 5471C076
Copy CRC 5471C076
Accurately ripped (confidence 11) [96D89DE2]
Copy OK

Track 8

Filename D:\EAC Rips\08 - Stuck in a Moment You Can't Get Out Of.wav

Peak level 100.0 %
Track quality 100.0 %
Test CRC D7F95ECC
Copy CRC D7F95ECC
Accurately ripped (confidence 11) [891E608B]
Copy OK

Track 9

Filename D:\EAC Rips\09 - Kite.wav

Peak level 100.0 %
Track quality 100.0 %
Test CRC 7948F376
Copy CRC 7948F376
Accurately ripped (confidence 11) [723CEF0A]
Copy OK

Track 10

Filename D:\EAC Rips\10 - Angel of Harlem.wav

Peak level 99.8 %
Track quality 100.0 %
Test CRC FEC0044E
Copy CRC FEC0044E
Accurately ripped (confidence 10) [8376B4ED]
Copy OK

Track 11

Filename D:\EAC Rips\11 - Desire.wav

Peak level 99.6 %
Track quality 99.9 %
Test CRC 1E8B1180
Copy CRC 1E8B1180
Accurately ripped (confidence 10) [679C8D9E]
Copy OK


All tracks accurately ripped

No errors occurred

End of status report


U2: Fan Club Only Releases (1995 - 2012)

Tracklist CD08-09 - 2009 - U2 Medium, Rare & Remastered [U2.com4]:

CD1:
01.Levitate (5:09)
02.Love You Like Mad (4:19)
03.Smile (3:18)
04.Flower Child (4:56)
05.Beautiful Ghost-Introduction To Songs Of Experience (3:55)
06.Jesus Christ (3:14)
07.Xanax And Wine (4:39)
08.All Because Of You (alternative version) (3:36)
09.Native Son (3:10)
10.Yahweh (alternative version) (4:32)

Exact Audio Copy V0.99 prebeta 4 from 23. January 2008

EAC extraction logfile from 9. April 2009, 19:24

U2 / U2 Medium, Rare & Remastered (CD 1)

Used drive : DVDRW IDE 16X Adapter: 1 ID: 1

Read mode : Secure
Utilize accurate stream : Yes
Defeat audio cache : Yes
Make use of C2 pointers : No

Read offset correction : 12
Overread into Lead-In and Lead-Out : No
Fill up missing offset samples with silence : Yes
Delete leading and trailing silent blocks : No
Null samples used in CRC calculations : Yes
Used interface : Native Win32 interface for Win NT & 2000
Gap handling : Appended to previous track

Used output format : User Defined Encoder
Selected bitrate : 320 kBit/s
Quality : High
Add ID3 tag : No
Command line compressor : C:\Program Files\FLAC\flac.exe
Additional command line options : -8 -V -T "ARTIST=%a" -T "TITLE=%t" -T "ALBUM=%g" -T "DATE=%y" -T "TRACKNUMBER=%n" -T "GENRE=%m" -T "COMMENT=EAC FLAC 1.2.1 -8" %s


TOC of the extracted CD

Track | Start | Length | Start sector | End sector
––––––––––––––––––––––––––––-
1 | 0:00.00 | 5:09.09 | 0 | 23183
2 | 5:09.09 | 4:18.45 | 23184 | 42578
3 | 9:27.54 | 3:18.09 | 42579 | 57437
4 | 12:45.63 | 4:55.73 | 57438 | 79635
5 | 17:41.61 | 3:55.35 | 79636 | 97295
6 | 21:37.21 | 3:13.56 | 97296 | 111826
7 | 24:51.02 | 4:39.23 | 111827 | 132774
8 | 29:30.25 | 3:35.72 | 132775 | 148971
9 | 33:06.22 | 3:09.71 | 148972 | 163217
10 | 36:16.18 | 4:31.43 | 163218 | 183585
11 | 40:47.61 | 5:30.45 | 183586 | 208380


Track 1

Filename E:\My Shared Files\U2 - U2 Medium, Rare & Remastered (2009) [FLAC] (2-CD) (Ltd. Ed.) (U2.com Subscription)\CD 1\01 - Levitate.wav

Pre-gap length 0:00:02.00

Peak level 99.9 %
Track quality 99.9 %
Test CRC 965313ED
Copy CRC 965313ED
Track not present in AccurateRip database
Copy OK

Track 2

Filename E:\My Shared Files\U2 - U2 Medium, Rare & Remastered (2009) [FLAC] (2-CD) (Ltd. Ed.) (U2.com Subscription)\CD 1\02 - Love You Like Mad.wav

Pre-gap length 0:00:00.08

Peak level 100.0 %
Track quality 100.0 %
Test CRC A2FC8986
Copy CRC A2FC8986
Track not present in AccurateRip database
Copy OK

Track 3

Filename E:\My Shared Files\U2 - U2 Medium, Rare & Remastered (2009) [FLAC] (2-CD) (Ltd. Ed.) (U2.com Subscription)\CD 1\03 - Smile.wav

Pre-gap length 0:00:01.37

Peak level 100.0 %
Track quality 100.0 %
Test CRC 52744A4C
Copy CRC 52744A4C
Track not present in AccurateRip database
Copy OK

Track 4

Filename E:\My Shared Files\U2 - U2 Medium, Rare & Remastered (2009) [FLAC] (2-CD) (Ltd. Ed.) (U2.com Subscription)\CD 1\04 - Flower Child.wav

Pre-gap length 0:00:01.22

Peak level 100.0 %
Track quality 100.0 %
Test CRC 0D17A824
Copy CRC 0D17A824
Track not present in AccurateRip database
Copy OK

Track 5

Filename E:\My Shared Files\U2 - U2 Medium, Rare & Remastered (2009) [FLAC] (2-CD) (Ltd. Ed.) (U2.com Subscription)\CD 1\05 - Beautiful Ghost-Introduction To Songs Of Experience.wav

Pre-gap length 0:00:01.50

Peak level 96.3 %
Track quality 100.0 %
Test CRC 66744CDC
Copy CRC 66744CDC
Track not present in AccurateRip database
Copy OK

Track 6

Filename E:\My Shared Files\U2 - U2 Medium, Rare & Remastered (2009) [FLAC] (2-CD) (Ltd. Ed.) (U2.com Subscription)\CD 1\06 - Jesus Christ.wav

Pre-gap length 0:00:02.73

Peak level 100.0 %
Track quality 100.0 %
Test CRC 61F7C9D7
Copy CRC 61F7C9D7
Track not present in AccurateRip database
Copy OK

Track 7

Filename E:\My Shared Files\U2 - U2 Medium, Rare & Remastered (2009) [FLAC] (2-CD) (Ltd. Ed.) (U2.com Subscription)\CD 1\07 - Xanax And Wine.wav

Pre-gap length 0:00:01.32

Peak level 100.0 %
Track quality 100.0 %
Test CRC DA2C40D9
Copy CRC DA2C40D9
Track not present in AccurateRip database
Copy OK

Track 8

Filename E:\My Shared Files\U2 - U2 Medium, Rare & Remastered (2009) [FLAC] (2-CD) (Ltd. Ed.) (U2.com Subscription)\CD 1\08 - All Because Of You (alternative version).wav

Pre-gap length 0:00:00.24

Peak level 99.8 %
Track quality 100.0 %
Test CRC E69B3A5C
Copy CRC E69B3A5C
Track not present in AccurateRip database
Copy OK

Track 9

Filename E:\My Shared Files\U2 - U2 Medium, Rare & Remastered (2009) [FLAC] (2-CD) (Ltd. Ed.) (U2.com Subscription)\CD 1\09 - Native Son.wav

Pre-gap length 0:00:00.38

Peak level 94.3 %
Track quality 99.9 %
Test CRC 1419A45B
Copy CRC 1419A45B
Track not present in AccurateRip database
Copy OK

Track 10

Filename E:\My Shared Files\U2 - U2 Medium, Rare & Remastered (2009) [FLAC] (2-CD) (Ltd. Ed.) (U2.com Subscription)\CD 1\10 - Yahweh (alternative version).wav

Pre-gap length 0:00:01.32

Peak level 94.4 %
Track quality 100.0 %
Test CRC 40B3977A
Copy CRC 40B3977A
Track not present in AccurateRip database
Copy OK

Track 11

Filename E:\My Shared Files\U2 - U2 Medium, Rare & Remastered (2009) [FLAC] (2-CD) (Ltd. Ed.) (U2.com Subscription)\CD 1\11 - Sometimes You Can't Make It On Your Own (alternative version).wav

Pre-gap length 0:00:00.12

Peak level 100.0 %
Track quality 100.0 %
Test CRC D965068F
Copy CRC D965068F
Track not present in AccurateRip database
Copy OK


None of the tracks are present in the AccurateRip database

No errors occurred

End of status report



CD2:
11.Sometimes You Can't Make It On Your Own (alternative version) (5:31)
01.Saturday Night (5:12)
02.Trash, Trampoline And The Party Girl (2:36)
03.Angels Too Tied To The Ground (3:35)
04.Wave Of Sorrow (Birdland) (4:07)
05.Always (3:49)
06.Summer Rain (4:08)
07.Big Girls Are Best (3:37)
08.Fast Cars (Jacknife Lee Remix) (3:30)
09.Neon Lights (4:07)

Exact Audio Copy V0.99 prebeta 4 from 23. January 2008

EAC extraction logfile from 9. April 2009, 19:53

U2 / U2 Medium, Rare & Remastered (CD 2)

Used drive : DVDRW IDE 16X Adapter: 1 ID: 1

Read mode : Secure
Utilize accurate stream : Yes
Defeat audio cache : Yes
Make use of C2 pointers : No

Read offset correction : 12
Overread into Lead-In and Lead-Out : No
Fill up missing offset samples with silence : Yes
Delete leading and trailing silent blocks : No
Null samples used in CRC calculations : Yes
Used interface : Native Win32 interface for Win NT & 2000
Gap handling : Appended to previous track

Used output format : User Defined Encoder
Selected bitrate : 320 kBit/s
Quality : High
Add ID3 tag : No
Command line compressor : C:\Program Files\FLAC\flac.exe
Additional command line options : -8 -V -T "ARTIST=%a" -T "TITLE=%t" -T "ALBUM=%g" -T "DATE=%y" -T "TRACKNUMBER=%n" -T "GENRE=%m" -T "COMMENT=EAC FLAC 1.2.1 -8" %s


TOC of the extracted CD

Track | Start | Length | Start sector | End sector
––––––––––––––––––––––––––––-
1 | 0:00.00 | 5:12.09 | 0 | 23408
2 | 5:12.09 | 2:35.59 | 23409 | 35092
3 | 7:47.68 | 3:35.26 | 35093 | 51243
4 | 11:23.19 | 4:06.38 | 51244 | 69731
5 | 15:29.57 | 3:48.45 | 69732 | 86876
6 | 19:18.27 | 4:07.67 | 86877 | 105468
7 | 23:26.19 | 3:37.28 | 105469 | 121771
8 | 27:03.47 | 3:30.18 | 121772 | 137539
9 | 30:33.65 | 4:07.18 | 137540 | 156082


Track 1

Filename E:\My Shared Files\U2 - U2 Medium, Rare & Remastered (2009) [FLAC] (2-CD) (Ltd. Ed.) (U2.com Subscription)\CD 2\01 - Saturday Night.wav

Pre-gap length 0:00:02.00

Peak level 100.0 %
Track quality 99.9 %
Test CRC C99A1861
Copy CRC C99A1861
Track not present in AccurateRip database
Copy OK

Track 2

Filename E:\My Shared Files\U2 - U2 Medium, Rare & Remastered (2009) [FLAC] (2-CD) (Ltd. Ed.) (U2.com Subscription)\CD 2\02 - Trash, Trampoline And The Party Girl.wav

Pre-gap length 0:00:00.39

Peak level 100.0 %
Track quality 100.0 %
Test CRC A49789B6
Copy CRC A49789B6
Track not present in AccurateRip database
Copy OK

Track 3

Filename E:\My Shared Files\U2 - U2 Medium, Rare & Remastered (2009) [FLAC] (2-CD) (Ltd. Ed.) (U2.com Subscription)\CD 2\03 - Angels Too Tied To The Ground.wav

Peak level 98.0 %
Track quality 100.0 %
Test CRC CA74D4C4
Copy CRC CA74D4C4
Track not present in AccurateRip database
Copy OK

Track 4

Filename E:\My Shared Files\U2 - U2 Medium, Rare & Remastered (2009) [FLAC] (2-CD) (Ltd. Ed.) (U2.com Subscription)\CD 2\04 - Wave Of Sorrow (Birdland).wav

Pre-gap length 0:00:00.74

Peak level 100.0 %
Track quality 100.0 %
Test CRC C8A3141C
Copy CRC C8A3141C
Track not present in AccurateRip database
Copy OK

Track 5

Filename E:\My Shared Files\U2 - U2 Medium, Rare & Remastered (2009) [FLAC] (2-CD) (Ltd. Ed.) (U2.com Subscription)\CD 2\05 - Always.wav

Pre-gap length 0:00:02.42

Peak level 93.3 %
Track quality 100.0 %
Test CRC 76DA0D17
Copy CRC 76DA0D17
Track not present in AccurateRip database
Copy OK

Track 6

Filename E:\My Shared Files\U2 - U2 Medium, Rare & Remastered (2009) [FLAC] (2-CD) (Ltd. Ed.) (U2.com Subscription)\CD 2\06 - Summer Rain.wav

Pre-gap length 0:00:01.49

Peak level 100.0 %
Track quality 100.0 %
Test CRC C490FE28
Copy CRC C490FE28
Track not present in AccurateRip database
Copy OK

Track 7

Filename E:\My Shared Files\U2 - U2 Medium, Rare & Remastered (2009) [FLAC] (2-CD) (Ltd. Ed.) (U2.com Subscription)\CD 2\07 - Big Girls Are Best.wav

Pre-gap length 0:00:00.10

Peak level 90.1 %
Track quality 100.0 %
Test CRC 11A238EA
Copy CRC 11A238EA
Track not present in AccurateRip database
Copy OK

Track 8

Filename E:\My Shared Files\U2 - U2 Medium, Rare & Remastered (2009) [FLAC] (2-CD) (Ltd. Ed.) (U2.com Subscription)\CD 2\08 - Fast Cars (Jacknife Lee Remix).wav

Pre-gap length 0:00:01.59

Peak level 98.8 %
Track quality 100.0 %
Test CRC 4906A39F
Copy CRC 4906A39F
Track not present in AccurateRip database
Copy OK

Track 9

Filename E:\My Shared Files\U2 - U2 Medium, Rare & Remastered (2009) [FLAC] (2-CD) (Ltd. Ed.) (U2.com Subscription)\CD 2\09 - Neon Lights.wav

Pre-gap length 0:00:02.33

Peak level 98.8 %
Track quality 100.0 %
Test CRC 7CAC29FC
Copy CRC 7CAC29FC
Track not present in AccurateRip database
Copy OK


None of the tracks are present in the AccurateRip database

No errors occurred

End of status report


U2: Fan Club Only Releases (1995 - 2012)

Tracklist CD10 - 2010 - Artificial Horizon [U2.com5]:

01.Elevation (Influx Mix) (4:04)
02.Fast Cars (Jacknife Lee Mix) (3:30)
03.Get On Your Boots (Fish Out Of Water Mix) (3:47)
04.Vertigo (Trent Reznor Remix) (3:39)
05.Magnificent (Falke Radio Mix) (4:02)
06.I'll Go Crazy If I Don't Go Crazy Tonight (Live U2360 Remix) (6:47)
07.Beautiful Day (David Holmes Remix) (5:37)
08.Staring At The Sun (Monster Truck Remix) (5:09)
09.Happiness Is A Warm Gun (Danny Saber Mix) (4:54)
10.Get On Your Boots (Justice Remix) (3:29)
11.City Of Blinding Lights (Hot Chip 2006 Remix) (6:19)
12.If God Will Send His Angels (Grand Jury Mix) (5:46)
13.Staring At The Sun (Brothers In Rhythm Ambient Mix) (5:29)

Exact Audio Copy V0.99 prebeta 5 from 4. May 2009

EAC extraction logfile from 12. March 2010, 11:33

U2 / Artificial Horizon

Used drive : DVDRW IDE 16X Adapter: 1 ID: 1

Read mode : Secure
Utilize accurate stream : Yes
Defeat audio cache : Yes
Make use of C2 pointers : No

Read offset correction : 12
Overread into Lead-In and Lead-Out : No
Fill up missing offset samples with silence : Yes
Delete leading and trailing silent blocks : No
Null samples used in CRC calculations : Yes
Used interface : Native Win32 interface for Win NT & 2000
Gap handling : Appended to previous track

Used output format : User Defined Encoder
Selected bitrate : 320 kBit/s
Quality : High
Add ID3 tag : No
Command line compressor : C:\Program Files\FLAC\flac.exe
Additional command line options : -8 -V -T "ARTIST=%a" -T "TITLE=%t" -T "ALBUM=%g" -T "DATE=%y" -T "TRACKNUMBER=%n" -T "GENRE=%m" -T "COMMENT=EAC FLAC 1.2.1 -8" %s


TOC of the extracted CD

Track | Start | Length | Start sector | End sector
––––––––––––––––––––––––––––-
1 | 0:00.00 | 4:04.01 | 0 | 18300
2 | 4:04.01 | 3:30.21 | 18301 | 34071
3 | 7:34.22 | 3:46.53 | 34072 | 51074
4 | 11:21.00 | 3:38.73 | 51075 | 67497
5 | 14:59.73 | 4:01.49 | 67498 | 85621
6 | 19:01.47 | 6:46.71 | 85622 | 116142
7 | 25:48.43 | 5:36.61 | 116143 | 141403
8 | 31:25.29 | 5:09.32 | 141404 | 164610
9 | 36:34.61 | 4:53.38 | 164611 | 186623
10 | 41:28.24 | 3:29.03 | 186624 | 202301
11 | 44:57.27 | 6:19.20 | 202302 | 230746
12 | 51:16.47 | 5:46.19 | 230747 | 256715
13 | 57:02.66 | 5:28.51 | 256716 | 281366


Track 1

Filename E:\My Shared Files\U2 - Artificial Horizon (2010) [FLAC] {Ltd. Ed.} (U2.com Subscription)\01 - Elevation (Influx Mix).wav

Pre-gap length 0:00:02.00

Peak level 76.7 %
Track quality 100.0 %
Test CRC A360BF90
Copy CRC A360BF90
Track not present in AccurateRip database
Copy OK

Track 2

Filename E:\My Shared Files\U2 - Artificial Horizon (2010) [FLAC] {Ltd. Ed.} (U2.com Subscription)\02 - Fast Cars (Jacknife Lee Mix).wav

Pre-gap length 0:00:01.52

Peak level 78.5 %
Track quality 100.0 %
Test CRC 6ACC7806
Copy CRC 6ACC7806
Track not present in AccurateRip database
Copy OK

Track 3

Filename E:\My Shared Files\U2 - Artificial Horizon (2010) [FLAC] {Ltd. Ed.} (U2.com Subscription)\03 - Get On Your Boots (Fish Out Of Water Mix).wav

Pre-gap length 0:00:02.41

Peak level 100.0 %
Track quality 100.0 %
Test CRC 99B2AA88
Copy CRC 99B2AA88
Track not present in AccurateRip database
Copy OK

Track 4

Filename E:\My Shared Files\U2 - Artificial Horizon (2010) [FLAC] {Ltd. Ed.} (U2.com Subscription)\04 - Vertigo (Trent Reznor Remix).wav

Pre-gap length 0:00:03.32

Peak level 98.8 %
Track quality 100.0 %
Test CRC 4CEB15E8
Copy CRC 4CEB15E8
Track not present in AccurateRip database
Copy OK

Track 5

Filename E:\My Shared Files\U2 - Artificial Horizon (2010) [FLAC] {Ltd. Ed.} (U2.com Subscription)\05 - Magnificent (Falke Radio Mix).wav

Pre-gap length 0:00:03.12

Peak level 98.8 %
Track quality 100.0 %
Test CRC F31FE470
Copy CRC F31FE470
Track not present in AccurateRip database
Copy OK

Track 6

Filename E:\My Shared Files\U2 - Artificial Horizon (2010) [FLAC] {Ltd. Ed.} (U2.com Subscription)\06 - I'll Go Crazy If I Don't Go Crazy Tonight (Live U2360 Remix).wav

Pre-gap length 0:00:02.60

Peak level 100.0 %
Track quality 100.0 %
Test CRC 7D6B550A
Copy CRC 7D6B550A
Track not present in AccurateRip database
Copy OK

Track 7

Filename E:\My Shared Files\U2 - Artificial Horizon (2010) [FLAC] {Ltd. Ed.} (U2.com Subscription)\07 - Beautiful Day (David Holmes Remix).wav

Pre-gap length 0:00:02.39

Peak level 94.6 %
Track quality 100.0 %
Test CRC EB332D37
Copy CRC EB332D37
Track not present in AccurateRip database
Copy OK

Track 8

Filename E:\My Shared Files\U2 - Artificial Horizon (2010) [FLAC] {Ltd. Ed.} (U2.com Subscription)\08 - Staring At The Sun (Monster Truck Remix).wav

Pre-gap length 0:00:01.15

Peak level 98.7 %
Track quality 100.0 %
Test CRC EFC9D022
Copy CRC EFC9D022
Track not present in AccurateRip database
Copy OK

Track 9

Filename E:\My Shared Files\U2 - Artificial Horizon (2010) [FLAC] {Ltd. Ed.} (U2.com Subscription)\09 - Happiness Is A Warm Gun (Danny Saber Mix).wav

Pre-gap length 0:00:02.25

Peak level 100.0 %
Track quality 99.9 %
Test CRC 2DD5F965
Copy CRC 2DD5F965
Track not present in AccurateRip database
Copy OK

Track 10

Filename E:\My Shared Files\U2 - Artificial Horizon (2010) [FLAC] {Ltd. Ed.} (U2.com Subscription)\10 - Get On Your Boots (Justice Remix).wav

Pre-gap length 0:00:02.11

Peak level 90.1 %
Track quality 100.0 %
Test CRC 0BFFA4ED
Copy CRC 0BFFA4ED
Track not present in AccurateRip database
Copy OK

Track 11

Filename E:\My Shared Files\U2 - Artificial Horizon (2010) [FLAC] {Ltd. Ed.} (U2.com Subscription)\11 - City Of Blinding Lights (Hot Chip 2006 Remix).wav

Pre-gap length 0:00:02.62

Peak level 100.0 %
Track quality 100.0 %
Test CRC 8B2CA04E
Copy CRC 8B2CA04E
Track not present in AccurateRip database
Copy OK

Track 12

Filename E:\My Shared Files\U2 - Artificial Horizon (2010) [FLAC] {Ltd. Ed.} (U2.com Subscription)\12 - If God Will Send His Angels (Grand Jury Mix).wav

Pre-gap length 0:00:02.42

Peak level 100.0 %
Track quality 99.9 %
Test CRC F12504C8
Copy CRC F12504C8
Track not present in AccurateRip database
Copy OK

Track 13

Filename E:\My Shared Files\U2 - Artificial Horizon (2010) [FLAC] {Ltd. Ed.} (U2.com Subscription)\13 - Staring At The Sun (Brothers In Rhythm Ambient Mix).wav

Pre-gap length 0:00:01.24

Peak level 97.9 %
Track quality 99.9 %
Test CRC 421D01A1
Copy CRC 421D01A1
Track not present in AccurateRip database
Copy OK


None of the tracks are present in the AccurateRip database

No errors occurred

End of status report


U2: Fan Club Only Releases (1995 - 2012)

Tracklist CD11 - 2011 - Duals [U2.com6]:

01.Where The Streets Have No Name (with Soweto Gospel Choir) (5:39)
02.The Wanderer (with Johnny Cash) (4:44)
03.Falling At Your Feet (Bono and Danny Lanois) (4:55)
04.Miss Sarajevo (Passengers and Luciano Pavarotti) (5:44)
05.Slow Dancing (with Willie Nelson) (4:01)
06.The Saints Are Coming (with Green Day) (3:22)
07.Sunday Bloody Sunday (Live from Auckland) (with Jay-Z) (4:30)
08.One (with Mary J Blige) (4:22)
09.When Love Comes To Town (with BB King) (4:15)
10.Stuck In A Moment You Can't Get Out Of (Live at the Rock & Roll Hall of Fame) (with Mick Jagger) (4:29)
11.The Ballad Of Ronnie Drew (with The Dubliners, Kila, A Band of Bowsies) (4:51)
12.I'm Not Your Baby (with Sinead O'Connor) (5:50)
13.Stranded (Haiti Mon Amour) - Hybrid Mix (Jay-Z, Bono, The Edge, Rihanna) (4:22)
14.Drunk Chicken/America (with Allen Ginsberg) (1:34)
15.Amazing Grace (with Soweto Gospel Choir) (1:34)

Exact Audio Copy V1.0 beta 1 from 15. November 2010

EAC extraction logfile from 13. June 2011, 22:22

U2 / Duals

Used drive : DVDRW IDE 16X Adapter: 3 ID: 0

Read mode : Secure
Utilize accurate stream : Yes
Defeat audio cache : Yes
Make use of C2 pointers : No

Read offset correction : 12
Overread into Lead-In and Lead-Out : No
Fill up missing offset samples with silence : Yes
Delete leading and trailing silent blocks : No
Null samples used in CRC calculations : Yes
Used interface : Native Win32 interface for Win NT & 2000
Gap handling : Appended to previous track

Used output format : User Defined Encoder
Selected bitrate : 320 kBit/s
Quality : High
Add ID3 tag : No
Command line compressor : C:\Program Files (x86)\FLAC\flac.exe
Additional command line options : -8 -V -T "ARTIST=%a" -T "TITLE=%t" -T "ALBUM=%g" -T "DATE=%y" -T "TRACKNUMBER=%n" -T "GENRE=%m" -T "COMMENT=EAC FLAC 1.2.1 -8" %s


TOC of the extracted CD

Track | Start | Length | Start sector | End sector
––––––––––––––––––––––––––––-
1 | 0:00.00 | 5:39.33 | 0 | 25457
2 | 5:39.33 | 4:43.50 | 25458 | 46732
3 | 10:23.08 | 4:54.65 | 46733 | 68847
4 | 15:17.73 | 5:43.38 | 68848 | 94610
5 | 21:01.36 | 4:01.33 | 94611 | 112718
6 | 25:02.69 | 3:22.25 | 112719 | 127893
7 | 28:25.19 | 4:30.20 | 127894 | 148163
8 | 32:55.39 | 4:21.72 | 148164 | 167810
9 | 37:17.36 | 4:14.41 | 167811 | 186901
10 | 41:32.02 | 4:28.45 | 186902 | 207046
11 | 46:00.47 | 4:51.30 | 207047 | 228901
12 | 50:52.02 | 5:50.11 | 228902 | 255162
13 | 56:42.13 | 4:21.45 | 255163 | 274782
14 | 61:03.58 | 1:33.39 | 274783 | 281796
15 | 62:37.22 | 1:33.47 | 281797 | 288818


Track 1

Filename E:\U2 - Duals (2011) [FLAC] {Ltd. Ed.} (U2.com Subscription)\01 - Where The Streets Have No Name (with Soweto Gospel Choir).wav

Pre-gap length 0:00:02.00

Peak level 91.8 %
Extraction speed 5.3 X
Track quality 100.0 %
Test CRC 4287A2F7
Copy CRC 4287A2F7
Accurately ripped (confidence 12) [5C49E1EF]
Copy OK

Track 2

Filename E:\U2 - Duals (2011) [FLAC] {Ltd. Ed.} (U2.com Subscription)\02 - The Wanderer (with Johnny Cash).wav

Pre-gap length 0:00:00.29

Peak level 99.6 %
Extraction speed 5.9 X
Track quality 100.0 %
Test CRC 2715EB5F
Copy CRC 2715EB5F
Accurately ripped (confidence 12) [01427CC9]
Copy OK

Track 3

Filename E:\U2 - Duals (2011) [FLAC] {Ltd. Ed.} (U2.com Subscription)\03 - Falling At Your Feet (Bono and Danny Lanois).wav

Peak level 99.7 %
Extraction speed 2.6 X
Track quality 99.9 %
Test CRC 11D1E6C8
Copy CRC 11D1E6C8
Accurately ripped (confidence 12) [121B4B4B]
Copy OK

Track 4

Filename E:\U2 - Duals (2011) [FLAC] {Ltd. Ed.} (U2.com Subscription)\04 - Miss Sarajevo (Passengers and Luciano Pavarotti).wav

Peak level 100.0 %
Extraction speed 7.2 X
Track quality 100.0 %
Test CRC 11223B45
Copy CRC 11223B45
Accurately ripped (confidence 12) [FB8EF050]
Copy OK

Track 5

Filename E:\U2 - Duals (2011) [FLAC] {Ltd. Ed.} (U2.com Subscription)\05 - Slow Dancing (with Willie Nelson).wav

Pre-gap length 0:00:00.37

Peak level 100.0 %
Extraction speed 7.3 X
Track quality 100.0 %
Test CRC A56B03C1
Copy CRC A56B03C1
Accurately ripped (confidence 12) [64937C02]
Copy OK

Track 6

Filename E:\U2 - Duals (2011) [FLAC] {Ltd. Ed.} (U2.com Subscription)\06 - The Saints Are Coming (with Green Day).wav

Pre-gap length 0:00:00.41

Peak level 78.0 %
Extraction speed 7.5 X
Track quality 100.0 %
Test CRC 535803A1
Copy CRC 535803A1
Accurately ripped (confidence 12) [7C08AD39]
Copy OK

Track 7

Filename E:\U2 - Duals (2011) [FLAC] {Ltd. Ed.} (U2.com Subscription)\07 - Sunday Bloody Sunday (Live from Auckland) (with Jay-Z).wav

Pre-gap length 0:00:00.34

Peak level 98.5 %
Extraction speed 8.1 X
Track quality 100.0 %
Test CRC 308AA197
Copy CRC 308AA197
Accurately ripped (confidence 12) [6A8DFADA]
Copy OK

Track 8

Filename E:\U2 - Duals (2011) [FLAC] {Ltd. Ed.} (U2.com Subscription)\08 - One (with Mary J Blige).wav

Pre-gap length 0:00:01.34

Peak level 67.8 %
Extraction speed 8.5 X
Track quality 100.0 %
Test CRC 830D0F27
Copy CRC 830D0F27
Accurately ripped (confidence 12) [6C5DBC6C]
Copy OK

Track 9

Filename E:\U2 - Duals (2011) [FLAC] {Ltd. Ed.} (U2.com Subscription)\09 - When Love Comes To Town (with BB King).wav

Pre-gap length 0:00:00.54

Peak level 99.8 %
Extraction speed 8.7 X
Track quality 100.0 %
Test CRC 391643C1
Copy CRC 391643C1
Accurately ripped (confidence 12) [7E56B245]
Copy OK

Track 10

Filename E:\U2 - Duals (2011) [FLAC] {Ltd. Ed.} (U2.com Subscription)\10 - Stuck In A Moment You Can't Get Out Of (Live at the Rock & Roll Hall of Fame) (with Mick Jagger).wav

Pre-gap length 0:00:00.35

Peak level 98.8 %
Extraction speed 9.1 X
Track quality 100.0 %
Test CRC EC853E01
Copy CRC EC853E01
Accurately ripped (confidence 12) [A0BFF643]
Copy OK

Track 11

Filename E:\U2 - Duals (2011) [FLAC] {Ltd. Ed.} (U2.com Subscription)\11 - The Ballad Of Ronnie Drew (with The Dubliners, Kila, A Band of Bowsies).wav

Pre-gap length 0:00:01.29

Peak level 100.0 %
Extraction speed 9.5 X
Track quality 100.0 %
Test CRC C741BD16
Copy CRC C741BD16
Accurately ripped (confidence 12) [3A161E4B]
Copy OK

Track 12

Filename E:\U2 - Duals (2011) [FLAC] {Ltd. Ed.} (U2.com Subscription)\12 - I'm Not Your Baby (with Sinead O'Connor).wav

Pre-gap length 0:00:01.14

Peak level 100.0 %
Extraction speed 10.0 X
Track quality 100.0 %
Test CRC E1C140EA
Copy CRC E1C140EA
Accurately ripped (confidence 12) [63CFECAA]
Copy OK

Track 13

Filename E:\U2 - Duals (2011) [FLAC] {Ltd. Ed.} (U2.com Subscription)\13 - Stranded (Haiti Mon Amour) - Hybrid Mix (Jay-Z, Bono, The Edge, Rihanna).wav

Pre-gap length 0:00:00.34

Peak level 98.7 %
Extraction speed 9.8 X
Track quality 100.0 %
Test CRC A6927966
Copy CRC A6927966
Accurately ripped (confidence 12) [2CBDE20F]
Copy OK

Track 14

Filename E:\U2 - Duals (2011) [FLAC] {Ltd. Ed.} (U2.com Subscription)\14 - Drunk Chicken~America (with Allen Ginsberg).wav

Pre-gap length 0:00:02.15

Peak level 87.7 %
Extraction speed 7.9 X
Track quality 100.0 %
Test CRC 9F91BBA4
Copy CRC 9F91BBA4
Accurately ripped (confidence 12) [731658F3]
Copy OK

Track 15

Filename E:\U2 - Duals (2011) [FLAC] {Ltd. Ed.} (U2.com Subscription)\15 - Amazing Grace (with Soweto Gospel Choir).wav

Pre-gap length 0:00:02.19

Peak level 72.6 %
Extraction speed 1.1 X
Track quality 99.8 %
Test CRC 4EFEA121
Copy CRC 4EFEA121
Accurately ripped (confidence 12) [995DEFEA]
Copy OK


All tracks accurately ripped

No errors occurred

End of status report

==== Log checksum 3615338B18A36120E8294C194D3825198DDBFE9E5D622EB58A80105662F5293B ====


U2: Fan Club Only Releases (1995 - 2012)

Tracklist CD12 - 2012 - From The Ground Up - Edge's Picks From U2360° [U2.com8]:

01.Breathe (5:34)
02.I Will Follow (3:55)
03.Get On Your Boots (4:07)
04.New Year's Day (4:48)
05.Electrical Storm (4:48)
06.Stuck In A Moment You Can't Get Out Of (4:48)
07.Your Blue Room (4:19)
08.Vertigo (4:08)
09.I'll Go Crazy If I Don't Go Crazy Tonight (6:30)
10.Sunday Bloody Sunday (4:11)
11.Scarlet (2:30)
12.In A Little While (3:35)
13.Miss Sarajevo (4:11)
14.Hold Me, Thrill Me, Kiss Me, Kill Me (5:18)
15.'40' (4:54)

Exact Audio Copy V1.0 beta 3 from 29. August 2011

EAC extraction logfile from 22. December 2012, 13:33

U2 / From The Ground Up: Edge's Picks From U2360

Used drive : DVDRW IDE 16X Adapter: 3 ID: 0

Read mode : Secure
Utilize accurate stream : Yes
Defeat audio cache : Yes
Make use of C2 pointers : No

Read offset correction : 12
Overread into Lead-In and Lead-Out : No
Fill up missing offset samples with silence : Yes
Delete leading and trailing silent blocks : No
Null samples used in CRC calculations : Yes
Used interface : Native Win32 interface for Win NT & 2000
Gap handling : Appended to previous track

Used output format : User Defined Encoder
Selected bitrate : 320 kBit/s
Quality : High
Add ID3 tag : No
Command line compressor : C:\Program Files (x86)\FLAC\flac.exe
Additional command line options : -8 -V -T "ARTIST=%artist%" -T "TITLE=%title%" -T "ALBUM=%albumtitle%" -T "DATE=%year%" -T "TRACKNUMBER=%tracknr%" -T "GENRE=%genre%" -T "COMMENT=EAC FLAC 1.2.1 -8" %source%


TOC of the extracted CD

Track | Start | Length | Start sector | End sector
––––––––––––––––––––––––––––-
1 | 0:00.00 | 5:33.46 | 0 | 25020
2 | 5:33.46 | 3:54.70 | 25021 | 42640
3 | 9:28.41 | 4:07.24 | 42641 | 61189
4 | 13:35.65 | 4:48.37 | 61190 | 82826
5 | 18:24.27 | 4:48.26 | 82827 | 104452
6 | 23:12.53 | 4:48.27 | 104453 | 126079
7 | 28:01.05 | 4:18.46 | 126080 | 145475
8 | 32:19.51 | 4:08.30 | 145476 | 164105
9 | 36:28.06 | 6:29.38 | 164106 | 193318
10 | 42:57.44 | 4:11.29 | 193319 | 212172
11 | 47:08.73 | 2:29.51 | 212173 | 223398
12 | 49:38.49 | 3:34.69 | 223399 | 239517
13 | 53:13.43 | 4:10.73 | 239518 | 258340
14 | 57:24.41 | 5:18.09 | 258341 | 282199
15 | 62:42.50 | 4:53.74 | 282200 | 304248


Track 1

Filename E:\U2 - From The Ground Up (Edge's Picks From U2360) (2012) [FLAC] (Live) {Ltd. Ed.} (U2.com Music Ed. Subscription)\01 - Breathe.wav

Pre-gap length 0:00:02.00

Peak level 100.0 %
Extraction speed 2.8 X
Track quality 99.9 %
Test CRC A4510286
Copy CRC A4510286
Track not present in AccurateRip database
Copy OK

Track 2

Filename E:\U2 - From The Ground Up (Edge's Picks From U2360) (2012) [FLAC] (Live) {Ltd. Ed.} (U2.com Music Ed. Subscription)\02 - I Will Follow.wav

Peak level 100.0 %
Extraction speed 6.3 X
Track quality 100.0 %
Test CRC C91FBF4A
Copy CRC C91FBF4A
Track not present in AccurateRip database
Copy OK

Track 3

Filename E:\U2 - From The Ground Up (Edge's Picks From U2360) (2012) [FLAC] (Live) {Ltd. Ed.} (U2.com Music Ed. Subscription)\03 - Get On Your Boots.wav

Peak level 100.0 %
Extraction speed 2.4 X
Track quality 99.9 %
Test CRC 016B6D25
Copy CRC 016B6D25
Track not present in AccurateRip database
Copy OK

Track 4

Filename E:\U2 - From The Ground Up (Edge's Picks From U2360) (2012) [FLAC] (Live) {Ltd. Ed.} (U2.com Music Ed. Subscription)\04 - New Year's Day.wav

Peak level 100.0 %
Extraction speed 2.7 X
Track quality 99.9 %
Test CRC 1F6A8926
Copy CRC 1F6A8926
Track not present in AccurateRip database
Copy OK

Track 5

Filename E:\U2 - From The Ground Up (Edge's Picks From U2360) (2012) [FLAC] (Live) {Ltd. Ed.} (U2.com Music Ed. Subscription)\05 - Electrical Storm.wav

Peak level 100.0 %
Extraction speed 7.9 X
Track quality 100.0 %
Test CRC F3916F1D
Copy CRC F3916F1D
Track not present in AccurateRip database
Copy OK

Track 6

Filename E:\U2 - From The Ground Up (Edge's Picks From U2360) (2012) [FLAC] (Live) {Ltd. Ed.} (U2.com Music Ed. Subscription)\06 - Stuck In A Moment You Can't Get Out Of.wav

Peak level 100.0 %
Extraction speed 8.4 X
Track quality 100.0 %
Test CRC B33E1148
Copy CRC B33E1148
Track not present in AccurateRip database
Copy OK

Track 7

Filename E:\U2 - From The Ground Up (Edge's Picks From U2360) (2012) [FLAC] (Live) {Ltd. Ed.} (U2.com Music Ed. Subscription)\07 - Your Blue Room.wav

Peak level 100.0 %
Extraction speed 2.6 X
Track quality 99.9 %
Test CRC A38A18A5
Copy CRC A38A18A5
Track not present in AccurateRip database
Copy OK

Track 8

Filename E:\U2 - From The Ground Up (Edge's Picks From U2360) (2012) [FLAC] (Live) {Ltd. Ed.} (U2.com Music Ed. Subscription)\08 - Vertigo.wav

Peak level 100.0 %
Extraction speed 8.9 X
Track quality 100.0 %
Test CRC 9C37ADE6
Copy CRC 9C37ADE6
Track not present in AccurateRip database
Copy OK

Track 9

Filename E:\U2 - From The Ground Up (Edge's Picks From U2360) (2012) [FLAC] (Live) {Ltd. Ed.} (U2.com Music Ed. Subscription)\09 - I'll Go Crazy If I Don't Go Crazy Tonight.wav

Peak level 100.0 %
Extraction speed 9.8 X
Track quality 100.0 %
Test CRC 30858AB2
Copy CRC 30858AB2
Track not present in AccurateRip database
Copy OK

Track 10

Filename E:\U2 - From The Ground Up (Edge's Picks From U2360) (2012) [FLAC] (Live) {Ltd. Ed.} (U2.com Music Ed. Subscription)\10 - Sunday Bloody Sunday.wav

Peak level 100.0 %
Extraction speed 9.7 X
Track quality 100.0 %
Test CRC 345D7627
Copy CRC 345D7627
Track not present in AccurateRip database
Copy OK

Track 11

Filename E:\U2 - From The Ground Up (Edge's Picks From U2360) (2012) [FLAC] (Live) {Ltd. Ed.} (U2.com Music Ed. Subscription)\11 - Scarlet.wav

Peak level 100.0 %
Extraction speed 9.1 X
Track quality 100.0 %
Test CRC 30345F3E
Copy CRC 30345F3E
Track not present in AccurateRip database
Copy OK

Track 12

Filename E:\U2 - From The Ground Up (Edge's Picks From U2360) (2012) [FLAC] (Live) {Ltd. Ed.} (U2.com Music Ed. Subscription)\12 - In A Little While.wav

Peak level 100.0 %
Extraction speed 9.9 X
Track quality 100.0 %
Test CRC 958FE7B0
Copy CRC 958FE7B0
Track not present in AccurateRip database
Copy OK

Track 13

Filename E:\U2 - From The Ground Up (Edge's Picks From U2360) (2012) [FLAC] (Live) {Ltd. Ed.} (U2.com Music Ed. Subscription)\13 - Miss Sarajevo.wav

Peak level 100.0 %
Extraction speed 2.7 X
Track quality 99.9 %
Test CRC 6584EB3B
Copy CRC 6584EB3B
Track not present in AccurateRip database
Copy OK

Track 14

Filename E:\U2 - From The Ground Up (Edge's Picks From U2360) (2012) [FLAC] (Live) {Ltd. Ed.} (U2.com Music Ed. Subscription)\14 - Hold Me, Thrill Me, Kiss Me, Kill Me.wav

Peak level 100.0 %
Extraction speed 7.8 X
Track quality 100.0 %
Test CRC 3EC53CE8
Copy CRC 3EC53CE8
Track not present in AccurateRip database
Copy OK

Track 15

Filename E:\U2 - From The Ground Up (Edge's Picks From U2360) (2012) [FLAC] (Live) {Ltd. Ed.} (U2.com Music Ed. Subscription)\15 - '40'.wav

Peak level 100.0 %
Extraction speed 7.9 X
Track quality 100.0 %
Test CRC B7E1652C
Copy CRC B7E1652C
Track not present in AccurateRip database
Copy OK


None of the tracks are present in the AccurateRip database

No errors occurred

End of status report

==== Log checksum 2917010FC078524506CFD435C8833425905281FBA0F00BE435994838FB97F9B8 ====


U2: Fan Club Only Releases (1995 - 2012)

Tracklist CD13-14 - 2012 - U22 - A 22 Track Live Collection From U2360° (2CD) [U2.com7]:

CD1:
01.Even Better Than The Real Thing (4:26)
02.The Fly (5:07)
03.Mysterious Ways (4:44)
04.Magnificent (5:32)
05.Until The End Of The World (5:48)
06.I Still Haven't Found What I'm Looking For (5:13)
07.Stay (Faraway, So Close!) (4:52)
08.One Tree Hill (5:24)
09.Beautiful Day (6:23)
10.Elevation (4:02)
11.Bad (8:09)

Exact Audio Copy V1.0 beta 3 from 29. August 2011

EAC extraction logfile from 8. June 2012, 20:42

U2 / U22 (Disc One)

Used drive : DVDRW IDE 16X Adapter: 3 ID: 0

Read mode : Secure
Utilize accurate stream : Yes
Defeat audio cache : Yes
Make use of C2 pointers : No

Read offset correction : 12
Overread into Lead-In and Lead-Out : No
Fill up missing offset samples with silence : Yes
Delete leading and trailing silent blocks : No
Null samples used in CRC calculations : Yes
Used interface : Native Win32 interface for Win NT & 2000
Gap handling : Appended to previous track

Used output format : User Defined Encoder
Selected bitrate : 320 kBit/s
Quality : High
Add ID3 tag : No
Command line compressor : C:\Program Files (x86)\FLAC\flac.exe
Additional command line options : -8 -V -T "ARTIST=%artist%" -T "TITLE=%title%" -T "ALBUM=%albumtitle%" -T "DATE=%year%" -T "TRACKNUMBER=%tracknr%" -T "GENRE=%genre%" -T "COMMENT=EAC FLAC 1.2.1 -8" %source%


TOC of the extracted CD

Track | Start | Length | Start sector | End sector
––––––––––––––––––––––––––––-
1 | 0:00.00 | 4:25.38 | 0 | 19912
2 | 4:25.38 | 5:07.17 | 19913 | 42954
3 | 9:32.55 | 4:43.58 | 42955 | 64237
4 | 14:16.38 | 5:32.12 | 64238 | 89149
5 | 19:48.50 | 5:48.10 | 89150 | 115259
6 | 25:36.60 | 5:13.10 | 115260 | 138744
7 | 30:49.70 | 4:51.73 | 138745 | 160642
8 | 35:41.68 | 5:24.21 | 160643 | 184963
9 | 41:06.14 | 6:23.05 | 184964 | 213693
10 | 47:29.19 | 4:01.56 | 213694 | 231824
11 | 51:31.00 | 8:08.63 | 231825 | 268487


Track 1

Filename E:\U2 - U22 (2012) [FLAC] (Live) (2-CD) {Ltd. Ed.} (U2.com Subscription)\Disc One\01 - Even Better Than The Real Thing.wav

Pre-gap length 0:00:02.00

Peak level 100.0 %
Extraction speed 5.7 X
Track quality 100.0 %
Test CRC 75321377
Copy CRC 75321377
Track not present in AccurateRip database
Copy OK

Track 2

Filename E:\U2 - U22 (2012) [FLAC] (Live) (2-CD) {Ltd. Ed.} (U2.com Subscription)\Disc One\02 - The Fly.wav

Peak level 100.0 %
Extraction speed 6.4 X
Track quality 100.0 %
Test CRC EC0E7AF1
Copy CRC EC0E7AF1
Track not present in AccurateRip database
Copy OK

Track 3

Filename E:\U2 - U22 (2012) [FLAC] (Live) (2-CD) {Ltd. Ed.} (U2.com Subscription)\Disc One\03 - Mysterious Ways.wav

Peak level 100.0 %
Extraction speed 7.0 X
Track quality 100.0 %
Test CRC 6DCEC690
Copy CRC 6DCEC690
Track not present in AccurateRip database
Copy OK

Track 4

Filename E:\U2 - U22 (2012) [FLAC] (Live) (2-CD) {Ltd. Ed.} (U2.com Subscription)\Disc One\04 - Magnificent.wav

Peak level 100.0 %
Extraction speed 7.6 X
Track quality 100.0 %
Test CRC 0113DD14
Copy CRC 0113DD14
Track not present in AccurateRip database
Copy OK

Track 5

Filename E:\U2 - U22 (2012) [FLAC] (Live) (2-CD) {Ltd. Ed.} (U2.com Subscription)\Disc One\05 - Until The End Of The World.wav

Peak level 100.0 %
Extraction speed 8.2 X
Track quality 100.0 %
Test CRC AD03447E
Copy CRC AD03447E
Track not present in AccurateRip database
Copy OK

Track 6

Filename E:\U2 - U22 (2012) [FLAC] (Live) (2-CD) {Ltd. Ed.} (U2.com Subscription)\Disc One\06 - I Still Haven't Found What I'm Looking For.wav

Peak level 100.0 %
Extraction speed 8.6 X
Track quality 100.0 %
Test CRC D17D2623
Copy CRC D17D2623
Track not present in AccurateRip database
Copy OK

Track 7

Filename E:\U2 - U22 (2012) [FLAC] (Live) (2-CD) {Ltd. Ed.} (U2.com Subscription)\Disc One\07 - Stay (Faraway, So Close!).wav

Peak level 100.0 %
Extraction speed 8.9 X
Track quality 100.0 %
Test CRC 6D3FB2DF
Copy CRC 6D3FB2DF
Track not present in AccurateRip database
Copy OK

Track 8

Filename E:\U2 - U22 (2012) [FLAC] (Live) (2-CD) {Ltd. Ed.} (U2.com Subscription)\Disc One\08 - One Tree Hill.wav

Peak level 100.0 %
Extraction speed 9.5 X
Track quality 100.0 %
Test CRC 5E5DCB75
Copy CRC 5E5DCB75
Track not present in AccurateRip database
Copy OK

Track 9

Filename E:\U2 - U22 (2012) [FLAC] (Live) (2-CD) {Ltd. Ed.} (U2.com Subscription)\Disc One\09 - Beautiful Day.wav

Peak level 100.0 %
Extraction speed 10.1 X
Track quality 100.0 %
Test CRC 5809DA09
Copy CRC 5809DA09
Track not present in AccurateRip database
Copy OK

Track 10

Filename E:\U2 - U22 (2012) [FLAC] (Live) (2-CD) {Ltd. Ed.} (U2.com Subscription)\Disc One\10 - Elevation.wav

Peak level 100.0 %
Extraction speed 9.8 X
Track quality 100.0 %
Test CRC B8E09F6E
Copy CRC B8E09F6E
Track not present in AccurateRip database
Copy OK

Track 11

Filename E:\U2 - U22 (2012) [FLAC] (Live) (2-CD) {Ltd. Ed.} (U2.com Subscription)\Disc One\11 - Bad.wav

Peak level 100.0 %
Extraction speed 9.3 X
Track quality 100.0 %
Test CRC A4F3668D
Copy CRC A4F3668D
Track not present in AccurateRip database
Copy OK


None of the tracks are present in the AccurateRip database

No errors occurred

End of status report

==== Log checksum 63A7FA6CE81F1910248F4FB787A058A9B5DD005262ACF495A701262D986D8CB5 ====



CD2:
01.All I Want Is You/Love Rescue Me (9:58)
02.The Unforgettable Fire (4:49)
03.Zooropa (4:32)
04.City Of Blinding Lights (5:31)
05.MLK/Walk On (8:43)
06.One (5:26)
07.Where The Streets Have No Name (5:24)
08.Ultra Violet (Light My Way) (5:14)
09.With Or Without You (5:55)
10.Moment Of Surrender (8:10)
11.Out Of Control (5:22)

Exact Audio Copy V1.0 beta 3 from 29. August 2011

EAC extraction logfile from 8. June 2012, 21:22

U2 / U22 (Disc Two)

Used drive : DVDRW IDE 16X Adapter: 3 ID: 0

Read mode : Secure
Utilize accurate stream : Yes
Defeat audio cache : Yes
Make use of C2 pointers : No

Read offset correction : 12
Overread into Lead-In and Lead-Out : No
Fill up missing offset samples with silence : Yes
Delete leading and trailing silent blocks : No
Null samples used in CRC calculations : Yes
Used interface : Native Win32 interface for Win NT & 2000
Gap handling : Appended to previous track

Used output format : User Defined Encoder
Selected bitrate : 320 kBit/s
Quality : High
Add ID3 tag : No
Command line compressor : C:\Program Files (x86)\FLAC\flac.exe
Additional command line options : -8 -V -T "ARTIST=%artist%" -T "TITLE=%title%" -T "ALBUM=%albumtitle%" -T "DATE=%year%" -T "TRACKNUMBER=%tracknr%" -T "GENRE=%genre%" -T "COMMENT=EAC FLAC 1.2.1 -8" %source%


TOC of the extracted CD

Track | Start | Length | Start sector | End sector
––––––––––––––––––––––––––––-
1 | 0:00.00 | 9:57.46 | 0 | 44820
2 | 9:57.46 | 4:48.44 | 44821 | 66464
3 | 14:46.15 | 4:32.07 | 66465 | 86871
4 | 19:18.22 | 5:30.42 | 86872 | 111663
5 | 24:48.64 | 8:43.31 | 111664 | 150919
6 | 33:32.20 | 5:26.07 | 150920 | 175376
7 | 38:58.27 | 5:24.16 | 175377 | 199692
8 | 44:22.43 | 5:14.02 | 199693 | 223244
9 | 49:36.45 | 5:55.19 | 223245 | 249888
10 | 55:31.64 | 8:10.29 | 249889 | 286667
11 | 63:42.18 | 5:21.55 | 286668 | 310797


Track 1

Filename E:\U2 - U22 (2012) [FLAC] (Live) (2-CD) {Ltd. Ed.} (U2.com Subscription)\Disc Two\01 - All I Want Is You~Love Rescue Me.wav

Pre-gap length 0:00:02.00

Peak level 100.0 %
Extraction speed 3.8 X
Track quality 99.9 %
Test CRC 823850FC
Copy CRC 823850FC
Track not present in AccurateRip database
Copy OK

Track 2

Filename E:\U2 - U22 (2012) [FLAC] (Live) (2-CD) {Ltd. Ed.} (U2.com Subscription)\Disc Two\02 - The Unforgettable Fire.wav

Peak level 100.0 %
Extraction speed 7.1 X
Track quality 100.0 %
Test CRC 8179C6A3
Copy CRC 8179C6A3
Track not present in AccurateRip database
Copy OK

Track 3

Filename E:\U2 - U22 (2012) [FLAC] (Live) (2-CD) {Ltd. Ed.} (U2.com Subscription)\Disc Two\03 - Zooropa.wav

Peak level 99.8 %
Extraction speed 7.6 X
Track quality 100.0 %
Test CRC D5E91AFB
Copy CRC D5E91AFB
Track not present in AccurateRip database
Copy OK

Track 4

Filename E:\U2 - U22 (2012) [FLAC] (Live) (2-CD) {Ltd. Ed.} (U2.com Subscription)\Disc Two\04 - City Of Blinding Lights.wav

Peak level 100.0 %
Extraction speed 8.3 X
Track quality 100.0 %
Test CRC 98A6C315
Copy CRC 98A6C315
Track not present in AccurateRip database
Copy OK

Track 5

Filename E:\U2 - U22 (2012) [FLAC] (Live) (2-CD) {Ltd. Ed.} (U2.com Subscription)\Disc Two\05 - MLK~Walk On.wav

Peak level 100.0 %
Extraction speed 9.2 X
Track quality 100.0 %
Test CRC B451FB78
Copy CRC B451FB78
Track not present in AccurateRip database
Copy OK

Track 6

Filename E:\U2 - U22 (2012) [FLAC] (Live) (2-CD) {Ltd. Ed.} (U2.com Subscription)\Disc Two\06 - One.wav

Peak level 100.0 %
Extraction speed 9.3 X
Track quality 100.0 %
Test CRC 20B7035F
Copy CRC 20B7035F
Track not present in AccurateRip database
Copy OK

Track 7

Filename E:\U2 - U22 (2012) [FLAC] (Live) (2-CD) {Ltd. Ed.} (U2.com Subscription)\Disc Two\07 - Where The Streets Have No Name.wav

Peak level 100.0 %
Extraction speed 9.7 X
Track quality 100.0 %
Test CRC DCDDABF5
Copy CRC DCDDABF5
Track not present in AccurateRip database
Copy OK

Track 8

Filename E:\U2 - U22 (2012) [FLAC] (Live) (2-CD) {Ltd. Ed.} (U2.com Subscription)\Disc Two\08 - Ultra Violet (Light My Way).wav

Peak level 100.0 %
Extraction speed 3.1 X
Track quality 99.9 %
Test CRC AB13C0BC
Copy CRC AB13C0BC
Track not present in AccurateRip database
Copy OK

Track 9

Filename E:\U2 - U22 (2012) [FLAC] (Live) (2-CD) {Ltd. Ed.} (U2.com Subscription)\Disc Two\09 - With Or Without You.wav

Peak level 100.0 %
Extraction speed 3.4 X
Track quality 99.9 %
Test CRC 2F7BE0B0
Copy CRC 2F7BE0B0
Track not present in AccurateRip database
Copy OK

Track 10

Filename E:\U2 - U22 (2012) [FLAC] (Live) (2-CD) {Ltd. Ed.} (U2.com Subscription)\Disc Two\10 - Moment Of Surrender.wav

Peak level 100.0 %
Extraction speed 4.2 X
Track quality 99.9 %
Test CRC AFB2A89E
Copy CRC AFB2A89E
Track not present in AccurateRip database
Copy OK

Track 11

Filename E:\U2 - U22 (2012) [FLAC] (Live) (2-CD) {Ltd. Ed.} (U2.com Subscription)\Disc Two\11 - Out Of Control.wav

Peak level 100.0 %
Extraction speed 3.1 X
Track quality 99.9 %
Test CRC 43EB75EF
Copy CRC 43EB75EF
Track not present in AccurateRip database
Copy OK


None of the tracks are present in the AccurateRip database

No errors occurred

End of status report

==== Log checksum 733FD64A6FFFE9A16D16166B8F00B5B9D6BDC7F8539F917CED7C02D78CFC38F1 ====


All thanks go to the original releasers

U2 or U2 in my Blog

Download U2: Fan Club Only Releases (1995 - 2012):