Subcategories

U2: Singles Collection. Part 03 (1995 - 1997)

Posted By: v3122
U2: Singles Collection. Part 03 (1995 - 1997)

U2: Singles Collection. Part 03 (1995 - 1997)
EAC | Flac(Image) + Cue + Log & MP3 CBR 320Kbps
12CD | Label: Various | ~ 1233 or 547 Mb | Artwork(png) -> 221 Mb
Post Punk, New Wave, Rock

U2 are an Irish rock band from Dublin formed in 1976. The group consists of Bono (lead vocals and rhythm guitar), the Edge (lead guitar, keyboards, and backing vocals), Adam Clayton (bass guitar), and Larry Mullen Jr. (drums and percussion). Initially rooted in post-punk, U2's musical style has evolved throughout their career, yet has maintained an anthemic sound built on Bono's expressive vocals and the Edge's effects-based guitar textures. Their lyrics, often embellished with spiritual imagery, focus on personal and sociopolitical themes. Popular for their live performances, the group have staged several ambitious and elaborate tours over their career.

The band formed as teenagers while attending Mount Temple Comprehensive School, when they had limited musical proficiency. Within four years, they signed with Island Records and released their debut album, Boy (1980). Subsequent work such as their first UK number-one album, War (1983), and the singles "Sunday Bloody Sunday" and "Pride (In the Name of Love)" helped establish U2's reputation as a politically and socially conscious group. By the mid-1980s, they had become renowned globally for their live act, highlighted by their performance at Live Aid in 1985. The group's fifth album, The Joshua Tree (1987), made them international superstars and was their greatest critical and commercial success. Topping music charts around the world, it produced their only number-one singles in the US, "With or Without You" and "I Still Haven't Found What I'm Looking For".

Facing creative stagnation and a backlash following their documentary/double album, Rattle and Hum (1988), U2 reinvented themselves in the 1990s through a new musical direction and public image. Beginning with their acclaimed seventh album, Achtung Baby (1991), and the multimedia-intensive Zoo TV Tour, the band integrated influences from alternative rock, electronic dance music, and industrial music into their sound, and embraced a more ironic, flippant image. This experimentation continued through their ninth album, Pop (1997), and the PopMart Tour, which were mixed successes. U2 regained critical and commercial favour with the records All That You Can't Leave Behind (2000) and How to Dismantle an Atomic Bomb (2004), which established a more conventional, mainstream sound for the group. Their U2 360° Tour of 2009–2011 is the highest-attended and highest-grossing concert tour in history. The group most recently released the companion albums Songs of Innocence (2014) and Songs of Experience (2017), the former of which received criticism for its pervasive, no-cost release through the iTunes Store.

U2 have released 14 studio albums and are one of the world's best-selling music artists in history, having sold more than 170 million records worldwide. They have won 22 Grammy Awards, more than any other band, and in 2005, they were inducted into the Rock and Roll Hall of Fame in their first year of eligibility. Rolling Stone ranked U2 at number 22 on its list of the "100 Greatest Artists of All Time". Throughout their career, as a band and as individuals, they have campaigned for human rights and social justice causes, including Amnesty International, Jubilee 2000, the ONE/DATA campaigns, Product Red, War Child, and Music Rising…

~ wiki
U2: Singles Collection. Part 03 (1995 - 1997)

U2: Singles Collection. Part 03 (1995 - 1997):

U2: Singles Collection. Part 03 (1995 - 1997)

Tracklist CD01 - 1995 - Passengers - Miss Sarajevo [EU, Island, CID 625, 854 481-2]:

01.Miss Sarajevo (Radio Edit) (5:21)
02.One (Live) (5:33)
03.Bottoms (Watashitachi No Ookina Yume) (Zoo Station Remix) (4:12)
04.Viva Davidoff (4:29)

X Lossless Decoder version 20080926 (93.3)

XLD extraction logfile from 2008-11-27 09:28:37 +0100

Passengers / Miss Sarajevo

Used drive : PIONEER DVD-RW DVR-K06A (revision Q631)

Use cdparanoia mode : YES (CDParanoia III 10.2 engine)
Disable audio cache : OK for the drive with cache less than 2750KB
Make use of C2 pointers : NO
Read offset correction : 48
Max retry count : 100

TOC of the extracted CD
Track | Start | Length | Start sector | End sector
––––––––––––––––––––––––––––-
1 | 00:00:00 | 05:20:57 | 0 | 24056
2 | 05:20:57 | 05:32:53 | 24057 | 49009
3 | 10:53:35 | 04:11:50 | 49010 | 67884
4 | 15:05:10 | 04:29:35 | 67885 | 88094

List of alternate offset correction values
# | Absolute | Relative | Confidence
–––––––––––––––––––––
1 | -1742 | -1790 | 2
2 | -692 | -740 | 2

All Tracks
Album gain : -5.43 dB
Peak : 1.000000
Track 01
Filename : /Volumes/Nebucadnezzar/00 Music rip and upload/Passengers - Miss Sarajevo (1995) [FLAC]/01 - Miss Sarajevo (radio edit).flac

Track gain : -7.14 dB
Peak : 1.000000
CRC32 hash (test run) : 4CAFE89D
CRC32 hash : 4CAFE89D
CRC32 hash (skip zero) : A9BA1092
AccurateRip signature : 63F39DFB
->Accurately ripped! (confidence 12)
Statistics
Read error : 0
Skipped (treated as error) : 0
Edge jitter error (maybe fixed) : 0
Atom jitter error (maybe fixed) : 0
Drift error (maybe fixed) : 0
Dropped bytes error (maybe fixed) : 0
Duplicated bytes error (maybe fixed) : 0
Inconsistency in error sectors : 0

Track 02
Filename : /Volumes/Nebucadnezzar/00 Music rip and upload/Passengers - Miss Sarajevo (1995) [FLAC]/02 - One (live).flac

Track gain : -4.79 dB
Peak : 1.000000
CRC32 hash (test run) : E3F07BCE
CRC32 hash : E3F07BCE
CRC32 hash (skip zero) : 37F570A0
AccurateRip signature : 04130972
->Accurately ripped! (confidence 12)
Statistics
Read error : 0
Skipped (treated as error) : 0
Edge jitter error (maybe fixed) : 0
Atom jitter error (maybe fixed) : 0
Drift error (maybe fixed) : 0
Dropped bytes error (maybe fixed) : 0
Duplicated bytes error (maybe fixed) : 0
Inconsistency in error sectors : 0

Track 03
Filename : /Volumes/Nebucadnezzar/00 Music rip and upload/Passengers - Miss Sarajevo (1995) [FLAC]/03 - Bottoms (Watashitachi No Ookina Yume) (Zoo Station remix).flac

Track gain : -2.51 dB
Peak : 1.000000
CRC32 hash (test run) : 1ABFB5A2
CRC32 hash : 1ABFB5A2
CRC32 hash (skip zero) : 19DAEA1C
AccurateRip signature : 8F9BB9A7
->Accurately ripped! (confidence 12)
Statistics
Read error : 0
Skipped (treated as error) : 0
Edge jitter error (maybe fixed) : 0
Atom jitter error (maybe fixed) : 0
Drift error (maybe fixed) : 0
Dropped bytes error (maybe fixed) : 0
Duplicated bytes error (maybe fixed) : 0
Inconsistency in error sectors : 0

Track 04
Filename : /Volumes/Nebucadnezzar/00 Music rip and upload/Passengers - Miss Sarajevo (1995) [FLAC]/04 - Viva Davidoff.flac

Track gain : 2.68 dB
Peak : 1.000000
CRC32 hash (test run) : 564EBB01
CRC32 hash : 564EBB01
CRC32 hash (skip zero) : 4EC7C87F
AccurateRip signature : 5D73A7A0
->Accurately ripped! (confidence 12)
Statistics
Read error : 0
Skipped (treated as error) : 0
Edge jitter error (maybe fixed) : 0
Atom jitter error (maybe fixed) : 0
Drift error (maybe fixed) : 0
Dropped bytes error (maybe fixed) : 0
Duplicated bytes error (maybe fixed) : 0
Inconsistency in error sectors : 0

No errors occurred

End of status report


U2: Singles Collection. Part 03 (1995 - 1997)

Tracklist CD02 - 1996 - Adam Clayton & Larry Mullen - Theme From Mission; Impossible [Australia, Mother Records 576 471-2]:

01.Theme From Mission: Impossible (3:28)
02.Theme From Mission: Impossible (Junior's Hard Mix - Edit) (4:11)
03.Mission: Impossible Theme (Mission Accomplished) (3:06)
04.Mission: Impossible Theme (Mission Accomplished) (Cut The Red Not The Blue) (4:35)
05.Mission: Impossible Theme (Mission Accomplished) (Dave Clarke Remix) (4:31)

Exact Audio Copy V1.0 beta 3 from 29. August 2011

EAC extraction logfile from 11. October 2012, 23:12

Adam Clayton And Larry Mullen / Theme From Mission - Impossible

Used drive : TSSTcorpDVD+-RW TS-H653B Adapter: 0 ID: 0

Read mode : Secure
Utilize accurate stream : Yes
Defeat audio cache : Yes
Make use of C2 pointers : No

Read offset correction : 6
Overread into Lead-In and Lead-Out : No
Fill up missing offset samples with silence : Yes
Delete leading and trailing silent blocks : No
Null samples used in CRC calculations : Yes
Used interface : Native Win32 interface for Win NT & 2000
Gap handling : Appended to previous track

Used output format : User Defined Encoder
Selected bitrate : 768 kBit/s
Quality : High
Add ID3 tag : No
Command line compressor : C:\Program Files (x86)\Exact Audio Copy\FLAC\FLAC.EXE
Additional command line options : -8 -V -T "ARTIST=%artist%" -T "TITLE=%title%" -T "ALBUM=%albumtitle%" -T "DATE=%year%" -T "TRACKNUMBER=%tracknr%" -T "TOTALTRACKS=%numtracks%" -T "GENRE=%genre%" -T "ALBUM ARTIST=%albumartist%" -T "COMMENT=%comment%" %source%


TOC of the extracted CD

Track | Start | Length | Start sector | End sector
––––––––––––––––––––––––––––-
1 | 0:00.00 | 3:28.35 | 0 | 15634
2 | 3:28.35 | 4:11.12 | 15635 | 34471
3 | 7:39.47 | 3:05.63 | 34472 | 48409
4 | 10:45.35 | 4:35.02 | 48410 | 69036
5 | 15:20.37 | 4:31.08 | 69037 | 89369


Track 1

Filename C:\EAC\01 - Theme From Mission - Impossible.wav

Pre-gap length 0:00:02.00

Peak level 100.0 %
Extraction speed 1.5 X
Track quality 99.9 %
Test CRC 426D73F1
Copy CRC 426D73F1
Accurately ripped (confidence 2) [2764C7C6] (AR v2)
Copy OK

Track 2

Filename C:\EAC\02 - Theme From Mission - Impossible (Junior's Hard Mix - Edit).wav

Pre-gap length 0:00:00.35

Peak level 99.2 %
Extraction speed 2.0 X
Track quality 100.0 %
Test CRC 5297F0E8
Copy CRC 5297F0E8
Accurately ripped (confidence 2) [3F8C8D50] (AR v2)
Copy OK

Track 3

Filename C:\EAC\03 - Mission - Impossible Theme (Mission Accomplished).wav

Pre-gap length 0:00:00.12

Peak level 100.0 %
Extraction speed 2.1 X
Track quality 100.0 %
Test CRC 021B2B7C
Copy CRC 021B2B7C
Accurately ripped (confidence 2) [05BC01C8] (AR v2)
Copy OK

Track 4

Filename C:\EAC\04 - Mission - Impossible Theme (Mission Accomplished) (Cut The Red Not The Blue).wav

Pre-gap length 0:00:00.40

Peak level 99.2 %
Extraction speed 2.3 X
Track quality 100.0 %
Test CRC 5145E292
Copy CRC 5145E292
Accurately ripped (confidence 2) [2FAE511D] (AR v2)
Copy OK

Track 5

Filename C:\EAC\05 - Mission - Impossible Theme (Mission Accomplished) (Dave Clarke Remix).wav

Pre-gap length 0:00:01.20

Peak level 99.2 %
Extraction speed 2.5 X
Track quality 100.0 %
Test CRC F5BE07A2
Copy CRC F5BE07A2
Accurately ripped (confidence 2) [11DB93A6] (AR v2)
Copy OK


All tracks accurately ripped

No errors occurred

End of status report

–– CUETools DB Plugin V2.1.3

[CTDB TOCID: JysQIPb6tIfSpzMPfTo1sMbwRyQ-] found, Submit result: JysQIPb6tIfSpzMPfTo1sMbwRyQ- has been confirmed
[d067a961] (6/6) Accurately ripped


==== Log checksum 916DD60B74C2A12FBEEDC13643D826A069B0CE265BE962F9759A5F4A43AD8B05 ====


U2: Singles Collection. Part 03 (1995 - 1997)

Tracklist CD03 - 1996 - Adam Clayton & Larry Mullen - Theme From Mission; Impossible [US, Mother Records MUMXD75, 314-576 671-2]:

01.Theme From Mission: Impossible (3:29)
02.Mission: Impossible Theme (Mission Accomplished) (3:06)
03.Theme From Mission: Impossible (Guru Mix) (3:26)
04.Theme From Mission: Impossible (Junior's Hard Mix) (8:54)
05.Mission: Impossible Theme (Mission Accomplished) (Dave Clarke Remix) (4:31)

Exact Audio Copy V0.99 prebeta 4 from 23. January 2008

EAC extraction logfile from 28. July 2008, 22:33

Adam Clayton & Larry Mullen / Theme From Mission: Impossible

Used drive : TSSTcorpCDDVDW TS-H653N Adapter: 2 ID: 1

Read mode : Secure
Utilize accurate stream : Yes
Defeat audio cache : Yes
Make use of C2 pointers : No

Read offset correction : 6
Overread into Lead-In and Lead-Out : No
Fill up missing offset samples with silence : Yes
Delete leading and trailing silent blocks : No
Null samples used in CRC calculations : Yes
Used interface : Native Win32 interface for Win NT & 2000
Gap handling : Appended to previous track

Used output format : User Defined Encoder
Selected bitrate : 768 kBit/s
Quality : High
Add ID3 tag : No
Command line compressor : C:\Program Files\FLAC\flac.exe
Additional command line options : -V -8 -T "artist=%a" -T "title=%t" -T "album=%g" -T "date=%y" -T "tracknumber=%n" %s


TOC of the extracted CD

Track | Start | Length | Start sector | End sector
––––––––––––––––––––––––––––-
1 | 0:00.00 | 3:28.62 | 0 | 15661
2 | 3:28.62 | 3:05.45 | 15662 | 29581
3 | 6:34.32 | 3:26.18 | 29582 | 45049
4 | 10:00.50 | 8:54.25 | 45050 | 85124
5 | 18:55.00 | 4:31.00 | 85125 | 105449


Track 1

Filename C:\Hi there RIAA, What's up IFPI\Adam Clayton & Larry Mullen - Theme From Mission; Impossible (CDS)\01 - Theme From Mission- Impossible.wav

Pre-gap length 0:00:02.00

Peak level 100.0 %
Track quality 100.0 %
Test CRC 9D021499
Copy CRC 9D021499
Accurately ripped (confidence 4) [69B9D88C]
Copy OK

Track 2

Filename C:\Hi there RIAA, What's up IFPI\Adam Clayton & Larry Mullen - Theme From Mission; Impossible (CDS)\02 - Mission- Impossible Theme (Mission Accomplished).wav

Pre-gap length 0:00:00.73

Peak level 100.0 %
Track quality 99.9 %
Test CRC C7F67747
Copy CRC C7F67747
Accurately ripped (confidence 4) [AA007380]
Copy OK

Track 3

Filename C:\Hi there RIAA, What's up IFPI\Adam Clayton & Larry Mullen - Theme From Mission; Impossible (CDS)\03 - Theme From Mission- Impossible (Guru Mix).wav

Pre-gap length 0:00:00.40

Peak level 90.9 %
Track quality 100.0 %
Test CRC F8773D45
Copy CRC F8773D45
Accurately ripped (confidence 4) [5DC75129]
Copy OK

Track 4

Filename C:\Hi there RIAA, What's up IFPI\Adam Clayton & Larry Mullen - Theme From Mission; Impossible (CDS)\04 - Theme From Mission- Impossible (Junior's Hard Mix).wav

Pre-gap length 0:00:01.04

Peak level 99.2 %
Track quality 100.0 %
Test CRC 39138834
Copy CRC 39138834
Accurately ripped (confidence 4) [53D25D68]
Copy OK

Track 5

Filename C:\Hi there RIAA, What's up IFPI\Adam Clayton & Larry Mullen - Theme From Mission; Impossible (CDS)\05 - Mission- Impossible Theme (Mission Accomplished) (Dave Clarke Remix).wav

Pre-gap length 0:00:00.64

Peak level 99.2 %
Track quality 99.9 %
Test CRC 9F852288
Copy CRC 9F852288
Accurately ripped (confidence 4) [DC50A479]
Copy OK


All tracks accurately ripped

No errors occurred

End of status report


U2: Singles Collection. Part 03 (1995 - 1997)

Tracklist CD04 - 1997 - Discothèque [Canada, Island 422-854 789-2]:

01.Discothèque (DM Deep Extended Club Mix) (10:06)
02.Discothèque (Hexidecimal Mix) (7:23)
03.Discothèque (5:19)
04.Holy Joe (Guilty Mix) (5:10)
05.Discothèque (Howie B, Hairy B Mix) (7:40)

Exact Audio Copy V0.99 prebeta 4 from 23. January 2008

EAC extraction logfile from 24. July 2008, 22:55

U2 / Discothиque

Used drive : HL-DT-STDVDRAM GH20NS10 Adapter: 3 ID: 0

Read mode : Secure
Utilize accurate stream : Yes
Defeat audio cache : Yes
Make use of C2 pointers : No

Read offset correction : 667
Overread into Lead-In and Lead-Out : No
Fill up missing offset samples with silence : Yes
Delete leading and trailing silent blocks : No
Null samples used in CRC calculations : Yes
Used interface : Native Win32 interface for Win NT & 2000
Gap handling : Appended to previous track

Used output format : User Defined Encoder
Selected bitrate : 768 kBit/s
Quality : High
Add ID3 tag : No
Command line compressor : C:\Program Files\FLAC\flac.exe
Additional command line options : -V -8 -T "artist=%a" -T "title=%t" -T "album=%g" -T "date=%y" -T "tracknumber=%n" %s


TOC of the extracted CD

Track | Start | Length | Start sector | End sector
––––––––––––––––––––––––––––-
1 | 0:00.00 | 10:05.67 | 0 | 45441
2 | 10:05.67 | 7:23.28 | 45442 | 78694
3 | 17:29.20 | 5:18.60 | 78695 | 102604
4 | 22:48.05 | 5:09.57 | 102605 | 125836
5 | 27:57.62 | 7:40.20 | 125837 | 160356


Track 1

Filename C:\Hi there RIAA, What's up IFPI\U2 - Discothиque (CDS)\01 - Discothиque (DM Deep Extended Club Mix).wav

Pre-gap length 0:00:02.00

Peak level 99.9 %
Track quality 100.0 %
Test CRC 3F3F832D
Copy CRC 3F3F832D
Track not present in AccurateRip database
Copy OK

Track 2

Filename C:\Hi there RIAA, What's up IFPI\U2 - Discothиque (CDS)\02 - Discothиque (Hexidecimal Mix).wav

Pre-gap length 0:00:00.82

Peak level 99.9 %
Track quality 100.0 %
Test CRC B190B09C
Copy CRC B190B09C
Track not present in AccurateRip database
Copy OK

Track 3

Filename C:\Hi there RIAA, What's up IFPI\U2 - Discothиque (CDS)\03 - Discothиque.wav

Pre-gap length 0:00:00.57

Peak level 99.9 %
Track quality 99.9 %
Test CRC 7AB54B31
Copy CRC 7AB54B31
Track not present in AccurateRip database
Copy OK

Track 4

Filename C:\Hi there RIAA, What's up IFPI\U2 - Discothиque (CDS)\04 - Holy Joe (Guilty Mix).wav

Peak level 99.9 %
Track quality 100.0 %
Test CRC 78721C09
Copy CRC 78721C09
Track not present in AccurateRip database
Copy OK

Track 5

Filename C:\Hi there RIAA, What's up IFPI\U2 - Discothиque (CDS)\05 - Discothиque (Howie B, Hairy B Mix).wav

Pre-gap length 0:00:00.56

Peak level 99.9 %
Track quality 99.9 %
Test CRC 000CDE62
Copy CRC 000CDE62
Track not present in AccurateRip database
Copy OK


None of the tracks are present in the AccurateRip database

No errors occurred

End of status report


U2: Singles Collection. Part 03 (1995 - 1997)

Tracklist CD05 - 1997 - Discothèque [UK, Island CID 649, 854 775-2]:

01.Discothèque (Single Mix) (5:10)
02.Holy Joe (Garage Mix) (4:22)
03.Holy Joe (Guilty Mix) (5:09)

X Lossless Decoder version 20080926 (93.3)

XLD extraction logfile from 2008-12-03 09:29:08 +0100

U2 / Discotheque

Used drive : PIONEER DVD-RW DVR-115D (revision 1.06)

Use cdparanoia mode : YES (CDParanoia III 10.2 engine)
Disable audio cache : OK for the drive with cache less than 2750KB
Make use of C2 pointers : NO
Read offset correction : 48
Max retry count : 100

TOC of the extracted CD
Track | Start | Length | Start sector | End sector
––––––––––––––––––––––––––––-
1 | 00:00:00 | 05:10:27 | 0 | 23276
2 | 05:10:27 | 04:21:63 | 23277 | 42914
3 | 09:32:15 | 05:09:15 | 42915 | 66104


All Tracks
Album gain : -6.81 dB
Peak : 0.999023
Track 01
Filename : /Volumes/Nebucadnezzar/00 Music rip and upload/U2 - Discotheque (1997) [FLAC] {version two}/01 - Discotheque (Single Mix).flac

Track gain : -5.33 dB
Peak : 0.999023
CRC32 hash (test run) : CEDFC330
CRC32 hash : CEDFC330
CRC32 hash (skip zero) : A7E64DA4
AccurateRip signature : 486610C4
->Accurately ripped! (confidence 9)
Statistics
Read error : 0
Skipped (treated as error) : 0
Edge jitter error (maybe fixed) : 0
Atom jitter error (maybe fixed) : 0
Drift error (maybe fixed) : 0
Dropped bytes error (maybe fixed) : 0
Duplicated bytes error (maybe fixed) : 0
Inconsistency in error sectors : 0

Track 02
Filename : /Volumes/Nebucadnezzar/00 Music rip and upload/U2 - Discotheque (1997) [FLAC] {version two}/02 - Holy Joe (Garage Mix).flac

Track gain : -7.80 dB
Peak : 0.999023
CRC32 hash (test run) : 83443E96
CRC32 hash : 83443E96
CRC32 hash (skip zero) : E61D6B58
AccurateRip signature : 2B626D99
->Accurately ripped! (confidence 9)
Statistics
Read error : 0
Skipped (treated as error) : 0
Edge jitter error (maybe fixed) : 0
Atom jitter error (maybe fixed) : 0
Drift error (maybe fixed) : 0
Dropped bytes error (maybe fixed) : 0
Duplicated bytes error (maybe fixed) : 0
Inconsistency in error sectors : 0

Track 03
Filename : /Volumes/Nebucadnezzar/00 Music rip and upload/U2 - Discotheque (1997) [FLAC] {version two}/03 - Holy Joe (Guilty Mix).flac

Track gain : -4.44 dB
Peak : 0.999023
CRC32 hash (test run) : 16855049
CRC32 hash : 16855049
CRC32 hash (skip zero) : 93511CD1
AccurateRip signature : DF68CFF3
->Accurately ripped! (confidence 8)
Statistics
Read error : 0
Skipped (treated as error) : 0
Edge jitter error (maybe fixed) : 0
Atom jitter error (maybe fixed) : 0
Drift error (maybe fixed) : 0
Dropped bytes error (maybe fixed) : 0
Duplicated bytes error (maybe fixed) : 0
Inconsistency in error sectors : 0

No errors occurred

End of status report


U2: Singles Collection. Part 03 (1995 - 1997)

Tracklist CD06 - 1997 - Discothèque [UK, Island CIDX 649, 854 877-2]:

01.Discothèque (DM Deep Club Mix) (7:01)
02.Discothèque (Howie B, Hairy B Mix) (7:40)
03.Discothèque (Hexidecimal Mix) (7:23)
04.Discothèque (DM Tec Radio Mix) (3:46)

X Lossless Decoder version 20080926 (93.3)

XLD extraction logfile from 2008-12-03 09:12:13 +0100

U2 / Discotheque

Used drive : PIONEER DVD-RW DVR-115D (revision 1.06)

Use cdparanoia mode : YES (CDParanoia III 10.2 engine)
Disable audio cache : OK for the drive with cache less than 2750KB
Make use of C2 pointers : NO
Read offset correction : 48
Max retry count : 100

TOC of the extracted CD
Track | Start | Length | Start sector | End sector
––––––––––––––––––––––––––––-
1 | 00:00:00 | 07:01:10 | 0 | 31584
2 | 07:01:10 | 07:40:15 | 31585 | 66099
3 | 14:41:25 | 07:23:02 | 66100 | 99326
4 | 22:04:27 | 03:46:33 | 99327 | 116309


All Tracks
Album gain : -6.86 dB
Peak : 0.999023
Track 01
Filename : /Volumes/Nebucadnezzar/00 Music rip and upload/U2 - Discotheque (1997) [FLAC] {version one}/01 - Discotheque (DM Deep Club Mix).flac

Track gain : -8.57 dB
Peak : 0.999023
CRC32 hash (test run) : 114294FD
CRC32 hash : 114294FD
CRC32 hash (skip zero) : 6273789B
AccurateRip signature : F708522F
->Accurately ripped! (confidence 5)
Statistics
Read error : 0
Skipped (treated as error) : 0
Edge jitter error (maybe fixed) : 1
Atom jitter error (maybe fixed) : 1
Drift error (maybe fixed) : 0
Dropped bytes error (maybe fixed) : 0
Duplicated bytes error (maybe fixed) : 0
Inconsistency in error sectors : 0

Track 02
Filename : /Volumes/Nebucadnezzar/00 Music rip and upload/U2 - Discotheque (1997) [FLAC] {version one}/02 - Discotheque (Howie B, Hairy B mix).flac

Track gain : -6.21 dB
Peak : 0.999023
CRC32 hash (test run) : 62469201
CRC32 hash : 62469201
CRC32 hash (skip zero) : 27DA1FF5
AccurateRip signature : 69933978
->Accurately ripped! (confidence 5)
Statistics
Read error : 0
Skipped (treated as error) : 0
Edge jitter error (maybe fixed) : 0
Atom jitter error (maybe fixed) : 0
Drift error (maybe fixed) : 0
Dropped bytes error (maybe fixed) : 0
Duplicated bytes error (maybe fixed) : 0
Inconsistency in error sectors : 0

Track 03
Filename : /Volumes/Nebucadnezzar/00 Music rip and upload/U2 - Discotheque (1997) [FLAC] {version one}/03 - Discotheque (Hexidecimal mix).flac

Track gain : -6.41 dB
Peak : 0.999023
CRC32 hash (test run) : E9B06DDA
CRC32 hash : E9B06DDA
CRC32 hash (skip zero) : ED9CDCB5
AccurateRip signature : 149EAA9A
->Accurately ripped! (confidence 5)
Statistics
Read error : 0
Skipped (treated as error) : 0
Edge jitter error (maybe fixed) : 1
Atom jitter error (maybe fixed) : 0
Drift error (maybe fixed) : 0
Dropped bytes error (maybe fixed) : 0
Duplicated bytes error (maybe fixed) : 1
Inconsistency in error sectors : 0

Track 04
Filename : /Volumes/Nebucadnezzar/00 Music rip and upload/U2 - Discotheque (1997) [FLAC] {version one}/04 - Discotheque (DM Tec radio mix).flac

Track gain : -5.12 dB
Peak : 0.999023
CRC32 hash (test run) : F3B7F96C
CRC32 hash : F3B7F96C
CRC32 hash (skip zero) : A7263E43
AccurateRip signature : 8C5E2070
->Accurately ripped! (confidence 5)
Statistics
Read error : 0
Skipped (treated as error) : 0
Edge jitter error (maybe fixed) : 0
Atom jitter error (maybe fixed) : 0
Drift error (maybe fixed) : 0
Dropped bytes error (maybe fixed) : 0
Duplicated bytes error (maybe fixed) : 0
Inconsistency in error sectors : 0

No errors occurred

End of status report


U2: Singles Collection. Part 03 (1995 - 1997)

Tracklist CD07 - 1997 - If God Will Send His Angels [US, Island 314-572 190-2]:

01.If God Will Send His Angels [Single Version] (4:35)
02.Mofo [Romin Remix] (5:52)

Exact Audio Copy V0.99 prebeta 5 from 4. May 2009

EAC extraction logfile from 1. April 2010, 8:24

U2 / If God Will Send His Angels

Used drive : PLDS DVD+-RW DH-24AAS Adapter: 0 ID: 1

Read mode : Secure
Utilize accurate stream : Yes
Defeat audio cache : Yes
Make use of C2 pointers : No

Read offset correction : 6
Overread into Lead-In and Lead-Out : No
Fill up missing offset samples with silence : Yes
Delete leading and trailing silent blocks : No
Null samples used in CRC calculations : Yes
Used interface : Native Win32 interface for Win NT & 2000
Gap handling : Appended to previous track

Used output format : User Defined Encoder
Selected bitrate : 768 kBit/s
Quality : High
Add ID3 tag : No
Command line compressor : C:\Program Files (x86)\FLAC\flac.exe
Additional command line options : -8 -V -T "ARTIST=%a" -T "TITLE=%t" -T "ALBUM=%g" -T "DATE=%y" -T "TRACKNUMBER=%n" -T "GENRE=%m" -T "COMMENT=EAC FLAC -8" %s


TOC of the extracted CD

Track | Start | Length | Start sector | End sector
––––––––––––––––––––––––––––-
1 | 0:00.00 | 4:34.60 | 0 | 20609
2 | 4:34.60 | 5:51.60 | 20610 | 46994


Track 1

Filename C:\2.Temp\Pedro Upload\U2 - If God Will Send His Angels (1997) [FLAC] {US CD Single 314-572 190-2}\01 - If God Will Send His Angels [Single Version].wav

Pre-gap length 0:00:02.00

Peak level 100.0 %
Track quality 100.0 %
Test CRC 141F400B
Copy CRC 141F400B
Track not present in AccurateRip database
Copy OK

Track 2

Filename C:\2.Temp\Pedro Upload\U2 - If God Will Send His Angels (1997) [FLAC] {US CD Single 314-572 190-2}\02 - Mofo [Romin Remix].wav

Pre-gap length 0:00:02.13

Peak level 100.0 %
Track quality 100.0 %
Test CRC AB26D3A8
Copy CRC AB26D3A8
Track not present in AccurateRip database
Copy OK


None of the tracks are present in the AccurateRip database

No errors occurred

End of status report


U2: Singles Collection. Part 03 (1995 - 1997)

Tracklist CD08 - 1997 - Last Night On Earth [Canada, Island 314-572 053-2]:

01.Last Night On Earth (Single Version) (4:17)
02.Pop Muzik (Pop Mart Mix) (8:51)
03.Happiness Is A Warm Gun (The Gun Mix) (4:47)
04.Numb (The Soul Assassins Mix) (3:56)

Exact Audio Copy V0.99 prebeta 4 from 23. January 2008

EAC extraction logfile from 24. July 2008, 8:43

U2 / Last Night On Earth

Used drive : HL-DT-STDVDRAM GH20NS10 Adapter: 3 ID: 0

Read mode : Secure
Utilize accurate stream : Yes
Defeat audio cache : Yes
Make use of C2 pointers : No

Read offset correction : 667
Overread into Lead-In and Lead-Out : No
Fill up missing offset samples with silence : Yes
Delete leading and trailing silent blocks : No
Null samples used in CRC calculations : Yes
Used interface : Native Win32 interface for Win NT & 2000
Gap handling : Appended to previous track

Used output format : User Defined Encoder
Selected bitrate : 768 kBit/s
Quality : High
Add ID3 tag : No
Command line compressor : C:\Program Files\FLAC\flac.exe
Additional command line options : -V -8 -T "artist=%a" -T "title=%t" -T "album=%g" -T "date=%y" -T "tracknumber=%n" %s


TOC of the extracted CD

Track | Start | Length | Start sector | End sector
––––––––––––––––––––––––––––-
1 | 0:00.00 | 4:16.47 | 0 | 19246
2 | 4:16.47 | 8:51.13 | 19247 | 59084
3 | 13:07.60 | 4:46.45 | 59085 | 80579
4 | 17:54.30 | 3:56.25 | 80580 | 98304


Track 1

Filename C:\Hi there RIAA, What's up IFPI\U2 - Last Night On Earth (CDS)\01 - Last Night On Earth (Single Version).wav

Pre-gap length 0:00:02.00

Peak level 99.9 %
Track quality 100.0 %
Test CRC 1235C8F7
Copy CRC 1235C8F7
Track not present in AccurateRip database
Copy OK

Track 2

Filename C:\Hi there RIAA, What's up IFPI\U2 - Last Night On Earth (CDS)\02 - Pop Muzik (Pop Mart Mix).wav

Pre-gap length 0:00:01.76

Peak level 99.9 %
Track quality 100.0 %
Test CRC 3F3D853B
Copy CRC 3F3D853B
Track not present in AccurateRip database
Copy OK

Track 3

Filename C:\Hi there RIAA, What's up IFPI\U2 - Last Night On Earth (CDS)\03 - Happiness Is A Warm Gun (The Gun Mix).wav

Pre-gap length 0:00:01.37

Peak level 99.9 %
Track quality 100.0 %
Test CRC B82F3832
Copy CRC B82F3832
Track not present in AccurateRip database
Copy OK

Track 4

Filename C:\Hi there RIAA, What's up IFPI\U2 - Last Night On Earth (CDS)\04 - Numb (The Soul Assassins Mix).wav

Pre-gap length 0:00:01.20

Peak level 99.6 %
Track quality 100.0 %
Test CRC AAADADD2
Copy CRC AAADADD2
Track not present in AccurateRip database
Copy OK


None of the tracks are present in the AccurateRip database

No errors occurred

End of status report


U2: Singles Collection. Part 03 (1995 - 1997)

Tracklist CD09 - 1997 - Last Night On Earth [EU, Island CIDX 664, 572 055-2]:

01.Last Night On Earth (First Night In Hell Mix) (5:53)
02.Numb (The Soul Assassins Mix) (3:57)
03.Happiness Is A Warm Gun (The Danny Saber Mix) (4:52)
04.Pop Muzik (Pop Mart Mix) (8:50)

Exact Audio Copy V1.3 from 2. September 2016

EAC extraction logfile from 17. February 2018, 20:26

U2 / Last Night On Earth

Used drive : PLEXTOR DVDR PX-760A Adapter: 1 ID: 0

Read mode : Secure
Utilize accurate stream : Yes
Defeat audio cache : Yes
Make use of C2 pointers : No

Read offset correction : 30
Overread into Lead-In and Lead-Out : No
Fill up missing offset samples with silence : Yes
Delete leading and trailing silent blocks : No
Null samples used in CRC calculations : Yes
Used interface : Native Win32 interface for Win NT & 2000
Gap handling : Appended to previous track

Used output format : User Defined Encoder
Selected bitrate : 896 kBit/s
Quality : High
Add ID3 tag : No
Command line compressor : C:\Program Files (x86)\Exact Audio Copy\Flac\flac.exe
Additional command line options : -V -8 -T "Genre=%genre%" -T "Artist=%artist%" -T "Title=%title%" -T "Album=%albumtitle%" -T "Date=%year%" -T "Tracknumber=%tracknr%" -T "Comment=%comment%" %source%


TOC of the extracted CD

Track | Start | Length | Start sector | End sector
––––––––––––––––––––––––––––-
1 | 0:00.00 | 5:52.42 | 0 | 26441
2 | 5:52.42 | 3:57.15 | 26442 | 44231
3 | 9:49.57 | 4:52.10 | 44232 | 66141
4 | 14:41.67 | 8:49.60 | 66142 | 105876


Track 1

Filename D:\EAC_rips\01 - Last Night On Earth (First Night In Hell Mix).wav

Pre-gap length 0:00:02.00

Peak level 99.9 %
Extraction speed 4.0 X
Track quality 99.9 %
Test CRC A37FDECD
Copy CRC A37FDECD
Accurately ripped (confidence 15) [C18AEC9A] (AR v2)
Copy OK

Track 2

Filename D:\EAC_rips\02 - Numb (The Soul Assassins Mix).wav

Pre-gap length 0:00:02.20

Peak level 99.6 %
Extraction speed 4.6 X
Track quality 100.0 %
Test CRC E6CF7F5F
Copy CRC E6CF7F5F
Accurately ripped (confidence 15) [C11AFAB7] (AR v2)
Copy OK

Track 3

Filename D:\EAC_rips\03 - Happiness Is A Warm Gun (The Danny Saber Mix).wav

Pre-gap length 0:00:00.65

Peak level 99.9 %
Extraction speed 4.6 X
Track quality 99.9 %
Test CRC 74A06613
Copy CRC 74A06613
Accurately ripped (confidence 15) [A1EB32B2] (AR v2)
Copy OK

Track 4

Filename D:\EAC_rips\04 - Pop Muzik (Pop Mart Mix).wav

Pre-gap length 0:00:00.40

Peak level 99.9 %
Extraction speed 6.0 X
Track quality 100.0 %
Test CRC 82209158
Copy CRC 82209158
Accurately ripped (confidence 15) [497CDC11] (AR v2)
Copy OK


All tracks accurately ripped

No errors occurred

End of status report

–– CUETools DB Plugin V2.1.6

[CTDB TOCID: T1XXDlpAxrcr1oPyOfYuozFEvgE-] found
Submit result: T1XXDlpAxrcr1oPyOfYuozFEvgE- has been confirmed
Track | CTDB Status
1 | (27/27) Accurately ripped
2 | (27/27) Accurately ripped
3 | (26/27) Accurately ripped
4 | (27/27) Accurately ripped


==== Log checksum 1EE2AEDC1EFD01D03592CF6B9C8B014568B9C104840A0317DC75E5447051057E ====


U2: Singles Collection. Part 03 (1995 - 1997)

Tracklist CD10 - 1997 - Mofo Remixes [Germany, Island CIDX 684, 572191-2]:

01.Mofo (Phunk Phorce Mix) (8:46)
02.Mofo (Mother's Mix) (8:57)
03.If God Will Send His Angels (The Grand Jury Mix) (5:44)

Exact Audio Copy V1.3 from 2. September 2016

EAC extraction logfile from 17. February 2018, 21:03

U2 / Mofo Remixes

Used drive : PLEXTOR DVDR PX-760A Adapter: 1 ID: 0

Read mode : Secure
Utilize accurate stream : Yes
Defeat audio cache : Yes
Make use of C2 pointers : No

Read offset correction : 30
Overread into Lead-In and Lead-Out : No
Fill up missing offset samples with silence : Yes
Delete leading and trailing silent blocks : No
Null samples used in CRC calculations : Yes
Used interface : Native Win32 interface for Win NT & 2000
Gap handling : Appended to previous track

Used output format : User Defined Encoder
Selected bitrate : 896 kBit/s
Quality : High
Add ID3 tag : No
Command line compressor : C:\Program Files (x86)\Exact Audio Copy\Flac\flac.exe
Additional command line options : -V -8 -T "Genre=%genre%" -T "Artist=%artist%" -T "Title=%title%" -T "Album=%albumtitle%" -T "Date=%year%" -T "Tracknumber=%tracknr%" -T "Comment=%comment%" %source%


TOC of the extracted CD

Track | Start | Length | Start sector | End sector
––––––––––––––––––––––––––––-
1 | 0:00.00 | 8:46.00 | 0 | 39449
2 | 8:46.00 | 8:56.50 | 39450 | 79699
3 | 17:42.50 | 5:44.25 | 79700 | 105524


Track 1

Filename D:\EAC_rips\01 - Mofo (Phunk Phorce Mix).wav

Pre-gap length 0:00:02.00

Peak level 99.9 %
Extraction speed 4.7 X
Track quality 100.0 %
Test CRC C3DF1DB9
Copy CRC C3DF1DB9
Accurately ripped (confidence 7) [6D370CCB] (AR v2)
Copy OK

Track 2

Filename D:\EAC_rips\02 - Mofo (Mother's Mix).wav

Pre-gap length 0:00:01.00

Peak level 99.9 %
Extraction speed 5.5 X
Track quality 100.0 %
Test CRC 3F1F91B4
Copy CRC 3F1F91B4
Accurately ripped (confidence 7) [58D02AF7] (AR v2)
Copy OK

Track 3

Filename D:\EAC_rips\03 - If God Will Send His Angels (The Grand Jury Mix).wav

Pre-gap length 0:00:00.63

Peak level 99.9 %
Extraction speed 5.8 X
Track quality 100.0 %
Test CRC 7EFF7F37
Copy CRC 7EFF7F37
Accurately ripped (confidence 7) [77C048A4] (AR v2)
Copy OK


All tracks accurately ripped

No errors occurred

End of status report

–– CUETools DB Plugin V2.1.6

[CTDB TOCID: Jr_CC5QPh1HiJDHtm.r1yGVWDoY-] found
Submit result: Jr_CC5QPh1HiJDHtm.r1yGVWDoY- has been confirmed
Track | CTDB Status
1 | (8/8) Accurately ripped
2 | (8/8) Accurately ripped
3 | (8/8) Accurately ripped


==== Log checksum 5A55A2143E03D22FD8267E587456C63BB4ED69562AD45AF7A4FB8D1F4FBD83E0 ====


U2: Singles Collection. Part 03 (1995 - 1997)

Tracklist CD11 - 1997 - Please [EU, Island CID 673, 572 129-2]:

01.Please (Single Version) (5:49)
02.Dirty Day (Junk Day) (4:43)
03.Dirty Day (Bitter Kiss) (4:33)
04.I'm Not Your Baby (Skysplitter Dub) (5:47)

Exact Audio Copy V1.3 from 2. September 2016

EAC extraction logfile from 18. February 2018, 14:34

U2 / Please

Used drive : PLEXTOR DVDR PX-760A Adapter: 1 ID: 0

Read mode : Secure
Utilize accurate stream : Yes
Defeat audio cache : Yes
Make use of C2 pointers : No

Read offset correction : 30
Overread into Lead-In and Lead-Out : No
Fill up missing offset samples with silence : Yes
Delete leading and trailing silent blocks : No
Null samples used in CRC calculations : Yes
Used interface : Native Win32 interface for Win NT & 2000
Gap handling : Appended to previous track

Used output format : User Defined Encoder
Selected bitrate : 896 kBit/s
Quality : High
Add ID3 tag : No
Command line compressor : C:\Program Files (x86)\Exact Audio Copy\Flac\flac.exe
Additional command line options : -V -8 -T "Genre=%genre%" -T "Artist=%artist%" -T "Title=%title%" -T "Album=%albumtitle%" -T "Date=%year%" -T "Tracknumber=%tracknr%" -T "Comment=%comment%" %source%


TOC of the extracted CD

Track | Start | Length | Start sector | End sector
––––––––––––––––––––––––––––-
1 | 0:00.00 | 5:49.27 | 0 | 26201
2 | 5:49.27 | 4:42.60 | 26202 | 47411
3 | 10:32.12 | 4:33.33 | 47412 | 67919
4 | 15:05.45 | 5:47.32 | 67920 | 93976


Track 1

Filename D:\EAC_rips\01 - Please (Single Version).wav

Pre-gap length 0:00:02.00

Peak level 99.9 %
Extraction speed 4.4 X
Track quality 100.0 %
Test CRC 18207DCC
Copy CRC 18207DCC
Accurately ripped (confidence 12) [D859BAE0] (AR v2)
Copy OK

Track 2

Filename D:\EAC_rips\02 - Dirty Day (Junk Day).wav

Pre-gap length 0:00:01.35

Peak level 99.9 %
Extraction speed 4.8 X
Track quality 100.0 %
Test CRC CCCCF34D
Copy CRC CCCCF34D
Accurately ripped (confidence 11) [A70C59E3] (AR v2)
Copy OK

Track 3

Filename D:\EAC_rips\03 - Dirty Day (Bitter Kiss).wav

Pre-gap length 0:00:01.62

Peak level 99.9 %
Extraction speed 5.1 X
Track quality 100.0 %
Test CRC AFF5FEF2
Copy CRC AFF5FEF2
Accurately ripped (confidence 12) [009746B8] (AR v2)
Copy OK

Track 4

Filename D:\EAC_rips\04 - I'm Not Your Baby (Skysplitter Dub).wav

Pre-gap length 0:00:01.33

Peak level 99.9 %
Extraction speed 5.6 X
Track quality 100.0 %
Test CRC E2F17968
Copy CRC E2F17968
Accurately ripped (confidence 12) [FA65545D] (AR v2)
Copy OK


All tracks accurately ripped

No errors occurred

End of status report

–– CUETools DB Plugin V2.1.6

[CTDB TOCID: 7COsP4hmigAUsubbtBKfm6MYr0I-] found
Submit result: 7COsP4hmigAUsubbtBKfm6MYr0I- has been confirmed
Track | CTDB Status
1 | (30/30) Accurately ripped
2 | (30/30) Accurately ripped
3 | (30/30) Accurately ripped
4 | (30/30) Accurately ripped


==== Log checksum CF7E1F4BC3693ED38AC875A763274959E4DDE9F0932C58E6E9B9A13EC72801E2 ====


U2: Singles Collection. Part 03 (1995 - 1997)

Tracklist CD12 - 1997 - Please [UK, Island CIDX 673, 572 133-2] {Popheart Live EP}:

01.Please [Live From Rotterdam] (7:12)
02.Where The Streets Have No Name [Live From Rotterdam] (6:33)
03.With Or Without You [Live From Edmonton] (4:41)
04.Staring At The Sun [Live From Rotterdam] (5:33)

Exact Audio Copy V0.99 prebeta 5 from 4. May 2009

EAC extraction logfile from 31. March 2010, 15:41

U2 / Please Popheart Live EP

Used drive : PLDS DVD+-RW DH-24AAS Adapter: 0 ID: 1

Read mode : Secure
Utilize accurate stream : Yes
Defeat audio cache : Yes
Make use of C2 pointers : No

Read offset correction : 6
Overread into Lead-In and Lead-Out : No
Fill up missing offset samples with silence : Yes
Delete leading and trailing silent blocks : No
Null samples used in CRC calculations : Yes
Used interface : Native Win32 interface for Win NT & 2000
Gap handling : Appended to previous track

Used output format : User Defined Encoder
Selected bitrate : 768 kBit/s
Quality : High
Add ID3 tag : No
Command line compressor : C:\Program Files (x86)\FLAC\flac.exe
Additional command line options : -8 -V -T "ARTIST=%a" -T "TITLE=%t" -T "ALBUM=%g" -T "DATE=%y" -T "TRACKNUMBER=%n" -T "GENRE=%m" -T "COMMENT=EAC FLAC -8" %s


TOC of the extracted CD

Track | Start | Length | Start sector | End sector
––––––––––––––––––––––––––––-
1 | 0:00.00 | 7:11.60 | 0 | 32384
2 | 7:11.60 | 6:32.70 | 32385 | 61854
3 | 13:44.55 | 4:40.55 | 61855 | 82909
4 | 18:25.35 | 5:33.20 | 82910 | 107904


Track 1

Filename C:\2.Temp\Pedro Upload\U2 - Please Popheart Live EP (1997) [FLAC] {UK CD Single CIDX 673-572 133-2}\01 - Please [Live From Rotterdam].wav

Pre-gap length 0:00:02.00

Peak level 100.0 %
Track quality 100.0 %
Test CRC E397FE24
Copy CRC E397FE24
Cannot be verified as accurate (confidence 13) [2FBF99F5], AccurateRip returned [6AB7EC82]
Copy OK

Track 2

Filename C:\2.Temp\Pedro Upload\U2 - Please Popheart Live EP (1997) [FLAC] {UK CD Single CIDX 673-572 133-2}\02 - Where The Streets Have No Name [Live From Rotterdam].wav

Peak level 99.9 %
Track quality 100.0 %
Test CRC 67CC1D44
Copy CRC 67CC1D44
Cannot be verified as accurate (confidence 13) [813066C9], AccurateRip returned [2A4C831A]
Copy OK

Track 3

Filename C:\2.Temp\Pedro Upload\U2 - Please Popheart Live EP (1997) [FLAC] {UK CD Single CIDX 673-572 133-2}\03 - With Or Without You [Live From Edmonton].wav

Peak level 96.6 %
Track quality 100.0 %
Test CRC F221A0F8
Copy CRC F221A0F8
Cannot be verified as accurate (confidence 13) [C7AEFD19], AccurateRip returned [78B38AEE]
Copy OK

Track 4

Filename C:\2.Temp\Pedro Upload\U2 - Please Popheart Live EP (1997) [FLAC] {UK CD Single CIDX 673-572 133-2}\04 - Staring At The Sun [Live From Rotterdam].wav

Pre-gap length 0:00:03.04

Peak level 100.0 %
Track quality 100.0 %
Test CRC AA0BFAC8
Copy CRC AA0BFAC8
Cannot be verified as accurate (confidence 13) [B158D863], AccurateRip returned [324D934C]
Copy OK


No tracks could be verified as accurate
You may have a different pressing from the one(s) in the database

No errors occurred

End of status report


All thanks go to the original releaser

U2 or U2 in my Blog

Download U2: Singles Collection. Part 03 (1995 - 1997):