Subcategories

U.D.O. - No Limits (1998) (2012, Anniversary Edition) RE-UPPED

Posted By: apocalipsys2014
U.D.O. - No Limits (1998) (2012, Anniversary Edition) RE-UPPED

U.D.O. - No Limits (1998)
Year & Label: 1998/2012, Gun Recrods/AFM recrods | CD#: AFM 432-2
Flac (image) | MP3 CBR 320 Kbps | Artwork (JPG, 300 dpi) | File-hosts: Uploaded.net
Heavy Metal | FLAC: 650 MB | Artwork: 25 MB | MP3: 180 MB | 5% WinRAR Recovery

EAC Secure-rip with LOG+CUE+COVERS | Source: eMule
Anniversary Edition with 4 bonus tracks

While the 90's may have been a down-period for Udo Dirkschneider's original band - Accept - the latter half of the decade undoubtedly belonged to U.D.O. The diminutive German frontman's traditional Metal powerhouse released a string of brutal albums beginning in '97 with 'Solid' (which lived up to, though perhaps didn't surpass, its own namesake) and culminating in 1999's masterpiece known as 'Holy'. But sandwiched in between these two is arguably the best effort from U.D.O.: No Limits. U.D.O. simply does not relent in their straight-forward catchy Metal attack from track 1 to track 13. The entire beginning of the record has all of the foot-pounding Accept-style riffs we've now come to expect from guitarist Stefan Kaufmann, and the album in general flows incredibly well. There is nary a ballad to be found among such killer tracks as 'Way of Life' and 'Back with a Vengeance', the latter being probably the best song on the record. The addition of the classic Accept tune "I'm a Rebel" is a nice touch, if a bit out of place with the overall style of the record, which has sort of a futuristic / sci-fi feel to it that is mirrored in the 2005 U.D.O. album 'Mission No. X'. Some could argue there is some filler, maybe 'One Step to Fate' or perhaps 'Lovemachine', but even these have moments of brilliance, especially when it comes to guitar solos which - while not blistering or overly complex - serve the mood of the song better than most modern Metal acts do. Udo's passion for unrelenting, ridiculously catchy classic Metal is apparent during every second of this release, and if you consider yourself a fan of the same then pick this up before it goes back out of print.

~ http://www.metal-archives.com
Musicians:

Vocals : Udo Dirkschneider
Guitars : Stefan Kaufmann
Guitars : Jürgen Graf
Bass : Fitty Wienhold
Drums : Stefan Schwarzmann

Produced by Dirkschneider/Kaufmann
Recorded and mixed by Stefan Kaufmann at Roxx Studios, Pulheim
Mastered at MM Sound by Manfred Melchior

Track List:

01. The Gate [0:52]
02. Freelance Man [4:27]
03. Way Of Life [4:52]
04. No Limits [4:02]
05. With A Vengeance [5:29]
06. One Step To Fate [5:13]
07. Backstreet Loner [3:33]
08. Raise The Crown [4:09]
09. Manhunt [4:19]
10. Rated X [4:00]
11. Lovemachine [5:29]
12. I'm A Rebel [2:24]
13. Azrael [5:34]
14. No Limits (Live, Bonus Track) [4:13]
15. The Key (Bonus Track) [4:10]
16. Azrael (Remix, Bonus Track) [5:33]
17. Rated X (Demo, Bonus Track) [3:08]
18. Tough Luck (Demo, Bonus Track) [2:40]

Exact Audio Copy V0.99 prebeta 5 from 4. May 2009

EAC extraction logfile from 30. December 2012, 12:17

U.D.O. / No Limits

Used drive : ATAPI iHAS624 B Adapter: 2 ID: 0

Read mode : Secure
Utilize accurate stream : Yes
Defeat audio cache : Yes
Make use of C2 pointers : No

Read offset correction : 6
Overread into Lead-In and Lead-Out : No
Fill up missing offset samples with silence : Yes
Delete leading and trailing silent blocks : No
Null samples used in CRC calculations : Yes
Used interface : Installed external ASPI interface

Used output format : User Defined Encoder
Selected bitrate : 40 kBit/s
Quality : High
Add ID3 tag : No
Command line compressor : C:\Program Files\Exact Audio Copy\Flac\flac.exe
Additional command line options : -6 -V %s


TOC of the extracted CD

Track | Start | Length | Start sector | End sector
––––––––––––––––––––––––––––-
1 | 0:00.00 | 0:52.17 | 0 | 3916
2 | 0:52.17 | 4:26.58 | 3917 | 23924
3 | 5:19.00 | 4:52.18 | 23925 | 45842
4 | 10:11.18 | 4:01.74 | 45843 | 63991
5 | 14:13.17 | 5:28.56 | 63992 | 88647
6 | 19:41.73 | 5:13.03 | 88648 | 112125
7 | 24:55.01 | 3:33.09 | 112126 | 128109
8 | 28:28.10 | 4:08.73 | 128110 | 146782
9 | 32:37.08 | 4:19.04 | 146783 | 166211
10 | 36:56.12 | 4:00.26 | 166212 | 184237
11 | 40:56.38 | 5:28.61 | 184238 | 208898
12 | 46:25.24 | 2:23.63 | 208899 | 219686
13 | 48:49.12 | 5:34.14 | 219687 | 244750
14 | 54:23.26 | 4:13.00 | 244751 | 263725
15 | 58:36.26 | 4:10.33 | 263726 | 282508
16 | 62:46.59 | 5:33.14 | 282509 | 307497
17 | 68:19.73 | 3:07.73 | 307498 | 321595
18 | 71:27.71 | 2:39.40 | 321596 | 333560


Range status and errors

Selected range

Filename D:\Download\U.D.O. - No Limits.wav

Peak level 98.8 %
Range quality 100.0 %
Copy CRC 23CAD84B
Copy OK

No errors occurred


AccurateRip summary

Track 1 not present in database
Track 2 not present in database
Track 3 not present in database
Track 4 not present in database
Track 5 not present in database
Track 6 not present in database
Track 7 not present in database
Track 8 not present in database
Track 9 not present in database
Track 10 not present in database
Track 11 not present in database
Track 12 not present in database
Track 13 not present in database
Track 14 not present in database
Track 15 not present in database
Track 16 not present in database
Track 17 not present in database
Track 18 not present in database

None of the tracks are present in the AccurateRip database

End of status report

Not my rip, not my scan-job. Thx very much to the original uploader Ilijan [MMT]!
5% WinRar Recovery Record for all files.
Try before you might buy. Support the artists you like and buy their stuff whenever you can afford it.
***
SEE ALSO - U.D.O. - 8 Albums Anniversary Edition (1987-2002) (2013, AFM Records) by v3122
FLAC, image + atrwork or mp3 at Uploaded.net:
FLAC | Artwork | Mp3 320 kbps