UFO - A Conspiracy Of Stars (2015) [Japanese Ed.]

Posted By: Andi_Deris
UFO - A Conspiracy Of Stars (2015) [Japanese Ed.]

UFO - A Conspiracy Of Stars (2015) [Japanese Ed.]
EAC Rip | FLAC: Image+Cue+Log | 404 Mb | MP3 CBR 320 kbps | 131 Mb | Scans | 68 Mb | Time: 50:39
Genre: Classic Rock, Hard Rock | Label: Marquee Inc./Avalon | Cat.: MICP-11202

"A Conspiracy Of Stars" breathes that typically British easy-going confidence for which this band has been known for over 45 years. A strong release consisting of eleven songs which combine everything that the group surrounding frontman Phil Mogg stands for: meaty riffs, distinctive hooks, diverse songwriting, intelligent lyrics and that generally laid-back attitude which we have associated with UFO from the start.

UFO - A Conspiracy Of Stars (2015) [Japanese Ed.]




UFO - A Conspiracy Of Stars (2015) [Japanese Ed.]


Track Listing

01. The Killing Kind (4:00)
02. Run Boy Run (4:18)
03. Ballad Of The Left Hand Gun (4:29)
04. Sugar Cane (6:11)
05. Devil's In The Detail (5:12)
06. Precious Cargo (5:52)
07. The Real Deal (4:07)
08. One And Only (3:57)
09. Messiah Of Love (4:34)
10. Rollin' Rollin' (5:18)
11. King Of The Hill (Bonus Track) (2:40)

Produced by Chris Tsangarides (Judas Priest, Thin Lizzy, Gary Moore)

The Band

• Phil Mogg: vocals
• Vinnie Moore: guitars
• Andy Parker: drums
• Rob De Luca: bass
• Paul Raymond: keyboards, rhythm guitars & backing vocals on track 7

Exact Audio Copy V1.1 from 23. June 2015

EAC extraction logfile from 10. June 2016, 16:14

UFO / A Conspiracy Of Stars

Used drive : ASUS DRW-24F1ST a Adapter: 1 ID: 0

Read mode : Secure
Utilize accurate stream : Yes
Defeat audio cache : Yes
Make use of C2 pointers : No

Read offset correction : 6
Overread into Lead-In and Lead-Out : No
Fill up missing offset samples with silence : Yes
Delete leading and trailing silent blocks : No
Null samples used in CRC calculations : Yes
Used interface : Native Win32 interface for Win NT & 2000

Used output format : User Defined Encoder
Selected bitrate : 768 kBit/s
Quality : High
Add ID3 tag : No
Command line compressor : C:\Program Files (x86)\FLAC Frontend\tools\flac.exe
Additional command line options : -V -8 -T "Date=%year%" -T "Genre=%genre%" %source%


TOC of the extracted CD

Track | Start | Length | Start sector | End sector
––––––––––––––––––––––––––––-
1 | 0:00.00 | 4:00.09 | 0 | 18008
2 | 4:00.09 | 4:18.25 | 18009 | 37383
3 | 8:18.34 | 4:29.30 | 37384 | 57588
4 | 12:47.64 | 6:10.43 | 57589 | 85381
5 | 18:58.32 | 5:11.49 | 85382 | 108755
6 | 24:10.06 | 5:51.40 | 108756 | 135120
7 | 30:01.46 | 4:06.57 | 135121 | 153627
8 | 34:08.28 | 3:57.11 | 153628 | 171413
9 | 38:05.39 | 4:34.16 | 171414 | 191979
10 | 42:39.55 | 5:18.26 | 191980 | 215855
11 | 47:58.06 | 2:40.29 | 215856 | 227884


Range status and errors

Selected range

Filename G:\EAC - Hellixxx rip\UFO - 2015 - Conspiracy Of Stars (MICP-11202).wav

Peak level 99.9 %
Extraction speed 2.8 X
Range quality 99.9 %
Test CRC B3150CC4
Copy CRC B3150CC4
Copy OK

No errors occurred


AccurateRip summary

Track 1 accurately ripped (confidence 1) [B847A319] (AR v2)
Track 2 accurately ripped (confidence 1) [70A50A33] (AR v2)
Track 3 accurately ripped (confidence 1) [77D388F6] (AR v2)
Track 4 accurately ripped (confidence 1) [9152F113] (AR v2)
Track 5 accurately ripped (confidence 1) [D2EEA7DF] (AR v2)
Track 6 accurately ripped (confidence 1) [E2C4392D] (AR v2)
Track 7 accurately ripped (confidence 1) [23C3AA74] (AR v2)
Track 8 accurately ripped (confidence 1) [C0444BC2] (AR v2)
Track 9 accurately ripped (confidence 1) [0FAD94F5] (AR v2)
Track 10 accurately ripped (confidence 1) [D97E097D] (AR v2)
Track 11 accurately ripped (confidence 1) [B63B3A1A] (AR v2)

All tracks accurately ripped

End of status report

==== Log checksum 8E3589911B44F9DE3F82DFAA585976A0B2E399069A886CE73B47C27A003F8985 ====


Many thanks to the original uploader: Hellixxx


Contraband 1991 Contraband [Japan 1st Press]

Doogie White 2011 As Yet Untitled
Doogie White & La Paz 2012 Granite [Digipak]
Doogie White & La Paz 2013 The Dark And The Light [Digipak]
Doogie White & La Paz 2016 Shut Up And Rawk [Digipak]

Fastway 1983 Fastway [Japan 1st Press, 1991]
Fastway 1984 All Fired Up [Japan 1st Press, 1991]
Fastway 1985 Waiting For The Roar [Japan Press, 1986]

The Michael Schenker Group 1980 The Michael Schenker Group [Expanded & Remastered, Japanese Ed. 2000]
The Michael Schenker Group 1981 MSG [Japan 1st Press, 1986]
The Michael Schenker Group 1981 MSG [Expanded & Remastered, Japanese Ed. 2000]
The Michael Schenker Group 1982 Assault Attack [Japan 1st Press, 1986]
The Michael Schenker Group 1982 Assault Attack [Japan (mini LP) 2000]
The Michael Schenker Group 1982 One Night At Budokan (Live) [Japan 1st Press, 1986]
The Michael Schenker Group 1983 Built To Destroy [Expanded & Remastered, Japanese Ed. 2000]
The Michael Schenker Group 1984 Rock Will Never Die (Live) [Japan 1st Press, 1987]
The Michael Schenker Group 2012 The Chrysalis Years (1980-1984) [5CD Box Set]

Michael Schenker Group 1996 Written In The Sand [Japanese Ed.]
Michael Schenker Group 1999 The Unforgiven
Michael Schenker Group 1999 The Unforgiven [Japanese Ed.]
Michael Schenker Group 2001 Be Aware Of Scorpions [Japanese Ed.]

Michael Schenker 2010 Instrumental Intensity

Michael Schenker's Temple Of Rock 2013 Bridge The Gap [Deluxe Ed.]
Michael Schenker's Temple Of Rock 2013 Bridge The Gap [Japanese Ed.]

McAuley Schenker Group 1987 Perfect Timing [Japan 1st Press]
McAuley Schenker Group 1987 Perfect Timing [Expanded & Remastered, Japanese Ed. 2000]
McAuley Schenker Group 1989 Save Yourself [Japan 1st Press]
McAuley Schenker Group 1989 Save Yourself [Expanded & Remastered, Japanese Ed. 2000]
McAuley Schenker Group 1991 M.S.G. [Japan 1st Press]
McAuley Schenker Group 1992 Nightmare: The Acoustic M.S.G. [Japanese Ed. 2000]

Robin McAuley 1999 Business As Usual [Japanese Ed.]

Schenker-Pattison Summit 2004 The Endless Jam
Schenker-Pattison Summit 2005 The Endless Jam Continues

Scorpions 2007 Live At Wacken Open Air 2006 (DVD9)
Scorpions 2015 Return To Forever [Limited 50th Anniversary Collector's Box] 3CD

UFO 1977 Lights Out [Japan 1st Press, 1989]
UFO 1982 Mechanix [Japan 1st Press, 1992]
UFO 1985 Misdemeanor [Japan 1st Press, 1992]
UFO 2014 The Complete Studio Albums 1974-1986 [10CD Box Set]
UFO 2015 A Conspiracy Of Stars [Limited Ed. Digipak]