Subcategories
Please register here if you want to download anything!

If domain in your address bar is different from the list below
PLEASE LEAVE THAT SITE IMMEDIATELY
❗IT'S A DANGEROUS FAKE❗



Spicy Magazines for Men! ;-)

UK - Ultimate Collector's Edition (2016) [14CD + 4Blu-ray Box Set]

Posted By: v3122
UK - Ultimate Collector's Edition (2016) [14CD + 4Blu-ray Box Set]

UK - Ultimate Collector's Edition (2016)
EAC | Flac(Image) + Cue + Log & MP3 CBR 320Kbps
Globe Music, GMM9150 | ~ 4793 or 1667 Mb | Scans(png) -> 978 Mb
4xBlu-Ray: MPEG-4 AVC 1080i, 29,970 fps, 16:9, High Profile 4.1
DTS-HD MA 2.0, 96 kHz, 24-bit | ~ 29.74 Gb
Progressive Rock

Referred to as "the great white hope of progressive rock" by Rolling Stone; UK were one of the most influential and acclaimed supergroups of the 1970s. Originally formed in England in 1977 by keyboardist and electric-violinist Eddie Jobson (Roxy Music, Frank Zappa); vocalist and bassist John Wetton (King Crimson); guitarist Allan Holdsworth (Soft Machine); and drummer Bill Bruford (Yes, King Crimson, Genesis), UK represented the final statement of the classic progressive-rock era - first with their ground-breaking eponymous debut album (recently selected by Rolling Stone as one of the top 30 Greatest Progressive Rock Albums of all time), and then as a trio with drummer Terry Bozzio (Frank Zappa) and their influential "Danger Money" album, followed by the band's classic "Night After Night" live album, recorded during their 1979 tour of Japan. Now, 38 years after their debut, bandleader and producer Jobson has compiled a 18-disc Ultimate Collectors' Edition Box Set featuring high-resolution 'Abbey Road' remasters of their original studio recordings and several previously unreleased live recordings of the early group. The box set also includes, for the first time, a full concert version of "Night After Night," including an additional 50 minutes of music newly mixed from the original multitrack tapes, as well as a Blu-ray audio and double CD of the 2011 Jobson-Wetton "Reunion" Tokyo concert, previously unreleased outside of Japan. "U.K." definitive Abbey Road remaster of the classic first UK album 1 x CD and 1 x 24/96 high resolution Blu-ray audio. "Danger Money" definitive Abbey Road remaster 1 x CD and 1 x 24/96 high resolution Blu-ray audio. "Night After Night" definitive remaster and first mix of complete 1979 concert. Includes 50 minutes of previously unreleased material 2 x CDs and 1 x 24/96 high resolution Blu-ray audio. "Reunion" definitive remaster of 2011 Jobson-Wetton reunion concert in Tokyo 2 x CDs and 1 x 24/96 high resolution Blu-ray audio. Unreleased full concert recordings from 1978-1979 Boston - Paradise Theater Cleveland - Agora Ballroom, Philadelphia - Penn's Landing, Nijmegen - Concertgebouw De Vereeniging 4 x CDs. Interviews and outtakes 2 x CDs "UK - 1977-2015" 64-page book.

~ amazon
UK - Ultimate Collector's Edition (2016):

UK - Ultimate Collector's Edition (2016) [14CD + 4Blu-ray Box Set]

Tracklist CD1 - 1978 UK:

01 In The Dead Of Night: 1) In The Dead Of Night
02 In The Dead Of Night: 2) By The Light Of Day
03 In The Dead Of Night: 3) Presto Vivace And Reprise
04 Thirty Years
05 Alaska
06 Time To Kill
07 Nevermore
08 Mental Medication

Exact Audio Copy V1.1 from 23. June 2015

EAC extraction logfile from 21. November 2016, 8:20

UK / UK

Used drive : PLEXTOR BD-R PX-B950SA Adapter: 1 ID: 1

Read mode : Secure
Utilize accurate stream : Yes
Defeat audio cache : Yes
Make use of C2 pointers : No

Read offset correction : 6
Overread into Lead-In and Lead-Out : No
Fill up missing offset samples with silence : Yes
Delete leading and trailing silent blocks : No
Null samples used in CRC calculations : Yes
Used interface : Native Win32 interface for Win NT & 2000

Used output format : Internal WAV Routines
Sample format : 44.100 Hz; 16 Bit; Stereo


TOC of the extracted CD

Track | Start | Length | Start sector | End sector
––––––––––––––––––––––––––––-
1 | 0:00.00 | 5:34.32 | 0 | 25081
2 | 5:34.32 | 4:31.46 | 25082 | 45452
3 | 10:06.03 | 3:07.62 | 45453 | 59539
4 | 13:13.65 | 8:04.69 | 59540 | 95908
5 | 21:18.59 | 4:40.38 | 95909 | 116946
6 | 25:59.22 | 4:57.64 | 116947 | 139285
7 | 30:57.11 | 8:14.46 | 139286 | 176381
8 | 39:11.57 | 7:23.73 | 176382 | 209679


Range status and errors

Selected range

Filename C:\Users\Meijin\Desktop\ALLexxess\UK\2016 Ultimate Collector's Edition (14CD + 4Blu-ray Box Set\01 1978 UK\UK - UK.wav

Peak level 98.6 %
Extraction speed 6.9 X
Range quality 100.0 %
Test CRC 9B286B1B
Copy CRC 9B286B1B
Copy OK

No errors occurred


AccurateRip summary

Track 1 not present in database
Track 2 not present in database
Track 3 not present in database
Track 4 not present in database
Track 5 not present in database
Track 6 not present in database
Track 7 not present in database
Track 8 not present in database

None of the tracks are present in the AccurateRip database

End of status report

–– CUETools DB Plugin V2.1.6

[CTDB TOCID: MjhMr5kWPSySp.7C2wAcmAoKmk0-] found
Submit result: MjhMr5kWPSySp.7C2wAcmAoKmk0- has been confirmed
Track | CTDB Status
1 | (11/11) Accurately ripped
2 | (11/11) Accurately ripped
3 | (11/11) Accurately ripped
4 | (11/11) Accurately ripped
5 | (11/11) Accurately ripped
6 | (11/11) Accurately ripped
7 | (11/11) Accurately ripped
8 | (11/11) Accurately ripped


==== Log checksum F045F72FC8D0297EF292C72758E7E0E8AA354C38248AC2209EC4565EC1BA847A ====


UK - Ultimate Collector's Edition (2016) [14CD + 4Blu-ray Box Set]

Tracklist CD2 - 1978 UK Extras (Indtrumental):

01 In The Dead Of Night: 1) In The Dead Of Night
02 In The Dead Of Night: 2) By The Light Of Day
03 In The Dead Of Night: 3) Presto Vivace And Reprise
04 Thirty Years
05 Alaska
06 Time To Kill
07 Nevermore
08 Mental Medication

Exact Audio Copy V1.1 from 23. June 2015

EAC extraction logfile from 21. November 2016, 7:57

UK / UK Extras (Instrumental)

Used drive : PLEXTOR BD-R PX-B950SA Adapter: 1 ID: 1

Read mode : Secure
Utilize accurate stream : Yes
Defeat audio cache : Yes
Make use of C2 pointers : No

Read offset correction : 6
Overread into Lead-In and Lead-Out : No
Fill up missing offset samples with silence : Yes
Delete leading and trailing silent blocks : No
Null samples used in CRC calculations : Yes
Used interface : Native Win32 interface for Win NT & 2000

Used output format : Internal WAV Routines
Sample format : 44.100 Hz; 16 Bit; Stereo


TOC of the extracted CD

Track | Start | Length | Start sector | End sector
––––––––––––––––––––––––––––-
1 | 0:00.00 | 5:32.41 | 0 | 24940
2 | 5:32.41 | 4:49.51 | 24941 | 46666
3 | 10:22.17 | 2:59.02 | 46667 | 60093
4 | 13:21.19 | 6:39.23 | 60094 | 90041
5 | 20:00.42 | 4:48.69 | 90042 | 111710
6 | 24:49.36 | 4:58.37 | 111711 | 134097
7 | 29:47.73 | 8:03.54 | 134098 | 170376
8 | 37:51.52 | 7:32.30 | 170377 | 204306


Range status and errors

Selected range

Filename C:\Users\Meijin\Desktop\ALLexxess\UK\2016 Ultimate Collector's Edition (14CD + 4Blu-ray Box Set\02 1978 UK Extras\UK - UK Extras (Instrumental).wav

Peak level 100.0 %
Extraction speed 6.9 X
Range quality 100.0 %
Test CRC 1AA4C442
Copy CRC 1AA4C442
Copy OK

No errors occurred


AccurateRip summary

Track 1 not present in database
Track 2 not present in database
Track 3 not present in database
Track 4 not present in database
Track 5 not present in database
Track 6 not present in database
Track 7 not present in database
Track 8 not present in database

None of the tracks are present in the AccurateRip database

End of status report

–– CUETools DB Plugin V2.1.6

[CTDB TOCID: VhOQEjQ2zmCrUgBjziaMRxkV9yY-] found
Submit result: VhOQEjQ2zmCrUgBjziaMRxkV9yY- has been confirmed
Track | CTDB Status
1 | (5/5) Accurately ripped
2 | (5/5) Accurately ripped
3 | (5/5) Accurately ripped
4 | (5/5) Accurately ripped
5 | (5/5) Accurately ripped
6 | (5/5) Accurately ripped
7 | (5/5) Accurately ripped
8 | (5/5) Accurately ripped


==== Log checksum E3C0696CCFB7F927A9BD6E2A5D904E2C97912E6912846B193C8A9CC9A72651C0 ====


UK - Ultimate Collector's Edition (2016) [14CD + 4Blu-ray Box Set]

Tracklist CD3 - 1978 Live In Boston:

01 Alaska
02 Time To Kill
03 The Only Thing She Needs
04 Carrying No Cross
05 Thirty Years
06 By The Light Of Day Part 2
07 Presto Vivace
08 In The Dead Of Night
09 Caesar's Palace Blues

Exact Audio Copy V1.1 from 23. June 2015

EAC extraction logfile from 20. November 2016, 17:50

UK / Live In Boston

Used drive : PLEXTOR BD-R PX-B950SA Adapter: 1 ID: 1

Read mode : Secure
Utilize accurate stream : Yes
Defeat audio cache : Yes
Make use of C2 pointers : No

Read offset correction : 6
Overread into Lead-In and Lead-Out : No
Fill up missing offset samples with silence : Yes
Delete leading and trailing silent blocks : No
Null samples used in CRC calculations : Yes
Used interface : Native Win32 interface for Win NT & 2000

Used output format : Internal WAV Routines
Sample format : 44.100 Hz; 16 Bit; Stereo


TOC of the extracted CD

Track | Start | Length | Start sector | End sector
––––––––––––––––––––––––––––-
1 | 0:00.00 | 3:41.54 | 0 | 16628
2 | 3:41.54 | 5:09.08 | 16629 | 39811
3 | 8:50.62 | 7:20.65 | 39812 | 72876
4 | 16:11.52 | 10:00.26 | 72877 | 117902
5 | 26:12.03 | 8:40.65 | 117903 | 156967
6 | 34:52.68 | 1:20.62 | 156968 | 163029
7 | 36:13.55 | 1:16.63 | 163030 | 168792
8 | 37:30.43 | 6:33.02 | 168793 | 198269
9 | 44:03.45 | 4:29.05 | 198270 | 218449


Range status and errors

Selected range

Filename C:\Users\Meijin\Desktop\ALLexxess\UK\2016 Ultimate Collector's Edition (14CD + 4Blu-ray Box Set\04 1978 Live In Boston\UK - Live In Boston.wav

Peak level 98.8 %
Extraction speed 6.9 X
Range quality 99.9 %
Test CRC DF0D3F89
Copy CRC DF0D3F89
Copy OK

No errors occurred


AccurateRip summary

Track 1 not present in database
Track 2 not present in database
Track 3 not present in database
Track 4 not present in database
Track 5 not present in database
Track 6 not present in database
Track 7 not present in database
Track 8 not present in database
Track 9 not present in database

None of the tracks are present in the AccurateRip database

End of status report

–– CUETools DB Plugin V2.1.6

[CTDB TOCID: YhmHcFoci2B7i7gd9w8rNxtyM7A-] found
Submit result: YhmHcFoci2B7i7gd9w8rNxtyM7A- has been confirmed
Track | CTDB Status
1 | (6/6) Accurately ripped
2 | (6/6) Accurately ripped
3 | (6/6) Accurately ripped
4 | (6/6) Accurately ripped
5 | (6/6) Accurately ripped
6 | (6/6) Accurately ripped
7 | (6/6) Accurately ripped
8 | (6/6) Accurately ripped
9 | (6/6) Accurately ripped


==== Log checksum 49EAE3F19FD1FF624A9CE5DD3CA8E6B7EEDE8F307302BDC5B53D1F9CB6FE008C ====


UK - Ultimate Collector's Edition (2016) [14CD + 4Blu-ray Box Set]

Tracklist CD4 - 1978 Live In Philadelphia:

01 Alaska
02 Time To Kill
03 The Only Thing She Needs
04 Carrying No Cross
05 Forever Until Sunday
06 Thirty Years
07 By The Light Of Day Part 2
08 Presto Vivace
09 In The Dead Of Night
10 The Sahara Of Snow
11 Caesar's Palace Blues

Exact Audio Copy V1.1 from 23. June 2015

EAC extraction logfile from 20. November 2016, 17:22

UK / Live In Philadelphia

Used drive : PLEXTOR BD-R PX-B950SA Adapter: 1 ID: 1

Read mode : Secure
Utilize accurate stream : Yes
Defeat audio cache : Yes
Make use of C2 pointers : No

Read offset correction : 6
Overread into Lead-In and Lead-Out : No
Fill up missing offset samples with silence : Yes
Delete leading and trailing silent blocks : No
Null samples used in CRC calculations : Yes
Used interface : Native Win32 interface for Win NT & 2000

Used output format : Internal WAV Routines
Sample format : 44.100 Hz; 16 Bit; Stereo


TOC of the extracted CD

Track | Start | Length | Start sector | End sector
––––––––––––––––––––––––––––-
1 | 0:00.00 | 3:39.17 | 0 | 16441
2 | 3:39.17 | 5:23.00 | 16442 | 40666
3 | 9:02.17 | 7:21.57 | 40667 | 73798
4 | 16:23.74 | 10:03.62 | 73799 | 119085
5 | 26:27.61 | 6:02.07 | 119086 | 146242
6 | 32:29.68 | 8:07.13 | 146243 | 182780
7 | 40:37.06 | 1:14.42 | 182781 | 188372
8 | 41:51.48 | 1:22.62 | 188373 | 194584
9 | 43:14.35 | 7:31.25 | 194585 | 228434
10 | 50:45.60 | 9:38.39 | 228435 | 271823
11 | 60:24.24 | 5:13.59 | 271824 | 295357


Range status and errors

Selected range

Filename C:\Users\Meijin\Desktop\ALLexxess\UK\2016 Ultimate Collector's Edition (14CD + 4Blu-ray Box Set\05 1978 Live In Philadelphia\UK - Live In Philadelphia.wav

Peak level 99.9 %
Extraction speed 7.5 X
Range quality 100.0 %
Test CRC F36E8B32
Copy CRC F36E8B32
Copy OK

No errors occurred


AccurateRip summary

Track 1 not present in database
Track 2 not present in database
Track 3 not present in database
Track 4 not present in database
Track 5 not present in database
Track 6 not present in database
Track 7 not present in database
Track 8 not present in database
Track 9 not present in database
Track 10 not present in database
Track 11 not present in database

None of the tracks are present in the AccurateRip database

End of status report

–– CUETools DB Plugin V2.1.6

[CTDB TOCID: 9TR8HlIEWejXKlRt.9o80y_9CHc-] found
Submit result: 9TR8HlIEWejXKlRt.9o80y_9CHc- has been confirmed
Track | CTDB Status
1 | (6/6) Accurately ripped
2 | (6/6) Accurately ripped
3 | (6/6) Accurately ripped
4 | (6/6) Accurately ripped
5 | (6/6) Accurately ripped
6 | (6/6) Accurately ripped
7 | (6/6) Accurately ripped
8 | (6/6) Accurately ripped
9 | (6/6) Accurately ripped
10 | (6/6) Accurately ripped
11 | (6/6) Accurately ripped


==== Log checksum 8D3713E4CBBC1B993ADEBFA9B57AE8B870D1BA1D9F147E8F916AE5B061EDB512 ====


UK - Ultimate Collector's Edition (2016) [14CD + 4Blu-ray Box Set]

Tracklist CD5 - 1978 Live In Cleveland:

01 Alaska
02 Time To Kill
03 The Only Thing She Needs
04 Carrying No Cross
05 Forever Until Sunday
06 Thirty Years
07 By The Light Of Day Part 2
08 Presto Vivace
09 In The Dead Of Night

Exact Audio Copy V1.1 from 23. June 2015

EAC extraction logfile from 20. November 2016, 16:52

UK / Live In Cleveland

Used drive : PLEXTOR BD-R PX-B950SA Adapter: 1 ID: 1

Read mode : Secure
Utilize accurate stream : Yes
Defeat audio cache : Yes
Make use of C2 pointers : No

Read offset correction : 6
Overread into Lead-In and Lead-Out : No
Fill up missing offset samples with silence : Yes
Delete leading and trailing silent blocks : No
Null samples used in CRC calculations : Yes
Used interface : Native Win32 interface for Win NT & 2000

Used output format : Internal WAV Routines
Sample format : 44.100 Hz; 16 Bit; Stereo


TOC of the extracted CD

Track | Start | Length | Start sector | End sector
––––––––––––––––––––––––––––-
1 | 0:00.00 | 4:13.69 | 0 | 19043
2 | 4:13.69 | 5:43.12 | 19044 | 44780
3 | 9:57.06 | 7:30.46 | 44781 | 78576
4 | 17:27.52 | 10:23.48 | 78577 | 125349
5 | 27:51.25 | 5:36.07 | 125350 | 150556
6 | 33:27.32 | 8:31.42 | 150557 | 188923
7 | 41:58.74 | 1:27.58 | 188924 | 195506
8 | 43:26.57 | 1:20.45 | 195507 | 201551
9 | 44:47.27 | 7:08.44 | 201552 | 233695


Range status and errors

Selected range

Filename C:\Users\Meijin\Desktop\ALLexxess\UK\2016 Ultimate Collector's Edition (14CD + 4Blu-ray Box Set\06 1978 Live In Cleveland\UK - Live In Cleveland.wav

Peak level 100.0 %
Extraction speed 7.0 X
Range quality 100.0 %
Test CRC C83EC5C9
Copy CRC C83EC5C9
Copy OK

No errors occurred


AccurateRip summary

Track 1 not present in database
Track 2 not present in database
Track 3 not present in database
Track 4 not present in database
Track 5 not present in database
Track 6 not present in database
Track 7 not present in database
Track 8 not present in database
Track 9 not present in database

None of the tracks are present in the AccurateRip database

End of status report

–– CUETools DB Plugin V2.1.6

[CTDB TOCID: 4a4MhmVMoPg9yWU_YsAeJpmx6.o-] found
Submit result: 4a4MhmVMoPg9yWU_YsAeJpmx6.o- has been confirmed
Track | CTDB Status
1 | (5/5) Accurately ripped
2 | (5/5) Accurately ripped
3 | (5/5) Accurately ripped
4 | (5/5) Accurately ripped
5 | (5/5) Accurately ripped
6 | (5/5) Accurately ripped
7 | (5/5) Accurately ripped
8 | (5/5) Accurately ripped
9 | (5/5) Accurately ripped


==== Log checksum B7292FFC37746AC1EBBBD91240796FFCF07A4FE443BDA426DD00DC946F806C17 ====

UK - Ultimate Collector's Edition (2016) [14CD + 4Blu-ray Box Set]

Tracklist CD6 - 1979 Danger Money:

01 Danger Money
02 Rendezvous 6:02
03 The Only Thing She Needs
04 Caesar's Palace Blues
05 Nothing To Lose
06 Carrying No Cross

Exact Audio Copy V1.1 from 23. June 2015

EAC extraction logfile from 20. November 2016, 10:11

UK / Danger Money

Used drive : PLEXTOR BD-R PX-B950SA Adapter: 1 ID: 1

Read mode : Secure
Utilize accurate stream : Yes
Defeat audio cache : Yes
Make use of C2 pointers : No

Read offset correction : 6
Overread into Lead-In and Lead-Out : No
Fill up missing offset samples with silence : Yes
Delete leading and trailing silent blocks : No
Null samples used in CRC calculations : Yes
Used interface : Native Win32 interface for Win NT & 2000

Used output format : Internal WAV Routines
Sample format : 44.100 Hz; 16 Bit; Stereo


TOC of the extracted CD

Track | Start | Length | Start sector | End sector
––––––––––––––––––––––––––––-
1 | 0:00.00 | 8:16.64 | 0 | 37263
2 | 8:16.64 | 5:00.15 | 37264 | 59778
3 | 13:17.04 | 7:53.46 | 59779 | 95299
4 | 21:10.50 | 4:44.63 | 95300 | 116662
5 | 25:55.38 | 3:55.04 | 116663 | 134291
6 | 29:50.42 | 12:23.56 | 134292 | 190072


Range status and errors

Selected range

Filename C:\Users\Meijin\Desktop\ALLexxess\UK\2016 Ultimate Collector's Edition (14CD + 4Blu-ray Box Set\07 1979 Danger Money\UK - Danger Money.wav

Peak level 98.8 %
Extraction speed 6.7 X
Range quality 100.0 %
Test CRC A4FA51E7
Copy CRC A4FA51E7
Copy OK

No errors occurred


AccurateRip summary

Track 1 not present in database
Track 2 not present in database
Track 3 not present in database
Track 4 not present in database
Track 5 not present in database
Track 6 not present in database

None of the tracks are present in the AccurateRip database

End of status report

–– CUETools DB Plugin V2.1.6

[CTDB TOCID: .w7hYdEsUR8OeqifQK0rZHn27ss-] found
Submit result: .w7hYdEsUR8OeqifQK0rZHn27ss- has been confirmed
Track | CTDB Status
1 | (10/10) Accurately ripped
2 | (10/10) Accurately ripped
3 | (10/10) Accurately ripped
4 | (10/10) Accurately ripped
5 | (10/10) Accurately ripped
6 | (10/10) Accurately ripped


==== Log checksum 1760B864A82F636C87C6BDC19D21BAC197386501D1024049879E0F491AAADF95 ====


UK - Ultimate Collector's Edition (2016) [14CD + 4Blu-ray Box Set]

Tracklist CD7 - 1979 Danger Money Extras:

01 Danger Money / Recording Drums
02 Carrying No Cross / Recording Drums
03 When Will You Realise / Single B-Side

Exact Audio Copy V1.1 from 23. June 2015

EAC extraction logfile from 20. November 2016, 9:41

UK / Danger Money Extras

Used drive : PLEXTOR BD-R PX-B950SA Adapter: 1 ID: 1

Read mode : Secure
Utilize accurate stream : Yes
Defeat audio cache : Yes
Make use of C2 pointers : No

Read offset correction : 6
Overread into Lead-In and Lead-Out : No
Fill up missing offset samples with silence : Yes
Delete leading and trailing silent blocks : No
Null samples used in CRC calculations : Yes
Used interface : Native Win32 interface for Win NT & 2000

Used output format : Internal WAV Routines
Sample format : 44.100 Hz; 16 Bit; Stereo


TOC of the extracted CD

Track | Start | Length | Start sector | End sector
––––––––––––––––––––––––––––-
1 | 0:00.00 | 8:06.60 | 0 | 36509
2 | 8:06.60 | 8:03.28 | 36510 | 72762
3 | 16:10.13 | 3:24.62 | 72763 | 88124


Range status and errors

Selected range

Filename C:\Users\Meijin\Desktop\ALLexxess\UK\2016 Ultimate Collector's Edition (14CD + 4Blu-ray Box Set\08 1979 Danger Money Extras\UK - Danger Money Extras.wav

Peak level 99.0 %
Extraction speed 5.7 X
Range quality 100.0 %
Test CRC 263CE052
Copy CRC 263CE052
Copy OK

No errors occurred


AccurateRip summary

Track 1 not present in database
Track 2 not present in database
Track 3 not present in database

None of the tracks are present in the AccurateRip database

End of status report

–– CUETools DB Plugin V2.1.6

[CTDB TOCID: 7.aarIvJRSw_.dAF1.ky.ygmUBs-] found
Submit result: 7.aarIvJRSw_.dAF1.ky.ygmUBs- has been confirmed
Track | CTDB Status
1 | (4/4) Accurately ripped
2 | (4/4) Accurately ripped
3 | (4/4) Accurately ripped


==== Log checksum B1F7D02532F8FB8789FEBF0D3891BAF992A357462F9C9B5FE287546988CCDC31 ====


UK - Ultimate Collector's Edition (2016) [14CD + 4Blu-ray Box Set]

Tracklist CD8 - 1979 Night After Night Extended Part 1:

01 Night After Night
02 Danger Money
03 The Only Thing She Needs
04 Nothing To Lose
05 Bass Solo
06 Thirty Years
07 Carrying No Cross
08 Rendezvous 6:02
09 As Long As You Want Me Here

Exact Audio Copy V1.1 from 23. June 2015

EAC extraction logfile from 20. November 2016, 8:24

UK / Night After Night Extended Part 1

Used drive : PLEXTOR BD-R PX-B950SA Adapter: 1 ID: 1

Read mode : Secure
Utilize accurate stream : Yes
Defeat audio cache : Yes
Make use of C2 pointers : No

Read offset correction : 6
Overread into Lead-In and Lead-Out : No
Fill up missing offset samples with silence : Yes
Delete leading and trailing silent blocks : No
Null samples used in CRC calculations : Yes
Used interface : Native Win32 interface for Win NT & 2000

Used output format : Internal WAV Routines
Sample format : 44.100 Hz; 16 Bit; Stereo


TOC of the extracted CD

Track | Start | Length | Start sector | End sector
––––––––––––––––––––––––––––-
1 | 0:00.00 | 5:09.60 | 0 | 23234
2 | 5:09.60 | 8:08.10 | 23235 | 59844
3 | 13:17.70 | 9:13.31 | 59845 | 101350
4 | 22:31.26 | 5:12.16 | 101351 | 124766
5 | 27:43.42 | 5:15.09 | 124767 | 148400
6 | 32:58.51 | 6:15.48 | 148401 | 176573
7 | 39:14.24 | 13:26.59 | 176574 | 237082
8 | 52:41.08 | 5:32.42 | 237083 | 262024
9 | 58:13.50 | 5:01.71 | 262025 | 284670


Range status and errors

Selected range

Filename C:\Users\Meijin\Desktop\ALLexxess\UK\2016 Ultimate Collector's Edition (14CD + 4Blu-ray Box Set\10-11 1979 Night After Night Extended 2CD\CD1\UK - Night After Night Extended Part 1.wav

Peak level 100.0 %
Extraction speed 7.5 X
Range quality 100.0 %
Test CRC EE42FC18
Copy CRC EE42FC18
Copy OK

No errors occurred


AccurateRip summary

Track 1 not present in database
Track 2 not present in database
Track 3 not present in database
Track 4 not present in database
Track 5 not present in database
Track 6 not present in database
Track 7 not present in database
Track 8 not present in database
Track 9 not present in database

None of the tracks are present in the AccurateRip database

End of status report

–– CUETools DB Plugin V2.1.6

[CTDB TOCID: tzimlzCN8P8OSSbpPc7Tn2EUxWU-] found
Submit result: tzimlzCN8P8OSSbpPc7Tn2EUxWU- has been confirmed
Track | CTDB Status
1 | (5/5) Accurately ripped
2 | (5/5) Accurately ripped
3 | (5/5) Accurately ripped
4 | (5/5) Accurately ripped
5 | (5/5) Accurately ripped
6 | (5/5) Accurately ripped
7 | (5/5) Accurately ripped
8 | (5/5) Accurately ripped
9 | (5/5) Accurately ripped


==== Log checksum C60DCC41AA36499192114340ED9EFC24FE188E0C83A5D21A7580FA27339D29B7 ====


UK - Ultimate Collector's Edition (2016) [14CD + 4Blu-ray Box Set]

Tracklist CD9 - 1979 Night After Night Extended Part 2:

01 Alaska
02 Time To Kill
03 Violin Solo
04 Time To Kill / Reprise
05 By The Light Of Day Part II
06 Presto Vivace
07 Drum Solo
08 In The Dead Of Night
09 Caesar's Palace Blues

Exact Audio Copy V1.1 from 23. June 2015

EAC extraction logfile from 20. November 2016, 7:55

UK / Night After Night Extended Part 2

Used drive : PLEXTOR BD-R PX-B950SA Adapter: 1 ID: 1

Read mode : Secure
Utilize accurate stream : Yes
Defeat audio cache : Yes
Make use of C2 pointers : No

Read offset correction : 6
Overread into Lead-In and Lead-Out : No
Fill up missing offset samples with silence : Yes
Delete leading and trailing silent blocks : No
Null samples used in CRC calculations : Yes
Used interface : Native Win32 interface for Win NT & 2000

Used output format : Internal WAV Routines
Sample format : 44.100 Hz; 16 Bit; Stereo


TOC of the extracted CD

Track | Start | Length | Start sector | End sector
––––––––––––––––––––––––––––-
1 | 0:00.00 | 4:18.22 | 0 | 19371
2 | 4:18.22 | 4:20.42 | 19372 | 38913
3 | 8:38.64 | 4:31.73 | 38914 | 59311
4 | 13:10.62 | 2:20.37 | 59312 | 69848
5 | 15:31.24 | 1:36.04 | 69849 | 77052
6 | 17:07.28 | 1:04.67 | 77053 | 81919
7 | 18:12.20 | 3:45.40 | 81920 | 98834
8 | 21:57.60 | 6:21.47 | 98835 | 127456
9 | 28:19.32 | 5:02.10 | 127457 | 150116


Range status and errors

Selected range

Filename C:\Users\Meijin\Desktop\ALLexxess\UK\2016 Ultimate Collector's Edition (14CD + 4Blu-ray Box Set\10-11 1979 Night After Night Extended 2CD\CD2\UK - Night After Night Extended Part 2.wav

Peak level 99.9 %
Extraction speed 6.3 X
Range quality 100.0 %
Test CRC 85A57151
Copy CRC 85A57151
Copy OK

No errors occurred


AccurateRip summary

Track 1 not present in database
Track 2 not present in database
Track 3 not present in database
Track 4 not present in database
Track 5 not present in database
Track 6 not present in database
Track 7 not present in database
Track 8 not present in database
Track 9 not present in database

None of the tracks are present in the AccurateRip database

End of status report

–– CUETools DB Plugin V2.1.6

[CTDB TOCID: OEoeiMQP3jr92f4H9jfjxfdxhfc-] found
Submit result: OEoeiMQP3jr92f4H9jfjxfdxhfc- has been confirmed
Track | CTDB Status
1 | (6/6) Accurately ripped
2 | (6/6) Accurately ripped
3 | (6/6) Accurately ripped
4 | (6/6) Accurately ripped
5 | (6/6) Accurately ripped
6 | (6/6) Accurately ripped
7 | (6/6) Accurately ripped
8 | (6/6) Accurately ripped
9 | (6/6) Accurately ripped


==== Log checksum 8A8A768459F77697B143A429D3D81D593B27952C5CF408EE1480971491B1847A ====


UK - Ultimate Collector's Edition (2016) [14CD + 4Blu-ray Box Set]

Tracklist CD10 - 1979 Night After Night Original:

01 Night After Night
02 Rendezvous 6:02
03 Nothing To Lose
04 As Long As You Want Me Here
05 Alaska
06 Time To Kill
07 Presto Vivace
08 In The Dead Of Night
09 Caesar's Palace Blues

Exact Audio Copy V1.1 from 23. June 2015

EAC extraction logfile from 19. November 2016, 18:57

UK / Night After Night Original

Used drive : PLEXTOR BD-R PX-B950SA Adapter: 1 ID: 1

Read mode : Secure
Utilize accurate stream : Yes
Defeat audio cache : Yes
Make use of C2 pointers : No

Read offset correction : 6
Overread into Lead-In and Lead-Out : No
Fill up missing offset samples with silence : Yes
Delete leading and trailing silent blocks : No
Null samples used in CRC calculations : Yes
Used interface : Native Win32 interface for Win NT & 2000

Used output format : Internal WAV Routines
Sample format : 44.100 Hz; 16 Bit; Stereo


TOC of the extracted CD

Track | Start | Length | Start sector | End sector
––––––––––––––––––––––––––––-
1 | 0:00.00 | 5:22.49 | 0 | 24198
2 | 5:22.49 | 5:16.38 | 24199 | 47936
3 | 10:39.12 | 5:26.20 | 47937 | 72406
4 | 16:05.32 | 5:01.20 | 72407 | 95001
5 | 21:06.52 | 4:19.20 | 95002 | 114446
6 | 25:25.72 | 4:17.42 | 114447 | 133763
7 | 29:43.39 | 1:02.38 | 133764 | 138451
8 | 30:46.02 | 6:22.37 | 138452 | 167138
9 | 37:08.39 | 5:03.43 | 167139 | 189906


Range status and errors

Selected range

Filename C:\Users\Meijin\Desktop\ALLexxess\UK\2016 Ultimate Collector's Edition (14CD + 4Blu-ray Box Set\12 1979 Night After Night Original\UK - Night After Night Original.wav

Peak level 100.0 %
Extraction speed 6.7 X
Range quality 100.0 %
Test CRC 69CEC955
Copy CRC 69CEC955
Copy OK

No errors occurred


AccurateRip summary

Track 1 not present in database
Track 2 not present in database
Track 3 not present in database
Track 4 not present in database
Track 5 not present in database
Track 6 not present in database
Track 7 not present in database
Track 8 not present in database
Track 9 not present in database

None of the tracks are present in the AccurateRip database

End of status report

–– CUETools DB Plugin V2.1.6

[CTDB TOCID: WdYYDg28F3SBQkJi9eIqADNt9Hc-] found
Submit result: WdYYDg28F3SBQkJi9eIqADNt9Hc- has been confirmed
Track | CTDB Status
1 | (6/6) Accurately ripped
2 | (6/6) Accurately ripped
3 | (6/6) Accurately ripped
4 | (6/6) Accurately ripped
5 | (6/6) Accurately ripped
6 | (6/6) Accurately ripped
7 | (6/6) Accurately ripped
8 | (6/6) Accurately ripped
9 | (6/6) Accurately ripped


==== Log checksum DD54D9F45A6673BD6C4B00E9771D0C99615152ABC941AEFD8A4DCC725453DDC3 ====


UK - Ultimate Collector's Edition (2016) [14CD + 4Blu-ray Box Set]

Tracklist CD11 - Reunion Part 1:

01 In The Dead Of Night
02 By The Light Of Day
03 Presto Vivace And Reprise
04 Danger Money
05 Thirty Years
06 Alaska
07 Time To Kill
08 Starless
09 Carrying No Cross

Exact Audio Copy V1.1 from 23. June 2015

EAC extraction logfile from 19. November 2016, 7:43

UK / Reunion Part 1

Used drive : PLEXTOR BD-R PX-B950SA Adapter: 1 ID: 1

Read mode : Secure
Utilize accurate stream : Yes
Defeat audio cache : Yes
Make use of C2 pointers : No

Read offset correction : 6
Overread into Lead-In and Lead-Out : No
Fill up missing offset samples with silence : Yes
Delete leading and trailing silent blocks : No
Null samples used in CRC calculations : Yes
Used interface : Native Win32 interface for Win NT & 2000

Used output format : Internal WAV Routines
Sample format : 44.100 Hz; 16 Bit; Stereo


TOC of the extracted CD

Track | Start | Length | Start sector | End sector
––––––––––––––––––––––––––––-
1 | 0:00.00 | 7:34.69 | 0 | 34118
2 | 7:34.69 | 4:46.33 | 34119 | 55601
3 | 12:21.27 | 2:49.18 | 55602 | 68294
4 | 15:10.45 | 9:01.33 | 68295 | 108902
5 | 24:12.03 | 8:28.52 | 108903 | 147054
6 | 32:40.55 | 5:00.30 | 147055 | 169584
7 | 37:41.10 | 5:02.73 | 169585 | 192307
8 | 42:44.08 | 11:45.54 | 192308 | 245236
9 | 54:29.62 | 12:04.57 | 245237 | 299593


Range status and errors

Selected range

Filename C:\Users\Meijin\Desktop\ALLexxess\UK\2016 Ultimate Collector's Edition (14CD + 4Blu-ray Box Set\14-15 2011 Reunion 2CD\CD1\UK - Reunion Part 1.wav

Peak level 98.7 %
Extraction speed 7.5 X
Range quality 100.0 %
Test CRC B6F53ECF
Copy CRC B6F53ECF
Copy OK

No errors occurred


AccurateRip summary

Track 1 not present in database
Track 2 not present in database
Track 3 not present in database
Track 4 not present in database
Track 5 not present in database
Track 6 not present in database
Track 7 not present in database
Track 8 not present in database
Track 9 not present in database

None of the tracks are present in the AccurateRip database

End of status report

–– CUETools DB Plugin V2.1.6

[CTDB TOCID: tAdLgEBnuE0rX.AmxGBqabQwbRE-] found
Submit result: tAdLgEBnuE0rX.AmxGBqabQwbRE- has been confirmed
Track | CTDB Status
1 | (4/4) Accurately ripped
2 | (4/4) Accurately ripped
3 | (4/4) Accurately ripped
4 | (4/4) Accurately ripped
5 | (4/4) Accurately ripped
6 | (4/4) Accurately ripped
7 | (4/4) Accurately ripped
8 | (4/4) Accurately ripped
9 | (4/4) Accurately ripped


==== Log checksum E6E4BC82233AED6C3CDC9E0B63010AB6AE70B4F3EAED48054BC631C58DB65774 ====


UK - Ultimate Collector's Edition (2016) [14CD + 4Blu-ray Box Set]

Tracklist CD12 - Reunion Part 2:

01 Violin Solo
02 Nevermore
03 One More Red Nightmare
04 Caesar's Palace Blues
05 The Only Thing She Needs
06 Rendezvous 6:02

Exact Audio Copy V1.1 from 23. June 2015

EAC extraction logfile from 19. November 2016, 7:11

UK / Reunion Part 2

Used drive : PLEXTOR BD-R PX-B950SA Adapter: 1 ID: 1

Read mode : Secure
Utilize accurate stream : Yes
Defeat audio cache : Yes
Make use of C2 pointers : No

Read offset correction : 6
Overread into Lead-In and Lead-Out : No
Fill up missing offset samples with silence : Yes
Delete leading and trailing silent blocks : No
Null samples used in CRC calculations : Yes
Used interface : Native Win32 interface for Win NT & 2000

Used output format : Internal WAV Routines
Sample format : 44.100 Hz; 16 Bit; Stereo


TOC of the extracted CD

Track | Start | Length | Start sector | End sector
––––––––––––––––––––––––––––-
1 | 0:00.00 | 6:20.29 | 0 | 28528
2 | 6:20.29 | 8:15.63 | 28529 | 65716
3 | 14:36.17 | 6:17.68 | 65717 | 94059
4 | 20:54.10 | 4:51.21 | 94060 | 115905
5 | 25:45.31 | 8:50.09 | 115906 | 155664
6 | 34:35.40 | 5:41.13 | 155665 | 181252


Range status and errors

Selected range

Filename C:\Users\Meijin\Desktop\ALLexxess\UK\2016 Ultimate Collector's Edition (14CD + 4Blu-ray Box Set\14-15 2011 Reunion 2CD\CD2\UK - Reunion Part 2.wav

Peak level 98.9 %
Extraction speed 6.6 X
Range quality 100.0 %
Test CRC 5DB473E0
Copy CRC 5DB473E0
Copy OK

No errors occurred


AccurateRip summary

Track 1 not present in database
Track 2 not present in database
Track 3 not present in database
Track 4 not present in database
Track 5 not present in database
Track 6 not present in database

None of the tracks are present in the AccurateRip database

End of status report

–– CUETools DB Plugin V2.1.6

[CTDB TOCID: ok9SgRqd4wQHetEMVVM6EcrkYVU-] found
Submit result: ok9SgRqd4wQHetEMVVM6EcrkYVU- has been confirmed
Track | CTDB Status
1 | (4/4) Accurately ripped
2 | (4/4) Accurately ripped
3 | (4/4) Accurately ripped
4 | (4/4) Accurately ripped
5 | (4/4) Accurately ripped
6 | (4/4) Accurately ripped


==== Log checksum 53B2810379AA90C4A4A94ADA70A97CBE6B3F00BF5B8D154C253DABA8B83776A7 ====

UK - Ultimate Collector's Edition (2016) [14CD + 4Blu-ray Box Set]

Tracklist CD13 - 1978-1979 Interviews:

01 Jobson-Wetton Interview New York 1978
02 Jobson-Wetton Interview London 1979

Exact Audio Copy V1.1 from 23. June 2015

EAC extraction logfile from 18. November 2016, 20:54

UK / Interviews

Used drive : PLEXTOR BD-R PX-B950SA Adapter: 1 ID: 1

Read mode : Secure
Utilize accurate stream : Yes
Defeat audio cache : Yes
Make use of C2 pointers : No

Read offset correction : 6
Overread into Lead-In and Lead-Out : No
Fill up missing offset samples with silence : Yes
Delete leading and trailing silent blocks : No
Null samples used in CRC calculations : Yes
Used interface : Native Win32 interface for Win NT & 2000

Used output format : Internal WAV Routines
Sample format : 44.100 Hz; 16 Bit; Stereo


TOC of the extracted CD

Track | Start | Length | Start sector | End sector
––––––––––––––––––––––––––––-
1 | 0:00.00 | 41:49.41 | 0 | 188215
2 | 41:49.41 | 28:28.30 | 188216 | 316345


Range status and errors

Selected range

Filename C:\Users\Meijin\Desktop\ALLexxess\UK\2016 Ultimate Collector's Edition (14CD + 4Blu-ray Box Set\17 1978-1979 Interviews Bonus Disc\UK - Interviews.wav

Peak level 100.0 %
Extraction speed 9.1 X
Range quality 100.0 %
Test CRC CED31251
Copy CRC CED31251
Copy OK

No errors occurred


AccurateRip summary

Track 1 not present in database
Track 2 not present in database

None of the tracks are present in the AccurateRip database

End of status report

–– CUETools DB Plugin V2.1.6

[CTDB TOCID: K.zmoLO4tnzY6Hua38IfcEz8yTk-] found
Submit result: K.zmoLO4tnzY6Hua38IfcEz8yTk- has been confirmed
Track | CTDB Status
1 | (2/2) Accurately ripped
2 | (2/2) Accurately ripped


==== Log checksum 3D3265DCD7443EC8BF87C72EBB15523C719A8B7A631D8743459D186028BCA0ED ====

UK - Ultimate Collector's Edition (2016) [14CD + 4Blu-ray Box Set]

Tracklist CD14 - 1979 Final Concert:

01 Danger Money
02 As Long As You Want Me Here
03 Thirty Years
04 Drum Solo
05 Night After Night
06 Alaska
07 Nothing To Lose
08 Bass Solo
09 Rendezvous 6:02
10 Nostalgia
11 Violin Solo
12 Presto Vivace
13 In The Dead Of Night

Exact Audio Copy V1.1 from 23. June 2015

EAC extraction logfile from 18. November 2016, 20:23

UK / Final Concert

Used drive : PLEXTOR BD-R PX-B950SA Adapter: 1 ID: 1

Read mode : Secure
Utilize accurate stream : Yes
Defeat audio cache : Yes
Make use of C2 pointers : No

Read offset correction : 6
Overread into Lead-In and Lead-Out : No
Fill up missing offset samples with silence : Yes
Delete leading and trailing silent blocks : No
Null samples used in CRC calculations : Yes
Used interface : Native Win32 interface for Win NT & 2000

Used output format : Internal WAV Routines
Sample format : 44.100 Hz; 16 Bit; Stereo


TOC of the extracted CD

Track | Start | Length | Start sector | End sector
––––––––––––––––––––––––––––-
1 | 0:00.00 | 7:50.00 | 0 | 35249
2 | 7:50.00 | 5:01.25 | 35250 | 57849
3 | 12:51.25 | 7:05.27 | 57850 | 89751
4 | 19:56.52 | 6:00.40 | 89752 | 116791
5 | 25:57.17 | 4:39.50 | 116792 | 137766
6 | 30:36.67 | 4:37.39 | 137767 | 158580
7 | 35:14.31 | 5:06.49 | 158581 | 181579
8 | 40:21.05 | 6:03.11 | 181580 | 208815
9 | 46:24.16 | 5:22.34 | 208816 | 232999
10 | 51:46.50 | 4:19.63 | 233000 | 252487
11 | 56:06.38 | 7:16.64 | 252488 | 285251
12 | 63:23.27 | 1:16.50 | 285252 | 291001
13 | 64:40.02 | 6:36.59 | 291002 | 320760


Range status and errors

Selected range

Filename C:\Users\Meijin\Desktop\ALLexxess\UK\2016 Ultimate Collector's Edition (14CD + 4Blu-ray Box Set\18 1979 Final Concert Bonus Disc\UK - Final Concert.wav

Peak level 98.8 %
Extraction speed 7.7 X
Range quality 99.9 %
Test CRC 030FEF2C
Copy CRC 030FEF2C
Copy OK

No errors occurred


AccurateRip summary

Track 1 not present in database
Track 2 not present in database
Track 3 not present in database
Track 4 not present in database
Track 5 not present in database
Track 6 not present in database
Track 7 not present in database
Track 8 not present in database
Track 9 not present in database
Track 10 not present in database
Track 11 not present in database
Track 12 not present in database
Track 13 not present in database

None of the tracks are present in the AccurateRip database

End of status report

–– CUETools DB Plugin V2.1.6

[CTDB TOCID: 9xEBba7WAnhXWd4cA8Hh7mIBUBI-] found
Submit result: 9xEBba7WAnhXWd4cA8Hh7mIBUBI- has been confirmed
Track | CTDB Status
1 | (2/2) Accurately ripped
2 | (2/2) Accurately ripped
3 | (2/2) Accurately ripped
4 | (2/2) Accurately ripped
5 | (2/2) Accurately ripped
6 | (2/2) Accurately ripped
7 | (2/2) Accurately ripped
8 | (2/2) Accurately ripped
9 | (2/2) Accurately ripped
10 | (2/2) Accurately ripped
11 | (2/2) Accurately ripped
12 | (2/2) Accurately ripped
13 | (2/2) Accurately ripped


==== Log checksum B1AA62796BA5A7DC003F1F6EE19AA72AF598CCEEB13F461C80D50E887938A4C4 ====

UK - Ultimate Collector's Edition (2016) [14CD + 4Blu-ray Box Set]

Tracklist BD1 - 1978 UK:

01 In The Dead Of Night: 1) In The Dead Of Night
02 In The Dead Of Night: 2) By The Light Of Day
03 In The Dead Of Night: 3) Presto Vivace And Reprise
04 Thirty Years
05 Alaska
06 Time To Kill
07 Nevermore
08 Mental Medication

Disc Title: BD01. 1978 UK
Disc Size: 2 130 100 904 bytes
Protection: AACS
BD-Java: No
BDInfo: 0.5.8

Notes:

BDINFO HOME:
Cinema Squid
http://www.cinemasquid.com/blu-ray/tools/bdinfo

INCLUDES FORUMS REPORT FOR:
AVS Forum Blu-ray Audio and Video Specifications Thread
http://www.avsforum.com/avs-vb/showthread.php?t=1155731

WARNING: Report is incomplete because: Scan has not been run.

********************
PLAYLIST: 00000.MPLS
********************

<–- BEGIN FORUMS PASTE –->
                                                                                                                Total   Video                                             
Title                                                           Codec   Length  Movie Size      Disc Size       Bitrate Bitrate Main Audio Track                          Secondary Audio Track
-----                                                           ------  ------- --------------  --------------  ------- ------- ------------------                        ---------------------
00000.MPLS                                                      AVC     0:46:35 0               2 130 100 904   0,00    0,00    DTS-HD Master 2.0 (96kHz/24-bit)          


DISC INFO:

Disc Title:     BD01. 1978 UK
Disc Size:      2 130 100 904 bytes
Protection:     AACS
BD-Java:        No
BDInfo:         0.5.8

PLAYLIST REPORT:

Name:                   00000.MPLS
Length:                 0:46:35.626 (h:m:s.ms)
Size:                   0 bytes
Total Bitrate:          0,00 Mbps

VIDEO:

Codec                   Bitrate             Description     
-----                   -------             -----------     
MPEG-4 AVC Video        0 kbps              1080i / 29,970 fps / 16:9 / High Profile 4.1

AUDIO:

Codec                           Language        Bitrate         Description     
-----                           --------        -------         -----------     
DTS-HD Master Audio             English         0 kbps          2.0 / 96 kHz / 24-bit (DTS Core: 2.0 / 48 kHz / 1509 kbps / 24-bit)

FILES:

Name            Time In         Length          Size            Total Bitrate   
----            -------         ------          ----            -------------   
00000.M2TS      0:00:00.000     0:46:35.626     0               0               

CHAPTERS:

Number          Time In         Length          Avg Video Rate  Max 1-Sec Rate  Max 1-Sec Time  Max 5-Sec Rate  Max 5-Sec Time  Max 10Sec Rate  Max 10Sec Time  Avg Frame Size  Max Frame Size  Max Frame Time  
------          -------         ------          --------------  --------------  --------------  --------------  --------------  --------------  --------------  --------------  --------------  --------------  
1               0:00:00.000     0:05:31.698     0 kbps          0 kbps          00:00:00.000    0 kbps          00:00:00.000    0 kbps          00:00:00.000    0 bytes         0 bytes         00:00:00.000    
2               0:05:31.698     0:04:33.072     0 kbps          0 kbps          00:00:00.000    0 kbps          00:00:00.000    0 kbps          00:00:00.000    0 bytes         0 bytes         00:00:00.000    
3               0:10:04.770     0:03:09.822     0 kbps          0 kbps          00:00:00.000    0 kbps          00:00:00.000    0 kbps          00:00:00.000    0 bytes         0 bytes         00:00:00.000    
4               0:13:14.593     0:08:03.916     0 kbps          0 kbps          00:00:00.000    0 kbps          00:00:00.000    0 kbps          00:00:00.000    0 bytes         0 bytes         00:00:00.000    
5               0:21:18.510     0:04:40.680     0 kbps          0 kbps          00:00:00.000    0 kbps          00:00:00.000    0 kbps          00:00:00.000    0 bytes         0 bytes         00:00:00.000    
6               0:25:59.190     0:04:57.897     0 kbps          0 kbps          00:00:00.000    0 kbps          00:00:00.000    0 kbps          00:00:00.000    0 bytes         0 bytes         00:00:00.000    
7               0:30:57.088     0:08:13.159     0 kbps          0 kbps          00:00:00.000    0 kbps          00:00:00.000    0 kbps          00:00:00.000    0 bytes         0 bytes         00:00:00.000    
8               0:39:10.247     0:07:25.378     0 kbps          0 kbps          00:00:00.000    0 kbps          00:00:00.000    0 kbps          00:00:00.000    0 bytes         0 bytes         00:00:00.000    

STREAM DIAGNOSTICS:

File            PID             Type            Codec           Language                Seconds                 Bitrate                 Bytes           Packets         
----            ---             ----            -----           --------                --------------          --------------          -------------   -----           
00000.M2TS      4113 (0x1011)   0x1B            AVC                                     0                       0                       0               0               
00000.M2TS      4352 (0x1100)   0x86            DTS-HD MA       eng (English)           0                       0                       0               0               

<–– END FORUMS PASTE ––>

QUICK SUMMARY:

Disc Title: BD01. 1978 UK
Disc Size: 2 130 100 904 bytes
Protection: AACS
BD-Java: No
Playlist: 00000.MPLS
Size: 0 bytes
Length: 0:46:35.626
Total Bitrate: 0,00 Mbps
Video: MPEG-4 AVC Video / 0 kbps / 1080i / 29,970 fps / 16:9 / High Profile 4.1
Audio: English / DTS-HD Master Audio / 2.0 / 96 kHz / 24-bit (DTS Core: 2.0 / 48 kHz / 1509 kbps / 24-bit)



UK - Ultimate Collector's Edition (2016) [14CD + 4Blu-ray Box Set]

Tracklist BD2 - 1979 Danger Money:

01 Danger Money
02 Rendezvous 6:02
03 The Only Thing She Needs
04 Caesar's Palace Blues
05 Nothing To Lose
06 Carrying No Cross

Disc Title: BD02. 1979 - Danger Money
Disc Size: 3 275 536 776 bytes
Protection: AACS
BD-Java: No
BDInfo: 0.5.8

Notes:

BDINFO HOME:
Cinema Squid
http://www.cinemasquid.com/blu-ray/tools/bdinfo

INCLUDES FORUMS REPORT FOR:
AVS Forum Blu-ray Audio and Video Specifications Thread
http://www.avsforum.com/avs-vb/showthread.php?t=1155731

WARNING: Report is incomplete because: Scan has not been run.

********************
PLAYLIST: 00000.MPLS
********************

<–- BEGIN FORUMS PASTE –->
                                                                                                                Total   Video                                             
Title                                                           Codec   Length  Movie Size      Disc Size       Bitrate Bitrate Main Audio Track                          Secondary Audio Track
-----                                                           ------  ------- --------------  --------------  ------- ------- ------------------                        ---------------------
00000.MPLS                                                      AVC     0:42:14 0               3 275 536 776   0,00    0,00    DTS-HD Master 2.0 (96kHz/24-bit)          


DISC INFO:

Disc Title:     BD02. 1979 - Danger Money
Disc Size:      3 275 536 776 bytes
Protection:     AACS
BD-Java:        No
BDInfo:         0.5.8

PLAYLIST REPORT:

Name:                   00000.MPLS
Length:                 0:42:14.231 (h:m:s.ms)
Size:                   0 bytes
Total Bitrate:          0,00 Mbps

VIDEO:

Codec                   Bitrate             Description     
-----                   -------             -----------     
MPEG-4 AVC Video        0 kbps              1080i / 29,970 fps / 16:9 / High Profile 4.1

AUDIO:

Codec                           Language        Bitrate         Description     
-----                           --------        -------         -----------     
DTS-HD Master Audio             English         0 kbps          2.0 / 96 kHz / 24-bit (DTS Core: 2.0 / 48 kHz / 1509 kbps / 24-bit)

FILES:

Name            Time In         Length          Size            Total Bitrate   
----            -------         ------          ----            -------------   
00000.M2TS      0:00:00.000     0:42:14.231     0               0               

CHAPTERS:

Number          Time In         Length          Avg Video Rate  Max 1-Sec Rate  Max 1-Sec Time  Max 5-Sec Rate  Max 5-Sec Time  Max 10Sec Rate  Max 10Sec Time  Avg Frame Size  Max Frame Size  Max Frame Time  
------          -------         ------          --------------  --------------  --------------  --------------  --------------  --------------  --------------  --------------  --------------  --------------  
1               0:00:00.000     0:08:16.462     0 kbps          0 kbps          00:00:00.000    0 kbps          00:00:00.000    0 kbps          00:00:00.000    0 bytes         0 bytes         00:00:00.000    
2               0:08:16.462     0:05:00.333     0 kbps          0 kbps          00:00:00.000    0 kbps          00:00:00.000    0 kbps          00:00:00.000    0 bytes         0 bytes         00:00:00.000    
3               0:13:16.796     0:07:53.639     0 kbps          0 kbps          00:00:00.000    0 kbps          00:00:00.000    0 kbps          00:00:00.000    0 bytes         0 bytes         00:00:00.000    
4               0:21:10.435     0:04:44.817     0 kbps          0 kbps          00:00:00.000    0 kbps          00:00:00.000    0 kbps          00:00:00.000    0 bytes         0 bytes         00:00:00.000    
5               0:25:55.253     0:03:55.134     0 kbps          0 kbps          00:00:00.000    0 kbps          00:00:00.000    0 kbps          00:00:00.000    0 bytes         0 bytes         00:00:00.000    
6               0:29:50.388     0:12:23.843     0 kbps          0 kbps          00:00:00.000    0 kbps          00:00:00.000    0 kbps          00:00:00.000    0 bytes         0 bytes         00:00:00.000    

STREAM DIAGNOSTICS:

File            PID             Type            Codec           Language                Seconds                 Bitrate                 Bytes           Packets         
----            ---             ----            -----           --------                --------------          --------------          -------------   -----           
00000.M2TS      4113 (0x1011)   0x1B            AVC                                     0                       0                       0               0               
00000.M2TS      4352 (0x1100)   0x86            DTS-HD MA       eng (English)           0                       0                       0               0               

<–– END FORUMS PASTE ––>

QUICK SUMMARY:

Disc Title: BD02. 1979 - Danger Money
Disc Size: 3 275 536 776 bytes
Protection: AACS
BD-Java: No
Playlist: 00000.MPLS
Size: 0 bytes
Length: 0:42:14.231
Total Bitrate: 0,00 Mbps
Video: MPEG-4 AVC Video / 0 kbps / 1080i / 29,970 fps / 16:9 / High Profile 4.1
Audio: English / DTS-HD Master Audio / 2.0 / 96 kHz / 24-bit (DTS Core: 2.0 / 48 kHz / 1509 kbps / 24-bit)



UK - Ultimate Collector's Edition (2016) [14CD + 4Blu-ray Box Set]

Tracklist BD3 - 1979 Night After Night:

01 Night After Night
02 Danger Money
03 The Only Thing She Needs
04 Nothing To Lose
05 Bass Solo
06 Thirty Years
07 Carrying No Cross
08 Rendezvous 6:02
09 As Long As You Want Me Here

01 Alaska
02 Time To Kill
03 Violin Solo
04 Time To Kill / Reprise
05 By The Light Of Day Part II
06 Presto Vivace
07 Drum Solo
08 In The Dead Of Night
09 Caesar's Palace Blues

Disc Title: BD03. 1979 - Night After Night
Disc Size: 15 285 652 968 bytes
Protection: AACS
BD-Java: No
BDInfo: 0.5.8

Notes:

BDINFO HOME:
Cinema Squid
http://www.cinemasquid.com/blu-ray/tools/bdinfo

INCLUDES FORUMS REPORT FOR:
AVS Forum Blu-ray Audio and Video Specifications Thread
http://www.avsforum.com/avs-vb/showthread.php?t=1155731

WARNING: Report is incomplete because: Scan has not been run.

********************
PLAYLIST: 00000.MPLS
********************

<–- BEGIN FORUMS PASTE –->
                                                                                                                Total   Video                                             
Title                                                           Codec   Length  Movie Size      Disc Size       Bitrate Bitrate Main Audio Track                          Secondary Audio Track
-----                                                           ------  ------- --------------  --------------  ------- ------- ------------------                        ---------------------
00000.MPLS                                                      AVC     1:36:42 0               15 285 652 968  0,00    0,00    DTS-HD Master 2.0 (96kHz/24-bit)          


DISC INFO:

Disc Title:     BD03. 1979 - Night After Night
Disc Size:      15 285 652 968 bytes
Protection:     AACS
BD-Java:    			  		  		  		 	    	 			   		  	   		  		  			     	 			   		   	  			     			  	  	 			   		   	  		 			  		   				     No
BDInfo:         0.5.8

PLAYLIST REPORT:

Name:                   00000.MPLS
Length:                 1:36:42.096 (h:m:s.ms)
Size:                   0 bytes
Total Bitrate:          0,00 Mbps

VIDEO:

Codec                   Bitrate             Description     
-----                   -------             -----------     
MPEG-4 AVC Video        0 kbps              1080i / 29,970 fps / 16:9 / High Profile 4.1

AUDIO:

Codec                           Language        Bitrate         Description     
-----                           --------        -------         -----------     
DTS-HD Master Audio             English         0 kbps          2.0 / 96 kHz / 24-bit (DTS Core: 2.0 / 48 kHz / 1509 kbps / 24-bit)

FILES:

Name            Time In         Length          Size            Total Bitrate   
----            -------         ------          ----            -------------   
00000.M2TS      0:00:00.000     1:36:42.096     0               0               

CHAPTERS:

Number          Time In         Length          Avg Video Rate  Max 1-Sec Rate  Max 1-Sec Time  Max 5-Sec Rate  Max 5-Sec Time  Max 10Sec Rate  Max 10Sec Time  Avg Frame Size  Max Frame Size  Max Frame Time  
------          -------         ------          --------------  --------------  --------------  --------------  --------------  --------------  --------------  --------------  --------------  --------------  
1               0:00:00.000     0:05:09.642     0 kbps          0 kbps          00:00:00.000    0 kbps          00:00:00.000    0 kbps          00:00:00.000    0 bytes         0 bytes         00:00:00.000    
2               0:05:09.642     0:08:08.120     0 kbps          0 kbps          00:00:00.000    0 kbps          00:00:00.000    0 kbps          00:00:00.000    0 bytes         0 bytes         00:00:00.000    
3               0:13:17.763     0:09:13.552     0 kbps          0 kbps          00:00:00.000    0 kbps          00:00:00.000    0 kbps          00:00:00.000    0 bytes         0 bytes         00:00:00.000    
4               0:22:31.316     0:05:12.078     0 kbps          0 kbps          00:00:00.000    0 kbps          00:00:00.000    0 kbps          00:00:00.000    0 bytes         0 bytes         00:00:00.000    
5               0:27:43.395     0:05:11.744     0 kbps          0 kbps          00:00:00.000    0 kbps          00:00:00.000    0 kbps          00:00:00.000    0 bytes         0 bytes         00:00:00.000    
6               0:32:55.139     0:06:18.911     0 kbps          0 kbps          00:00:00.000    0 kbps          00:00:00.000    0 kbps          00:00:00.000    0 bytes         0 bytes         00:00:00.000    
7               0:39:14.051     0:13:27.039     0 kbps          0 kbps          00:00:00.000    0 kbps          00:00:00.000    0 kbps          00:00:00.000    0 bytes         0 bytes         00:00:00.000    
8               0:52:41.091     0:05:32.365     0 kbps          0 kbps          00:00:00.000    0 kbps          00:00:00.000    0 kbps          00:00:00.000    0 bytes         0 bytes         00:00:00.000    
9               0:58:13.456     0:05:05.738     0 kbps          0 kbps          00:00:00.000    0 kbps          00:00:00.000    0 kbps          00:00:00.000    0 bytes         0 bytes         00:00:00.000    
10              1:03:19.195     0:04:18.057     0 kbps          0 kbps          00:00:00.000    0 kbps          00:00:00.000    0 kbps          00:00:00.000    0 bytes         0 bytes         00:00:00.000    
11              1:07:37.253     0:04:20.493     0 kbps          0 kbps          00:00:00.000    0 kbps          00:00:00.000    0 kbps          00:00:00.000    0 bytes         0 bytes         00:00:00.000    
12              1:11:57.746     0:04:31.938     0 kbps          0 kbps          00:00:00.000    0 kbps          00:00:00.000    0 kbps          00:00:00.000    0 bytes         0 bytes         00:00:00.000    
13              1:16:29.685     0:02:20.607     0 kbps          0 kbps          00:00:00.000    0 kbps          00:00:00.000    0 kbps          00:00:00.000    0 bytes         0 bytes         00:00:00.000    
14              1:18:50.292     0:01:34.794     0 kbps          0 kbps          00:00:00.000    0 kbps          00:00:00.000    0 kbps          00:00:00.000    0 bytes         0 bytes         00:00:00.000    
15              1:20:25.086     0:01:06.199     0 kbps          0 kbps          00:00:00.000    0 kbps          00:00:00.000    0 kbps          00:00:00.000    0 bytes         0 bytes         00:00:00.000    
16              1:21:31.286     0:03:45.425     0 kbps          0 kbps          00:00:00.000    0 kbps          00:00:00.000    0 kbps          00:00:00.000    0 bytes         0 bytes         00:00:00.000    
17              1:25:16.711     0:06:21.714     0 kbps          0 kbps          00:00:00.000    0 kbps          00:00:00.000    0 kbps          00:00:00.000    0 bytes         0 bytes         00:00:00.000    
18              1:31:38.426     0:05:03.670     0 kbps          0 kbps          00:00:00.000    0 kbps          00:00:00.000    0 kbps          00:00:00.000    0 bytes         0 bytes         00:00:00.000    

STREAM DIAGNOSTICS:

File            PID             Type            Codec           Language                Seconds                 Bitrate                 Bytes           Packets         
----            ---             ----            -----           --------                --------------          --------------          -------------   -----           
00000.M2TS      4113 (0x1011)   0x1B            AVC                                     0                       0                       0               0               
00000.M2TS      4352 (0x1100)   0x86            DTS-HD MA       eng (English)           0                       0                       0               0               

<–– END FORUMS PASTE ––>

QUICK SUMMARY:

Disc Title: BD03. 1979 - Night After Night
Disc Size: 15 285 652 968 bytes
Protection: AACS
BD-Java: No
Playlist: 00000.MPLS
Size: 0 bytes
Length: 1:36:42.096
Total Bitrate: 0,00 Mbps
Video: MPEG-4 AVC Video / 0 kbps / 1080i / 29,970 fps / 16:9 / High Profile 4.1
Audio: English / DTS-HD Master Audio / 2.0 / 96 kHz / 24-bit (DTS Core: 2.0 / 48 kHz / 1509 kbps / 24-bit)


********************
PLAYLIST: 00002.MPLS
********************

<–- BEGIN FORUMS PASTE –->
                                                                                                                Total   Video                                             
Title                                                           Codec   Length  Movie Size      Disc Size       Bitrate Bitrate Main Audio Track                          Secondary Audio Track
-----                                                           ------  ------- --------------  --------------  ------- ------- ------------------                        ---------------------
00002.MPLS                                                      AVC     1:36:39 0               15 285 652 968  0,00    0,00    DTS-HD Master 5.1 (96kHz/24-bit)          


DISC INFO:

Disc Title:     BD03. 1979 - Night After Night
Disc Size:      15 285 652 968 bytes
Protection:     AACS
BD-Java:        No
BDInfo:         0.5.8

PLAYLIST REPORT:

Name:                   00002.MPLS
Length:                 1:36:39.727 (h:m:s.ms)
Size:                   0 bytes
Total Bitrate:          0,00 Mbps

VIDEO:

Codec                   Bitrate             Description     
-----                   -------             -----------     
MPEG-4 AVC Video        0 kbps              1080i / 29,970 fps / 16:9 / High Profile 4.1

AUDIO:

Codec                           Language        Bitrate         Description     
-----                           --------        -------         -----------     
DTS-HD Master Audio             English         0 kbps          5.1 / 96 kHz / 24-bit (DTS Core: 5.1 / 48 kHz / 1509 kbps / 24-bit)

FILES:

Name            Time In         Length          Size            Total Bitrate   
----            -------         ------          ----            -------------   
00002.M2TS      0:00:00.000     1:36:39.727     0               0               

CHAPTERS:

Number          Time In         Length          Avg Video Rate  Max 1-Sec Rate  Max 1-Sec Time  Max 5-Sec Rate  Max 5-Sec Time  Max 10Sec Rate  Max 10Sec Time  Avg Frame Size  Max Frame Size  Max Frame Time  
------          -------         ------          --------------  --------------  --------------  --------------  --------------  --------------  --------------  --------------  --------------  --------------  
1               0:00:00.000     0:05:09.709     0 kbps          0 kbps          00:00:00.000    0 kbps          00:00:00.000    0 kbps          00:00:00.000    0 bytes         0 bytes         00:00:00.000    
2               0:05:09.709     0:08:08.087     0 kbps          0 kbps          00:00:00.000    0 kbps          00:00:00.000    0 kbps          00:00:00.000    0 bytes         0 bytes         00:00:00.000    
3               0:13:17.797     0:09:13.552     0 kbps          0 kbps          00:00:00.000    0 kbps          00:00:00.000    0 kbps          00:00:00.000    0 bytes         0 bytes         00:00:00.000    
4               0:22:31.350     0:05:12.078     0 kbps          0 kbps          00:00:00.000    0 kbps          00:00:00.000    0 kbps          00:00:00.000    0 bytes         0 bytes         00:00:00.000    
5               0:27:43.428     0:05:13.713     0 kbps          0 kbps          00:00:00.000    0 kbps          00:00:00.000    0 kbps          00:00:00.000    0 bytes         0 bytes         00:00:00.000    
6               0:32:57.141     0:06:16.943     0 kbps          0 kbps          00:00:00.000    0 kbps          00:00:00.000    0 kbps          00:00:00.000    0 bytes         0 bytes         00:00:00.000    
7               0:39:14.085     0:13:27.072     0 kbps          0 kbps          00:00:00.000    0 kbps          00:00:00.000    0 kbps          00:00:00.000    0 bytes         0 bytes         00:00:00.000    
8               0:52:41.158     0:05:32.398     0 kbps          0 kbps          00:00:00.000    0 kbps          00:00:00.000    0 kbps          00:00:00.000    0 bytes         0 bytes         00:00:00.000    
9               0:58:13.556     0:05:03.169     0 kbps          0 kbps          00:00:00.000    0 kbps          00:00:00.000    0 kbps          00:00:00.000    0 bytes         0 bytes         00:00:00.000    
10              1:03:16.726     0:04:17.924     0 kbps          0 kbps          00:00:00.000    0 kbps          00:00:00.000    0 kbps          00:00:00.000    0 bytes         0 bytes         00:00:00.000    
11              1:07:34.650     0:04:20.693     0 kbps          0 kbps          00:00:00.000    0 kbps          00:00:00.000    0 kbps          00:00:00.000    0 bytes         0 bytes         00:00:00.000    
12              1:11:55.344     0:04:31.904     0 kbps          0 kbps          00:00:00.000    0 kbps          00:00:00.000    0 kbps          00:00:00.000    0 bytes         0 bytes         00:00:00.000    
13              1:16:27.249     0:02:20.440     0 kbps          0 kbps          00:00:00.000    0 kbps          00:00:00.000    0 kbps          00:00:00.000    0 bytes         0 bytes         00:00:00.000    
14              1:18:47.689     0:01:34.761     0 kbps          0 kbps          00:00:00.000    0 kbps          00:00:00.000    0 kbps          00:00:00.000    0 bytes         0 bytes         00:00:00.000    
15              1:20:22.450     0:01:06.232     0 kbps          0 kbps          00:00:00.000    0 kbps          00:00:00.000    0 kbps          00:00:00.000    0 bytes         0 bytes         00:00:00.000    
16              1:21:28.683     0:03:45.592     0 kbps          0 kbps          00:00:00.000    0 kbps          00:00:00.000    0 kbps          00:00:00.000    0 bytes         0 bytes         00:00:00.000    
17              1:25:14.275     0:06:21.547     0 kbps          0 kbps          00:00:00.000    0 kbps          00:00:00.000    0 kbps          00:00:00.000    0 bytes         0 bytes         00:00:00.000    
18              1:31:35.823     0:05:03.903     0 kbps          0 kbps          00:00:00.000    0 kbps          00:00:00.000    0 kbps          00:00:00.000    0 bytes         0 bytes         00:00:00.000    

STREAM DIAGNOSTICS:

File            PID             Type            Codec           Language                Seconds                 Bitrate                 Bytes           Packets         
----            ---             ----            -----           --------                --------------          --------------          -------------   -----           
00002.M2TS      4113 (0x1011)   0x1B            AVC                                     0                       0                       0               0               
00002.M2TS      4352 (0x1100)   0x86            DTS-HD MA       eng (English)           0                       0                       0               0               

<–– END FORUMS PASTE ––>

QUICK SUMMARY:

Disc Title: BD03. 1979 - Night After Night
Disc Size: 15 285 652 968 bytes
Protection: AACS
BD-Java: No
Playlist: 00002.MPLS
Size: 0 bytes
Length: 1:36:39.727
Total Bitrate: 0,00 Mbps
Video: MPEG-4 AVC Video / 0 kbps / 1080i / 29,970 fps / 16:9 / High Profile 4.1
Audio: English / DTS-HD Master Audio / 5.1 / 96 kHz / 24-bit (DTS Core: 5.1 / 48 kHz / 1509 kbps / 24-bit)



UK - Ultimate Collector's Edition (2016) [14CD + 4Blu-ray Box Set]

Tracklist BD4 - 2011 Reunion:

Part 1
01 In The Dead Of Night
02 By The Light Of Day
03 Presto Vivace And Reprise
04 Danger Money
05 Thirty Years
06 Alaska
07 Time To Kill
08 Starless
09 Carrying No Cross

Part 2
01 Violin Solo
02 Nevermore
03 One More Red Nightmare
04 Caesar's Palace Blues
05 The Only Thing She Needs
06 Rendezvous 6:02

Disc Title: BD04. 2011 - Reunion
Disc Size: 8 167 999 116 bytes
Protection: AACS
BD-Java: No
BDInfo: 0.5.8

Notes:

BDINFO HOME:
Cinema Squid
http://www.cinemasquid.com/blu-ray/tools/bdinfo

INCLUDES FORUMS REPORT FOR:
AVS Forum Blu-ray Audio and Video Specifications Thread
http://www.avsforum.com/avs-vb/showthread.php?t=1155731

WARNING: Report is incomplete because: Scan has not been run.

********************
PLAYLIST: 00000.MPLS
********************

<–- BEGIN FORUMS PASTE –->
                                                                                                                Total   Video                                             
Title                                                           Codec   Length  Movie Size      Disc Size       Bitrate Bitrate Main Audio Track                          Secondary Audio Track
-----                                                           ------  ------- --------------  --------------  ------- ------- ------------------                        ---------------------
00000.MPLS                                                      AVC     1:46:44 0               8 167 999 116   0,00    0,00    DTS-HD Master 2.0 (96kHz/24-bit)          


DISC INFO:

Disc Title:     BD04. 2011 - Reunion
Disc Size:      8 167 999 116 bytes
Protection:     AACS
BD-Java:        No
BDInfo:         0.5.8

PLAYLIST REPORT:

Name:                   00000.MPLS
Length:                 1:46:44.631 (h:m:s.ms)
Size:                   0 bytes
Total Bitrate:          0,00 Mbps

VIDEO:

Codec                   Bitrate             Description     
-----                   -------             -----------     
MPEG-4 AVC Video        0 kbps              1080i / 29,970 fps / 16:9 / High Profile 4.1

AUDIO:

Codec                           Language        Bitrate         Description     
-----                           --------        -------         -----------     
DTS-HD Master Audio             English         0 kbps          2.0 / 96 kHz / 24-bit (DTS Core: 2.0 / 48 kHz / 1509 kbps / 24-bit)

FILES:

Name            Time In         Length          Size            Total Bitrate   
----            -------         ------          ----            -------------   
00000.M2TS      0:00:00.000     1:46:44.631     0               0               

CHAPTERS:

Number          Time In         Length          Avg Video Rate  Max 1-Sec Rate  Max 1-Sec Time  Max 5-Sec Rate  Max 5-Sec Time  Max 10Sec Rate  Max 10Sec Time  Avg Frame Size  Max Frame Size  Max Frame Time  
------          -------         ------          --------------  --------------  --------------  --------------  --------------  --------------  --------------  --------------  --------------  --------------  
1               0:00:00.000     0:07:34.587     0 kbps          0 kbps          00:00:00.000    0 kbps          00:00:00.000    0 kbps          00:00:00.000    0 bytes         0 bytes         00:00:00.000    
2               0:07:34.587     0:04:46.686     0 kbps          0 kbps          00:00:00.000    0 kbps          00:00:00.000    0 kbps          00:00:00.000    0 bytes         0 bytes         00:00:00.000    
3               0:12:21.273     0:02:49.435     0 kbps          0 kbps          00:00:00.000    0 kbps          00:00:00.000    0 kbps          00:00:00.000    0 bytes         0 bytes         00:00:00.000    
4               0:15:10.709     0:09:01.374     0 kbps          0 kbps          00:00:00.000    0 kbps          00:00:00.000    0 kbps          00:00:00.000    0 bytes         0 bytes         00:00:00.000    
5               0:24:12.083     0:08:30.042     0 kbps          0 kbps          00:00:00.000    0 kbps          00:00:00.000    0 kbps          00:00:00.000    0 bytes         0 bytes         00:00:00.000    
6               0:32:42.126     0:05:00.466     0 kbps          0 kbps          00:00:00.000    0 kbps          00:00:00.000    0 kbps          00:00:00.000    0 bytes         0 bytes         00:00:00.000    
7               0:37:42.593     0:05:03.102     0 kbps          0 kbps          00:00:00.000    0 kbps          00:00:00.000    0 kbps          00:00:00.000    0 bytes         0 bytes         00:00:00.000    
8               0:42:45.696     0:11:45.704     0 kbps          0 kbps          00:00:00.000    0 kbps          00:00:00.000    0 kbps          00:00:00.000    0 bytes         0 bytes         00:00:00.000    
9               0:54:31.401     0:12:10.096     0 kbps          0 kbps          00:00:00.000    0 kbps          00:00:00.000    0 kbps          00:00:00.000    0 bytes         0 bytes         00:00:00.000    
10              1:06:41.497     0:06:06.232     0 kbps          0 kbps          00:00:00.000    0 kbps          00:00:00.000    0 kbps          00:00:00.000    0 bytes         0 bytes         00:00:00.000    
11              1:12:47.730     0:08:15.962     0 kbps          0 kbps          00:00:00.000    0 kbps          00:00:00.000    0 kbps          00:00:00.000    0 bytes         0 bytes         00:00:00.000    
12              1:21:03.692     0:06:17.977     0 kbps          0 kbps          00:00:00.000    0 kbps          00:00:00.000    0 kbps          00:00:00.000    0 bytes         0 bytes         00:00:00.000    
13              1:27:21.669     0:04:51.090     0 kbps          0 kbps          00:00:00.000    0 kbps          00:00:00.000    0 kbps          00:00:00.000    0 bytes         0 bytes         00:00:00.000    
14              1:32:12.760     0:08:50.263     0 kbps          0 kbps          00:00:00.000    0 kbps          00:00:00.000    0 kbps          00:00:00.000    0 bytes         0 bytes         00:00:00.000    
15              1:41:03.023     0:05:41.607     0 kbps          0 kbps          00:00:00.000    0 kbps          00:00:00.000    0 kbps          00:00:00.000    0 bytes         0 bytes         00:00:00.000    

STREAM DIAGNOSTICS:

File            PID             Type            Codec           Language                Seconds                 Bitrate                 Bytes           Packets         
----            ---             ----            -----           --------                --------------          --------------          -------------   -----           
00000.M2TS      4113 (0x1011)   0x1B            AVC                                     0                       0                       0               0               
00000.M2TS      4352 (0x1100)   0x86            DTS-HD MA       eng (English)           0                       0                       0               0               

<–– END FORUMS PASTE ––>

QUICK SUMMARY:

Disc Title: BD04. 2011 - Reunion
Disc Size: 8 167 999 116 bytes
Protection: AACS
BD-Java: No
Playlist: 00000.MPLS
Size: 0 bytes
Length: 1:46:44.631
Total Bitrate: 0,00 Mbps
Video: MPEG-4 AVC Video / 0 kbps / 1080i / 29,970 fps / 16:9 / High Profile 4.1
Audio: English / DTS-HD Master Audio / 2.0 / 96 kHz / 24-bit (DTS Core: 2.0 / 48 kHz / 1509 kbps / 24-bit)



UK - Ultimate Collector's Edition (2016) [14CD + 4Blu-ray Box Set]

All thanks go to ALLexxess

Download UK - Ultimate Collector's Edition (2016):