Subcategories

VA - Ultimate Revenge 2 (1989) {Combat}

Posted By: TestTickles
VA - Ultimate Revenge 2 (1989) {Combat}

VA - Ultimate Revenge 2 (1989) {Combat}
EAC Rip | FLAC with CUE and LOG | scans | 360 mb
MP3 CBR 320 kbps | RAR | 124 mb
Genre: heavy metal, thrash metal, speed metal, death metal

Ultimate Revenge 2 is a 1989 compilation CD. It features what was the latest songs by artists on Combat Records, which was one of the best underground metal labels of the 1980's. Everything is performed live, with a few tracks making their debut here.

01. Forbidden - As Good As Dead
02. Forbidden - Chalice Of Blood
03. Faith Or Fear - Lack Of Motivation
04. Faith Or Fear - Time Bomb
05. Faith Or Fear - Punishment Area
06. Death - Open Casket
07. Death - Choke On It
08. Dark Angel - Merciless Death
09. Dark Angel - Perish In Flames/Darkness Descends
10. Raven - Into The Jaws Of Death
11. Raven - Gimme A Break

Exact Audio Copy V1.0 beta 3 from 29. August 2011

EAC extraction logfile from 4. August 2015, 9:02

Various / Ultimate Revenge 2

Used drive : ASUS DVDRAM GHB1N Adapter: 3 ID: 0

Read mode : Secure
Utilize accurate stream : Yes
Defeat audio cache : Yes
Make use of C2 pointers : No

Read offset correction : 6
Overread into Lead-In and Lead-Out : No
Fill up missing offset samples with silence : Yes
Delete leading and trailing silent blocks : No
Null samples used in CRC calculations : Yes
Used interface : Native Win32 interface for Win NT & 2000
Gap handling : Appended to previous track

Used output format : User Defined Encoder
Selected bitrate : 1024 kBit/s
Quality : High
Add ID3 tag : No
Command line compressor : C:\Program Files (x86)\Exact Audio Copy\FLAC\FLAC.EXE
Additional command line options : -6 -V -T "ARTIST=%artist%" -T "TITLE=%title%" -T "ALBUM=%albumtitle%" -T "DATE=%year%" -T "TRACKNUMBER=%tracknr%" -T "GENRE=%genre%" -T "COMMENT=%comment%" -T "BAND=%albuminterpret%" -T "ALBUMARTIST=%albuminterpret%" -T "COMPOSER=%composer%" %haslyrics%–tag-from-file=LYRICS="%lyricsfile%"%haslyrics% -T "DISCNUMBER=%cdnumber%" -T "TOTALDISCS=%totalcds%" -T "TOTALTRACKS=%numtracks%" %hascover%–picture="%coverfile%"%hascover% %source% -o %dest%


TOC of the extracted CD

Track | Start | Length | Start sector | End sector
––––––––––––––––––––––––––––-
1 | 0:00.33 | 4:09.40 | 33 | 18747
2 | 4:09.73 | 4:49.22 | 18748 | 40444
3 | 8:59.20 | 3:26.28 | 40445 | 55922
4 | 12:25.48 | 5:11.60 | 55923 | 79307
5 | 17:37.33 | 5:06.12 | 79308 | 102269
6 | 22:43.45 | 4:49.05 | 102270 | 123949
7 | 27:32.50 | 5:57.48 | 123950 | 150772
8 | 33:30.23 | 3:44.05 | 150773 | 167577
9 | 37:14.28 | 8:31.07 | 167578 | 205909
10 | 45:45.35 | 5:35.30 | 205910 | 231064
11 | 51:20.65 | 3:29.50 | 231065 | 246789


Track 1

Filename C:\cuntfist\FLAC\VA - Ultimate Revenge 2 (1989) [FLAC] {Combat}\01 - Forbidden - As Good As Dead.wav

Pre-gap length 0:00:02.33

Peak level 99.1 %
Extraction speed 1.0 X
Track quality 100.0 %
Test CRC CD880FCA
Copy CRC CD880FCA
Accurately ripped (confidence 2) [6B056EC9] (AR v2)
Copy OK

Track 2

Filename C:\cuntfist\FLAC\VA - Ultimate Revenge 2 (1989) [FLAC] {Combat}\02 - Forbidden - Chalice Of Blood.wav

Peak level 82.6 %
Extraction speed 1.2 X
Track quality 100.0 %
Test CRC C259573A
Copy CRC C259573A
Accurately ripped (confidence 2) [09FDC657] (AR v2)
Copy OK

Track 3

Filename C:\cuntfist\FLAC\VA - Ultimate Revenge 2 (1989) [FLAC] {Combat}\03 - Faith Or Fear - Lack Of Motivation.wav

Pre-gap length 0:00:00.60

Peak level 89.5 %
Extraction speed 1.2 X
Track quality 100.0 %
Test CRC 5E2F58BC
Copy CRC 5E2F58BC
Accurately ripped (confidence 2) [73BCDA15] (AR v2)
Copy OK

Track 4

Filename C:\cuntfist\FLAC\VA - Ultimate Revenge 2 (1989) [FLAC] {Combat}\04 - Faith Or Fear - Time Bomb.wav

Peak level 88.1 %
Extraction speed 1.4 X
Track quality 100.0 %
Test CRC A9ACE879
Copy CRC A9ACE879
Accurately ripped (confidence 2) [820F0DAC] (AR v2)
Copy OK

Track 5

Filename C:\cuntfist\FLAC\VA - Ultimate Revenge 2 (1989) [FLAC] {Combat}\05 - Faith Or Fear - Punishment Area.wav

Peak level 88.2 %
Extraction speed 1.5 X
Track quality 100.0 %
Test CRC 82C556CC
Copy CRC 82C556CC
Accurately ripped (confidence 2) [F47C030C] (AR v2)
Copy OK

Track 6

Filename C:\cuntfist\FLAC\VA - Ultimate Revenge 2 (1989) [FLAC] {Combat}\06 - Death - Open Casket.wav

Pre-gap length 0:00:00.43

Peak level 97.9 %
Extraction speed 1.6 X
Track quality 100.0 %
Test CRC 7978BB97
Copy CRC 7978BB97
Accurately ripped (confidence 2) [6F41CF6B] (AR v2)
Copy OK

Track 7

Filename C:\cuntfist\FLAC\VA - Ultimate Revenge 2 (1989) [FLAC] {Combat}\07 - Death - Choke On It.wav

Peak level 89.0 %
Extraction speed 1.8 X
Track quality 100.0 %
Test CRC 057C164A
Copy CRC 057C164A
Accurately ripped (confidence 2) [5CAFCE4D] (AR v2)
Copy OK

Track 8

Filename C:\cuntfist\FLAC\VA - Ultimate Revenge 2 (1989) [FLAC] {Combat}\08 - Dark Angel - Merciless Death.wav

Peak level 79.1 %
Extraction speed 1.5 X
Track quality 99.9 %
Test CRC 7934E01E
Copy CRC 7934E01E
Accurately ripped (confidence 2) [ADD79BED] (AR v2)
Copy OK

Track 9

Filename C:\cuntfist\FLAC\VA - Ultimate Revenge 2 (1989) [FLAC] {Combat}\09 - Dark Angel - Perish In Flames, Darkness Descends.wav

Peak level 83.1 %
Extraction speed 2.0 X
Track quality 100.0 %
Test CRC 4EAEFA13
Copy CRC 4EAEFA13
Accurately ripped (confidence 2) [737D7953] (AR v2)
Copy OK

Track 10

Filename C:\cuntfist\FLAC\VA - Ultimate Revenge 2 (1989) [FLAC] {Combat}\10 - Raven - Into The Jaws Of Death.wav

Pre-gap length 0:00:01.32

Peak level 98.2 %
Extraction speed 2.1 X
Track quality 100.0 %
Test CRC 60F9D227
Copy CRC 60F9D227
Accurately ripped (confidence 2) [444601CE] (AR v2)
Copy OK

Track 11

Filename C:\cuntfist\FLAC\VA - Ultimate Revenge 2 (1989) [FLAC] {Combat}\11 - Raven - Gimme A Break.wav

Peak level 79.1 %
Extraction speed 2.0 X
Track quality 100.0 %
Test CRC F48506A1
Copy CRC F48506A1
Accurately ripped (confidence 2) [41D0F30A] (AR v2)
Copy OK


All tracks accurately ripped

No errors occurred

End of status report

==== Log checksum A9C58C872B368DB06DCDA7AD423A30886E73D9FCCCF846E2ABF918C530753B15 ====
.

VA - Ultimate Revenge 2 (1989) {Combat}


Thank you to the original uploader.