Subcategories

UNKLE - The Road: Part 1 (Deluxe Edition) (2017)

Posted By: SERTiL
UNKLE - The Road: Part 1 (Deluxe Edition) (2017)

UNKLE - The Road: Part 1 (Deluxe Edition)
EAC Rip | FLAC (tracks)+cue, log, front cover | 110:38 min | 652 MB
Label: Songs For The Def – SFTDCD001X | Tracks: 30 | Rls.date: 2017
Electronic, Alternative

After a seven-year hiatus, James Lavelle is set to return with a new album from UNKLE. Entitled The Road: Part 1, the 15-track LP is due out August 18th through Pledge Music. It’s the project’s fifth album to date and long-awaited follow-up to 2010’s Where Did the Night Fall. According to a press release, the album taps into the multicultural landscape of modern London and sets out to unite an eclectic mix of ideas, cultures, and genres under the UNKLE umbrella to create something unique. Lavelle explains, “I wanted to make a record that I hadn’t been able to before, going back to the roots of where I came from, with a foot in modern London.”

TRACKLIST

Disc 1:

01. Iterlude 1: Have You Looked At Yourself?
02. Farwell (feat Ysee, Eska, Elliott Power, Keaton Henson, Liela Moss)
03. Looking For The Rain (feat Mark Lanegan, Eska)
04. Cowboys or Indians (feat Elliott Power, Mink, See)
05. Iterlude 2: How do you feel?
06. No Were to Run / Bandits
07. Iterlude 3: Keep On Runnin’
08. Sole Enough (feat Miink)
09. Arms Length (feat Elliott Power, Miink, Callum Finn)
10. Iterlude 4: We Are Stardust
11. Sonata (feat. Keaton Henson)
12. The Road (feat. Eska)
13. Iterlude 5: Friend or Foe
14. Sunrise (Always Comes Around) (feat. Liela Moss)
15. Sick Lullaby (feat. Keaton Henson)

Exact Audio Copy V1.3 from 2. September 2016

EAC extraction logfile from 18. August 2017, 17:45

UNKLE / The Road: Part 1 (Disc I - The Album)

Used drive : PLEXTOR DVDR PX-716A Adapter: 1 ID: 0

Read mode : Secure
Utilize accurate stream : Yes
Defeat audio cache : Yes
Make use of C2 pointers : No

Read offset correction : 30
Overread into Lead-In and Lead-Out : Yes
Fill up missing offset samples with silence : Yes
Delete leading and trailing silent blocks : No
Null samples used in CRC calculations : Yes
Used interface : Native Win32 interface for Win NT & 2000
Gap handling : Appended to previous track

Used output format : User Defined Encoder
Selected bitrate : 128 kBit/s
Quality : High
Add ID3 tag : No
Command line compressor : C:\Program Files (x86)\Exact Audio Copy\Flac\flac.exe
Additional command line options : -8 -V -T "ARTIST=%artist%" -T "TITLE=%title%" -T "ALBUM=%albumtitle%" -T "DATE=%year%" -T "TRACKNUMBER=%tracknr%" -T "GENRE=%genre%" -T "PERFORMER=%albuminterpret%" -T "COMPOSER=%composer%" %haslyrics%–tag-from-file=LYRICS="%lyricsfile%"%haslyrics% -T "ALBUMARTIST=%albumartist%" -T "DISCNUMBER=%cdnumber%" -T "TOTALDISCS=%totalcds%" -T "TOTALTRACKS=%numtracks%" -T "COMMENT=%comment%" %source% -o %dest%


TOC of the extracted CD

Track | Start | Length | Start sector | End sector
––––––––––––––––––––––––––––-
1 | 0:00.00 | 0:47.65 | 0 | 3589
2 | 0:47.65 | 6:13.20 | 3590 | 31584
3 | 7:01.10 | 5:54.56 | 31585 | 58190
4 | 12:55.66 | 5:59.69 | 58191 | 85184
5 | 18:55.60 | 0:53.67 | 85185 | 89226
6 | 19:49.52 | 5:16.22 | 89227 | 112948
7 | 25:05.74 | 0:30.32 | 112949 | 115230
8 | 25:36.31 | 3:05.28 | 115231 | 129133
9 | 28:41.59 | 4:49.16 | 129134 | 150824
10 | 33:31.00 | 0:44.73 | 150825 | 154197
11 | 34:15.73 | 5:14.46 | 154198 | 177793
12 | 39:30.44 | 6:12.03 | 177794 | 205696
13 | 45:42.47 | 0:28.64 | 205697 | 207860
14 | 46:11.36 | 6:13.70 | 207861 | 235905
15 | 52:25.31 | 4:31.71 | 235906 | 256301


Track 1

Filename E:\EACRips\01 Iter I; Have You Looked At Yourself.wav

Pre-gap length 0:00:02.00

Peak level 76.8 %
Extraction speed 3.5 X
Track quality 100.0 %
Test CRC C69DD993
Copy CRC C69DD993
Track not present in AccurateRip database
Copy OK

Track 2

Filename E:\EACRips\02 Farewell.wav

Peak level 79.6 %
Extraction speed 3.8 X
Track quality 100.0 %
Test CRC 8195B466
Copy CRC 8195B466
Track not present in AccurateRip database
Copy OK

Track 3

Filename E:\EACRips\03 Looking For The Rain.wav

Peak level 100.0 %
Extraction speed 3.8 X
Track quality 100.0 %
Test CRC 0699119D
Copy CRC 0699119D
Track not present in AccurateRip database
Copy OK

Track 4

Filename E:\EACRips\04 Cowboys Or Indians.wav

Peak level 100.0 %
Extraction speed 3.8 X
Track quality 100.0 %
Test CRC 141DD6D5
Copy CRC 141DD6D5
Track not present in AccurateRip database
Copy OK

Track 5

Filename E:\EACRips\05 Iter II; How Do You Feel.wav

Peak level 62.7 %
Extraction speed 3.5 X
Track quality 100.0 %
Test CRC 41DB885E
Copy CRC 41DB885E
Track not present in AccurateRip database
Copy OK

Track 6

Filename E:\EACRips\06 Nowhere To Run , Bandits.wav

Peak level 100.0 %
Extraction speed 3.8 X
Track quality 100.0 %
Test CRC 000C49E0
Copy CRC 000C49E0
Track not present in AccurateRip database
Copy OK

Track 7

Filename E:\EACRips\07 Iter III; Keep On Runnin'.wav

Peak level 86.3 %
Extraction speed 3.2 X
Track quality 100.0 %
Test CRC 155798C5
Copy CRC 155798C5
Track not present in AccurateRip database
Copy OK

Track 8

Filename E:\EACRips\08 Stole Enough.wav

Peak level 96.5 %
Extraction speed 3.7 X
Track quality 100.0 %
Test CRC 426C26FD
Copy CRC 426C26FD
Track not present in AccurateRip database
Copy OK

Track 9

Filename E:\EACRips\09 Arm's Length.wav

Peak level 100.0 %
Extraction speed 3.7 X
Track quality 100.0 %
Test CRC 743F6030
Copy CRC 743F6030
Track not present in AccurateRip database
Copy OK

Track 10

Filename E:\EACRips\10 Iter IV; We Are Stardust.wav

Peak level 80.2 %
Extraction speed 3.4 X
Track quality 100.0 %
Test CRC E5C3DEDF
Copy CRC E5C3DEDF
Track not present in AccurateRip database
Copy OK

Track 11

Filename E:\EACRips\11 Sonata.wav

Peak level 99.9 %
Extraction speed 3.8 X
Track quality 100.0 %
Test CRC E45E054E
Copy CRC E45E054E
Track not present in AccurateRip database
Copy OK

Track 12

Filename E:\EACRips\12 The Road.wav

Peak level 100.0 %
Extraction speed 3.8 X
Track quality 100.0 %
Test CRC A6C95544
Copy CRC A6C95544
Track not present in AccurateRip database
Copy OK

Track 13

Filename E:\EACRips\13 Iter V; Friend Or Foe.wav

Peak level 76.6 %
Extraction speed 1.9 X
Track quality 99.6 %
Test CRC F8D52142
Copy CRC F8D52142
Track not present in AccurateRip database
Copy OK

Track 14

Filename E:\EACRips\14 Sunrise (Always Comes Around).wav

Peak level 100.0 %
Extraction speed 3.8 X
Track quality 100.0 %
Test CRC 7D04B4E6
Copy CRC 7D04B4E6
Track not present in AccurateRip database
Copy OK

Track 15

Filename E:\EACRips\15 Sick Lullaby.wav

Peak level 94.8 %
Extraction speed 3.8 X
Track quality 100.0 %
Test CRC 2B01DB30
Copy CRC 2B01DB30
Track not present in AccurateRip database
Copy OK


None of the tracks are present in the AccurateRip database

No errors occurred

End of status report

–– CUETools DB Plugin V2.1.6

[CTDB TOCID: i8mkOiCN1RBf0.8dw3X.13cUYcg-] found
Submit result: i8mkOiCN1RBf0.8dw3X.13cUYcg- has been confirmed
Track | CTDB Status
1 | (3/3) Accurately ripped
2 | (3/3) Accurately ripped
3 | (3/3) Accurately ripped
4 | (3/3) Accurately ripped
5 | (3/3) Accurately ripped
6 | (3/3) Accurately ripped
7 | (3/3) Accurately ripped
8 | (3/3) Accurately ripped
9 | (3/3) Accurately ripped
10 | (3/3) Accurately ripped
11 | (3/3) Accurately ripped
12 | (3/3) Accurately ripped
13 | (3/3) Accurately ripped
14 | (3/3) Accurately ripped
15 | (3/3) Accurately ripped


==== Log checksum B668D2B3A21028E431C3EDB167A7B5F34F05B3DF2FE3B5983F953B8B84A84685 ====


Disc 2: Instrumentals

1.Iter I: Have You Looked at Yourself
2.Farewell
3.Looking for the Rain
4.Cowboys or Indians
5.Iter II: How Do You Feel
6.Nowhere to Run/Bandits
7.Iter III: Keep on Runnin'
8.Stole Enough
9.Arm's Length
10.Iter IV: We Are Stardust
11.Sonata
12.The Road
13.Iter V: Friend or Foe
14.Sunrise (Always Comes Around)
15.Sick Lullaby

Exact Audio Copy V1.3 from 2. September 2016

EAC extraction logfile from 18. August 2017, 18:19

UNKLE / The Road: Part 1 (Disc II: Instrumentals)

Used drive : PLEXTOR DVDR PX-716A Adapter: 1 ID: 0

Read mode : Secure
Utilize accurate stream : Yes
Defeat audio cache : Yes
Make use of C2 pointers : No

Read offset correction : 30
Overread into Lead-In and Lead-Out : Yes
Fill up missing offset samples with silence : Yes
Delete leading and trailing silent blocks : No
Null samples used in CRC calculations : Yes
Used interface : Native Win32 interface for Win NT & 2000
Gap handling : Appended to previous track

Used output format : User Defined Encoder
Selected bitrate : 128 kBit/s
Quality : High
Add ID3 tag : No
Command line compressor : C:\Program Files (x86)\Exact Audio Copy\Flac\flac.exe
Additional command line options : -8 -V -T "ARTIST=%artist%" -T "TITLE=%title%" -T "ALBUM=%albumtitle%" -T "DATE=%year%" -T "TRACKNUMBER=%tracknr%" -T "GENRE=%genre%" -T "PERFORMER=%albuminterpret%" -T "COMPOSER=%composer%" %haslyrics%–tag-from-file=LYRICS="%lyricsfile%"%haslyrics% -T "ALBUMARTIST=%albumartist%" -T "DISCNUMBER=%cdnumber%" -T "TOTALDISCS=%totalcds%" -T "TOTALTRACKS=%numtracks%" -T "COMMENT=%comment%" %source% -o %dest%


TOC of the extracted CD

Track | Start | Length | Start sector | End sector
––––––––––––––––––––––––––––-
1 | 0:00.00 | 6:13.20 | 0 | 27994
2 | 6:13.20 | 5:55.20 | 27995 | 54639
3 | 12:08.40 | 6:16.47 | 54640 | 82886
4 | 18:25.12 | 5:27.15 | 82887 | 107426
5 | 23:52.27 | 3:06.08 | 107427 | 121384
6 | 26:58.35 | 4:52.28 | 121385 | 143312
7 | 31:50.63 | 5:14.70 | 143313 | 166932
8 | 37:05.58 | 6:16.20 | 166933 | 195152
9 | 43:22.03 | 5:59.34 | 195153 | 222111
10 | 49:21.37 | 4:32.30 | 222112 | 242541


Track 1

Filename E:\EACRips\01 Farewell.wav

Pre-gap length 0:00:02.00

Peak level 78.8 %
Extraction speed 3.8 X
Track quality 100.0 %
Test CRC 8F086CB5
Copy CRC 8F086CB5
Track not present in AccurateRip database
Copy OK

Track 2

Filename E:\EACRips\02 Looking For The Rain.wav

Peak level 100.0 %
Extraction speed 3.7 X
Track quality 100.0 %
Test CRC 3AC691F3
Copy CRC 3AC691F3
Track not present in AccurateRip database
Copy OK

Track 3

Filename E:\EACRips\03 Cowboys Or Indians.wav

Peak level 100.0 %
Extraction speed 3.8 X
Track quality 100.0 %
Test CRC 8FB7E071
Copy CRC 8FB7E071
Track not present in AccurateRip database
Copy OK

Track 4

Filename E:\EACRips\04 Nowhere To Run , Bandits.wav

Peak level 100.0 %
Extraction speed 3.8 X
Track quality 100.0 %
Test CRC 694833CF
Copy CRC 694833CF
Track not present in AccurateRip database
Copy OK

Track 5

Filename E:\EACRips\05 Stole Enough.wav

Peak level 98.3 %
Extraction speed 3.7 X
Track quality 100.0 %
Test CRC 4CCBFD80
Copy CRC 4CCBFD80
Track not present in AccurateRip database
Copy OK

Track 6

Filename E:\EACRips\06 Arm's Length.wav

Peak level 100.0 %
Extraction speed 3.7 X
Track quality 100.0 %
Test CRC 0F23F330
Copy CRC 0F23F330
Track not present in AccurateRip database
Copy OK

Track 7

Filename E:\EACRips\07 Sonata.wav

Peak level 99.2 %
Extraction speed 3.8 X
Track quality 100.0 %
Test CRC 50B9E472
Copy CRC 50B9E472
Track not present in AccurateRip database
Copy OK

Track 8

Filename E:\EACRips\08 The Road.wav

Peak level 100.0 %
Extraction speed 3.8 X
Track quality 100.0 %
Test CRC C33E9B94
Copy CRC C33E9B94
Track not present in AccurateRip database
Copy OK

Track 9

Filename E:\EACRips\09 Sunrise (Always Comes Around).wav

Peak level 100.0 %
Extraction speed 3.8 X
Track quality 100.0 %
Test CRC 2DBF8951
Copy CRC 2DBF8951
Track not present in AccurateRip database
Copy OK

Track 10

Filename E:\EACRips\10 Sick Lullaby.wav

Peak level 91.6 %
Extraction speed 3.8 X
Track quality 100.0 %
Test CRC FB163F7E
Copy CRC FB163F7E
Track not present in AccurateRip database
Copy OK


None of the tracks are present in the AccurateRip database

No errors occurred

End of status report

–– CUETools DB Plugin V2.1.6

[CTDB TOCID: W_J630c3yZVtmTpVqTWO_OaDC8w-] found
Submit result: W_J630c3yZVtmTpVqTWO_OaDC8w- has been confirmed
Track | CTDB Status
1 | (2/2) Accurately ripped
2 | (2/2) Accurately ripped
3 | (2/2) Accurately ripped
4 | (2/2) Accurately ripped
5 | (2/2) Accurately ripped
6 | (2/2) Accurately ripped
7 | (2/2) Accurately ripped
8 | (2/2) Accurately ripped
9 | (2/2) Accurately ripped
10 | (2/2) Accurately ripped


==== Log checksum 5523FBC94B6726C357CDDA3E3506C324D96BE2FB7460B25D469208FB057C8DC7 ====


Thanks to the Original customer.