Subcategories

Up Dharma Down - Capacities (2012) {Terno}

Posted By: TestTickles
Up Dharma Down - Capacities (2012) {Terno}

Up Dharma Down - Capacities (2012) {Terno}
EAC Rip | FLAC with log | no scans | 241 mb
MP3 CBR 320kbps | RAR | 90 mb
Genre: indie rock

We go to the Philippines for Capacities, an album by Up Dharma Down. This piece, their third full length, was released by the Terno label.

Up Dharma Down - Capacities (2012) {Terno}

1. Turn It Well
2. Luna
3. Parks
4. Indak
5. Feelings
6. Thinker
7. Kulang
8. Tadhana
9. Night Drops

Armi Millare-keyboards, vocals
Carlos Tañada-lead guitars
Ean Mayor-drums and loops
Paul Yap-bass

Produced by Up Dharma Down
Engineered, mixed & mastered by Noel de Brackinghe

Up Dharma Down - Capacities (2012) {Terno}


Exact Audio Copy V1.0 beta 3 from 29. August 2011

EAC extraction logfile from 20. February 2013, 4:37

Up Dharma Down / Capacities

Used drive : ASUS DRW-2014S1T Adapter: 5 ID: 0

Read mode : Secure
Utilize accurate stream : Yes
Defeat audio cache : No
Make use of C2 pointers : Yes

Combined read/write offset correction : 0
Overread into Lead-In and Lead-Out : No
Fill up missing offset samples with silence : Yes
Delete leading and trailing silent blocks : No
Null samples used in CRC calculations : Yes
Used interface : Native Win32 interface for Win NT & 2000
Gap handling : Not detected, thus appended to previous track

Used output format : User Defined Encoder
Selected bitrate : 768 kBit/s
Quality : High
Add ID3 tag : No
Command line compressor : C:\Program Files (x86)\Exact Audio Copy\FLAC\FLAC.EXE
Additional command line options : -6 -V -T "ARTIST=%artist%" -T "TITLE=%title%" -T "ALBUM=%albumtitle%" -T "DATE=%year%" -T "TRACKNUMBER=%tracknr%" -T "GENRE=%genre%" -T "COMMENT=%comment%" -T "BAND=%albuminterpret%" -T "ALBUMARTIST=%albuminterpret%" -T "COMPOSER=%composer%" %haslyrics%–tag-from-file=LYRICS="%lyricsfile%"%haslyrics% -T "DISCNUMBER=%cdnumber%" -T "TOTALDISCS=%totalcds%" -T "TOTALTRACKS=%numtracks%" %hascover%–picture="%coverfile%"%hascover% %source% -o %dest%


TOC of the extracted CD

Track | Start | Length | Start sector | End sector
––––––––––––––––––––––––––––-
1 | 0:00.00 | 6:12.73 | 0 | 27972
2 | 6:12.73 | 3:49.51 | 27973 | 45198
3 | 10:02.49 | 5:24.39 | 45199 | 69537
4 | 15:27.13 | 4:00.18 | 69538 | 87555
5 | 19:27.31 | 5:00.11 | 87556 | 110066
6 | 24:27.42 | 4:06.60 | 110067 | 128576
7 | 28:34.27 | 3:59.28 | 128577 | 146529
8 | 32:33.55 | 3:47.42 | 146530 | 163596
9 | 36:21.22 | 5:19.52 | 163597 | 187573


Track 1

Filename C:\encode\01 Up Dharma Down - Turn It Well.wav

Peak level 96.6 %
Extraction speed 8.9 X
Track quality 100.0 %
Copy CRC C4A78CE9
Copy OK

Track 2

Filename C:\encode\02 Up Dharma Down - Luna.wav

Peak level 96.6 %
Extraction speed 10.0 X
Track quality 100.0 %
Copy CRC C5C8CE7E
Copy OK

Track 3

Filename C:\encode\03 Up Dharma Down - Parks.wav

Peak level 96.6 %
Extraction speed 11.1 X
Track quality 100.0 %
Copy CRC 3BC0BED1
Copy OK

Track 4

Filename C:\encode\04 Up Dharma Down - Indak.wav

Peak level 96.6 %
Extraction speed 11.7 X
Track quality 100.0 %
Copy CRC CB89BE84
Copy OK

Track 5

Filename C:\encode\05 Up Dharma Down - Feelings (feat. Paul Buchanan).wav

Peak level 96.6 %
Extraction speed 12.5 X
Track quality 100.0 %
Copy CRC 059175B7
Copy OK

Track 6

Filename C:\encode\06 Up Dharma Down - Thinker.wav

Peak level 96.6 %
Extraction speed 13.2 X
Track quality 100.0 %
Copy CRC 8F099303
Copy OK

Track 7

Filename C:\encode\07 Up Dharma Down - Kulang.wav

Peak level 96.6 %
Extraction speed 13.8 X
Track quality 100.0 %
Copy CRC 14C04516
Copy OK

Track 8

Filename C:\encode\08 Up Dharma Down - Tadhana.wav

Peak level 97.7 %
Extraction speed 12.7 X
Track quality 99.9 %
Copy CRC 46AB51F4
Copy OK

Track 9

Filename C:\encode\09 Up Dharma Down - Night Drops.wav

Peak level 96.6 %
Extraction speed 13.7 X
Track quality 100.0 %
Copy CRC 2E7A65AD
Copy OK

No errors occurred

End of status report


Up Dharma Down - Capacities (2012) {Terno}


Thank you to the original uploader