Subcategories

VA - Urban Revolutions: The Future Primitive Sound Collective (2000) **[REPOST]**

Posted By: TestTickles
VA - Urban Revolutions: The Future Primitive Sound Collective (2000) **[REPOST]**

VA - Urban Revolutions: The Future Primitive Sound Collective (2000)
EAC Rip | FLAC with CUE and log | scans | 451 mb
MP3 CBR 320kbps | RAR | 180 mb
Genre: hip-hop, turntablism

A hip-hop/turntablism compilation disc released by Future Primitive, featuring highlights from some of the kings of the un/all-genre. Includes music from Rob Swift, Z-Trip, DJ Zeph, DJ Faust & Shortee, DJ Design, and many more.

VA - Urban Revolutions: The Future Primitive Sound Collective (2000) **[REPOST]**

1. Aromadozeski Therapy featuring Romanowski & Devious Doze - Strudel Strut (7:07)
2. DJ Faust & Shortee - Scientific Breakthrough (5:10)
3. DJ Zeph - 24 Hour Notice (3:38)
4. Mammal - Warrior Dance (6:14)
5. Tino - Liquid Dub (Remix) (5:17)
6. Presage featuring Mr. Dibbs & Jel - Invitation To Hell (10:01)
7. DJ Shadow & Cut Chemist - Interlude (Live At The 45 Session) (1:58)
8. DJ Design - Soul Power '70 (4:10)
9. Rob Swift - Funky Listening (3:25)
10. J-Boogie's Dubtronic Science - Conga Rock (4:03)
11. DJ Z-Trip - Downtime (5:02)
12. Stellar Trax Sound System - Whatever's Clever (6:35)
13. DJ Z-Trip - Further Explorations Into The Black Hole (5:25)
14. The Bulletproof Space Travellers - Black Hole (4:21)
15. Phonosycographdisk & Buckethead - Pelican Exhaust Pipe Wipes (5:25)

Exact Audio Copy V1.1 from 23. June 2015

EAC extraction logfile from 29. January 2017, 8:40

Various Artists / Urban Revolutions

Used drive : TEAC DVD-ROM DV-28SW Adapter: 1 ID: 0

Read mode : Secure
Utilize accurate stream : Yes
Defeat audio cache : Yes
Make use of C2 pointers : No

Read offset correction : 6
Overread into Lead-In and Lead-Out : No
Fill up missing offset samples with silence : Yes
Delete leading and trailing silent blocks : No
Null samples used in CRC calculations : Yes
Used interface : Native Win32 interface for Win NT & 2000
Gap handling : Appended to previous track

Used output format : Internal WAV Routines
Sample format : 44.100 Hz; 16 Bit; Stereo


TOC of the extracted CD

Track | Start | Length | Start sector | End sector
––––––––––––––––––––––––––––-
1 | 0:00.01 | 7:07.51 | 1 | 32076
2 | 7:07.52 | 5:10.51 | 32077 | 55377
3 | 12:18.28 | 3:38.14 | 55378 | 71741
4 | 15:56.42 | 6:14.54 | 71742 | 99845
5 | 22:11.21 | 5:17.09 | 99846 | 123629
6 | 27:28.30 | 10:01.08 | 123630 | 168712
7 | 37:29.38 | 1:58.62 | 168713 | 177624
8 | 39:28.25 | 4:10.51 | 177625 | 196425
9 | 43:39.01 | 3:25.15 | 196426 | 211815
10 | 47:04.16 | 4:03.09 | 211816 | 230049
11 | 51:07.25 | 5:02.20 | 230050 | 252719
12 | 56:09.45 | 6:35.16 | 252720 | 282360
13 | 62:44.61 | 5:25.62 | 282361 | 306797
14 | 68:10.48 | 4:21.47 | 306798 | 326419
15 | 72:32.20 | 5:25.06 | 326420 | 350800


Track 1

Filename C:\My Documents\My FLAC\VA - Urban Revolutions, The Future Primitive Sound Collective (2000) [FLAC]\01 - Aromadozeski Therapy featuring Ramonwski & Devious Doze - Strudel Strut.wav

Pre-gap length 0:00:02.01

Peak level 100.0 %
Extraction speed 3.1 X
Track quality 100.0 %
Test CRC 4A433B82
Copy CRC 4A433B82
Accurately ripped (confidence 3) [63445FEA] (AR v1)
Copy OK

Track 2

Filename C:\My Documents\My FLAC\VA - Urban Revolutions, The Future Primitive Sound Collective (2000) [FLAC]\02 - DJ Faust & Shortee - Scientific Breakthrough.wav

Peak level 93.3 %
Extraction speed 3.4 X
Track quality 100.0 %
Test CRC 87578B03
Copy CRC 87578B03
Accurately ripped (confidence 3) [2B25EBF3] (AR v1)
Copy OK

Track 3

Filename C:\My Documents\My FLAC\VA - Urban Revolutions, The Future Primitive Sound Collective (2000) [FLAC]\03 - DJ Zeph - 24 Hour Notice.wav

Peak level 100.0 %
Extraction speed 3.5 X
Track quality 100.0 %
Test CRC CD7E4C63
Copy CRC CD7E4C63
Accurately ripped (confidence 3) [F85BB52A] (AR v1)
Copy OK

Track 4

Filename C:\My Documents\My FLAC\VA - Urban Revolutions, The Future Primitive Sound Collective (2000) [FLAC]\04 - Mammal - Warrior Dance.wav

Peak level 89.1 %
Extraction speed 3.9 X
Track quality 100.0 %
Test CRC D5CA59E3
Copy CRC D5CA59E3
Accurately ripped (confidence 3) [1A0B39B3] (AR v1)
Copy OK

Track 5

Filename C:\My Documents\My FLAC\VA - Urban Revolutions, The Future Primitive Sound Collective (2000) [FLAC]\05 - Tino - Liquid Dub (Remix).wav

Peak level 100.0 %
Extraction speed 4.2 X
Track quality 100.0 %
Test CRC C224DE0D
Copy CRC C224DE0D
Accurately ripped (confidence 2) [F3FA242B] (AR v1)
Copy OK

Track 6

Filename C:\My Documents\My FLAC\VA - Urban Revolutions, The Future Primitive Sound Collective (2000) [FLAC]\06 - Presage featguring Mr. Diggs & Jel - Invitation To Hell.wav

Peak level 100.0 %
Extraction speed 4.8 X
Track quality 100.0 %
Test CRC 982BAD7B
Copy CRC 982BAD7B
Accurately ripped (confidence 3) [0CE2BF5B] (AR v1)
Copy OK

Track 7

Filename C:\My Documents\My FLAC\VA - Urban Revolutions, The Future Primitive Sound Collective (2000) [FLAC]\07 - DJ Shadow & Cut Chemist - Live At The '45 Session (Interlude).wav

Peak level 100.0 %
Extraction speed 3.0 X
Track quality 99.9 %
Test CRC DB4C7F3A
Copy CRC DB4C7F3A
Accurately ripped (confidence 2) [D6FD5BAB] (AR v1)
Copy OK

Track 8

Filename C:\My Documents\My FLAC\VA - Urban Revolutions, The Future Primitive Sound Collective (2000) [FLAC]\08 - DJ Design - Soul Power '70.wav

Peak level 97.7 %
Extraction speed 3.9 X
Track quality 99.9 %
Test CRC 1899BB0F
Copy CRC 1899BB0F
Accurately ripped (confidence 3) [CAD16D9E] (AR v1)
Copy OK

Track 9

Filename C:\My Documents\My FLAC\VA - Urban Revolutions, The Future Primitive Sound Collective (2000) [FLAC]\09 - Rob Swift - Funky Listening.wav

Peak level 99.9 %
Extraction speed 3.9 X
Track quality 99.9 %
Test CRC 85465E0A
Copy CRC 85465E0A
Accurately ripped (confidence 2) [B7D9F66F] (AR v1)
Copy OK

Track 10

Filename C:\My Documents\My FLAC\VA - Urban Revolutions, The Future Primitive Sound Collective (2000) [FLAC]\10 - J-Boogie's Dubtronic Science - Conga Rock.wav

Peak level 100.0 %
Extraction speed 5.0 X
Track quality 100.0 %
Test CRC 925E27D6
Copy CRC 925E27D6
Accurately ripped (confidence 2) [FD62E1E3] (AR v1)
Copy OK

Track 11

Filename C:\My Documents\My FLAC\VA - Urban Revolutions, The Future Primitive Sound Collective (2000) [FLAC]\11 - DJ Z-Trip - Downtime.wav

Peak level 100.0 %
Extraction speed 5.3 X
Track quality 100.0 %
Test CRC 061BA05A
Copy CRC 061BA05A
Accurately ripped (confidence 3) [9BAB12CE] (AR v1)
Copy OK

Track 12

Filename C:\My Documents\My FLAC\VA - Urban Revolutions, The Future Primitive Sound Collective (2000) [FLAC]\12 - Stellar Trax Sound System - Whatever's Clever.wav

Peak level 100.0 %
Extraction speed 1.0 X
Track quality 100.0 %
Test CRC D2658969
Copy CRC D2658969
Accurately ripped (confidence 3) [EE6622EF] (AR v1)
Copy OK

Track 13

Filename C:\My Documents\My FLAC\VA - Urban Revolutions, The Future Primitive Sound Collective (2000) [FLAC]\13 - DJ Z-Trip - Further Explorations Into The Black Hole.wav

Peak level 100.0 %
Extraction speed 5.1 X
Track quality 100.0 %
Test CRC 1B2E0B2B
Copy CRC 1B2E0B2B
Accurately ripped (confidence 3) [CA7E90E7] (AR v1)
Copy OK

Track 14

Filename C:\My Documents\My FLAC\VA - Urban Revolutions, The Future Primitive Sound Collective (2000) [FLAC]\14 - The Bulletproof Space Traveller - Black Hole.wav

Peak level 98.8 %
Extraction speed 4.2 X
Track quality 99.9 %
Test CRC 330DDD84
Copy CRC 330DDD84
Accurately ripped (confidence 3) [9D6CD671] (AR v1)
Copy OK

Track 15

Filename C:\My Documents\My FLAC\VA - Urban Revolutions, The Future Primitive Sound Collective (2000) [FLAC]\15 - Phonosycographdisk & Buckethead - Pelican Exhaust Pipe Wipes.wav

Peak level 100.0 %
Extraction speed 5.6 X
Track quality 100.0 %
Test CRC FB02F393
Copy CRC FB02F393
Accurately ripped (confidence 2) [19FED1D3] (AR v1)
Copy OK


All tracks accurately ripped

No errors occurred

End of status report

–– CUETools DB Plugin V2.1.6

[CTDB TOCID: 4T8F80yNVU4To.02J3dMwm7UH4s-] found
Submit result: 4T8F80yNVU4To.02J3dMwm7UH4s- has been uploaded
Track | CTDB Status
1 | (0/1) No match
2 | (1/1) Accurately ripped
3 | (1/1) Accurately ripped
4 | (1/1) Accurately ripped
5 | (1/1) Accurately ripped
6 | (1/1) Accurately ripped
7 | (1/1) Accurately ripped
8 | (1/1) Accurately ripped
9 | (1/1) Accurately ripped
10 | (1/1) Accurately ripped
11 | (1/1) Accurately ripped
12 | (1/1) Accurately ripped
13 | (0/1) No match
14 | (1/1) Accurately ripped
15 | (1/1) Accurately ripped


==== Log checksum 30ACA7559C7FE8A8D5C2F494553EB0AB3A850BE52D356009F9498F1852C68BE4 ====


VA - Urban Revolutions: The Future Primitive Sound Collective (2000) **[REPOST]**