Subcategories

Ugly Kid Joe - "Cats In The Cradle" (1993) [U.K. CDS]

Posted By: flac jacket
Ugly Kid Joe - "Cats In The Cradle" (1993) [U.K. CDS]

Ugly Kid Joe - "Cats In The Cradle" (1993) [U.K. CDS]
EAC Secure Rip | FLAC (Image + Cue + Log) - 132 MB | Complete Scans (Jpeg 600 dpi) - 55 MB | MP3 (CBR320 Kbps) - 46 MB
Hard Rock, Heavy Metal | PolyGram Records | MERCD 385 | 18:16 minutes | 5% WinRar Recovery | Hosted on: FilePost

Ugly Kid Joe's biggest hit single is a cover of the Harry Chapin song. This U.K. CD single also contains Panhandlin' Prince and 2 more tracks recorded live Melody, Stockholm on November 1, 1992.

Exact Audio Copy V1.0 beta 2 from 29. April 2011

EAC extraction logfile from 28. September 2012, 13:45

Ugly Kid Joe / Cats In The Cradle [UK CD Single]

Used drive : HL-DT-STDVDRAM GH60N Adapter: 0 ID: 1

Read mode : Secure
Utilize accurate stream : Yes
Defeat audio cache : Yes
Make use of C2 pointers : No

Read offset correction : 667
Overread into Lead-In and Lead-Out : No
Fill up missing offset samples with silence : Yes
Delete leading and trailing silent blocks : No
Null samples used in CRC calculations : Yes
Used interface : Native Win32 interface for Win NT & 2000

Used output format : User Defined Encoder
Selected bitrate : 1024 kBit/s
Quality : High
Add ID3 tag : No
Command line compressor : C:\Program Files (x86)\Exact Audio Copy\Flac\flac.exe
Additional command line options : -V -8 -T "artist=%albumartist%" -T "title=%title%" -T "album=%albumtitle%" -T "date=%year%" -T "genre=%genre%" -T

"tracknumber=%tracknr%" %source%


TOC of the extracted CD

Track | Start | Length | Start sector | End sector
––––––––––––––––––––––––––––-
1 | 0:00.00 | 4:05.00 | 0 | 18374
2 | 4:05.00 | 5:41.60 | 18375 | 44009
3 | 9:46.60 | 3:46.58 | 44010 | 61017
4 | 13:33.43 | 4:40.35 | 61018 | 82052


Range status and errors

Selected range

Filename C:\EAC\Ugly Kid Joe - (1993) ''Cats In The Cradle'' [UK CD Single]\Ugly Kid Joe - Cats In The Cradle [UK CD Single].wav

Peak level 100.0 %
Extraction speed 1.6 X
Range quality 100.0 %
Test CRC 0B3A662C
Copy CRC 0B3A662C
Copy OK

No errors occurred


AccurateRip summary

Track 1 accurately ripped (confidence 8) [7F725894] (AR v1)
Track 2 accurately ripped (confidence 7) [3CA75434] (AR v1)
Track 3 accurately ripped (confidence 7) [DF9A9F1F] (AR v1)
Track 4 accurately ripped (confidence 7) [CAE21021] (AR v1)

All tracks accurately ripped

End of status report

==== Log checksum 8A66CD97B5F1871CAF849FB17B92A7100A24BD2588684C2DE1D0616EDAF3950B ====


Track Listing:

01. Cats In The Cradle
02. Panhandlin' Prince
03. Whiplash Liquor (Live)*
04. Neighbor (Live)*

*Melody, Stockholm on November 1, 1992


Single Released in 1993


foobar2000 1.1.7 / Dynamic Range Meter 1.1.0
log date: 2012-09-29 11:02:17

––––––––––––––––––––––––––––––––––––––––
Analyzed: Ugly Kid Joe / Cats In The Cradle [UK CD Single]
––––––––––––––––––––––––––––––––––––––––

DR Peak RMS Duration Track
––––––––––––––––––––––––––––––––––––––––
DR10 0.00 dB -12.31 dB 4:05 01-Cats In The Cradle
DR11 0.00 dB -12.12 dB 5:42 02-Panhandlin' Prince
DR9 -0.33 dB -10.54 dB 3:47 03-Whiplash Liquor (Live)
DR8 -0.35 dB -10.34 dB 4:40 04-Neighbor (Live)
––––––––––––––––––––––––––––––––––––––––

Number of tracks: 4
Official DR value: DR9

Samplerate: 44100 Hz
Channels: 2
Bits per sample: 16
Bitrate: 964 kbps
Codec: FLAC
================================================================================

Ugly Kid Joe - "Cats In The Cradle" (1993) [U.K. CDS]

Ripped and Scanned from the Stadium Studios Library September 2012
5% WinRar Recovery