Subcategories

Viktor Ullmann - Piano Sonatas 5-7 ( Gregor Weichert)

Posted By: tapaz9
Viktor Ullmann -  Piano Sonatas 5-7  ( Gregor Weichert)

Viktor Ullmann - Piano Sonatas 5-7 ( Gregor Weichert)
Classical | EAC: FLAC+Cue+Log | 1 Cd, Covers + Booklet | 260 Mb
Label: CPO - Date: 1992

Viktor Ullmann has been featured mostly in collections of compositions from the Nazis' "model" concentration camp at Terezin (Theresienstadt), where Jews were permitted some forms of artistic expression and where he wrote the last three of the seven sonatas heard here. But it is becoming clear that Ullmann's is a distinctive voice that deserves to be treated individually.
Tracks:

01. Sonata No. 5 Op. 45 (1943) – I. Allegro Con Brio [0:05:36.07]
02. II. Andante [0:04:41.70]
03. II. Toccatina – Vivace [0:00:44.40]
04. IV. Serenada - Tempo I: Comodo [0:03:24.63]
05. V. Finale Fugato - Allegro Molto [0:03:17.47]
06. Sonata No. 6 Op. 49 (1943) – I. Allegro Molto - Andante Poco Adagio [0:04:30.05]
07. II. Allegretto Grazioso, Attacca [0:03:08.08]
08. III. Presto Ma Non Troppo, Attacca [0:02:55.42]
09. IV. Tempo Primo [0:03:09.23]
10. Sonata No. 7 (1944) – I. Allegro-Meno - Allegro Grazioso [0:04:16.42]
11. II. Alla Marcia [0:02:05.30]
12. III. Adagio, Ma Con Moto [0:03:02.38]
13. IV. Scherzo - Allegretto Grazioso [0:05:50.67]
14. V. Variationen Und Fuge Über Ein Hebräisches Volkslied [0:07:21.50]


Exact Audio Copy V1.0 beta 3 from 29. August 2011

EAC extraction logfile from 8. February 2013, 15:57

Viktor Ullmann / Piano Sonatas 5-7 ( Gregor Weichert)

Used drive : TSSTcorpCDDVDW SH-S223C Adapter: 2 ID: 1

Read mode : Secure
Utilize accurate stream : Yes
Defeat audio cache : Yes
Make use of C2 pointers : No

Read offset correction : 697
Overread into Lead-In and Lead-Out : No
Fill up missing offset samples with silence : Yes
Delete leading and trailing silent blocks : No
Null samples used in CRC calculations : Yes
Used interface : Native Win32 interface for Win NT & 2000

Used output format : User Defined Encoder
Selected bitrate : 896 kBit/s
Quality : High
Add ID3 tag : No
Command line compressor : C:\Program Files (x86)\Exact Audio Copy\FLAC\FLAC.EXE
Additional command line options : -V -0 -T "COMMENT=Ripped by Tapaz9" -T "artist=%artist%" -T "title=%title%" -T "album=%albumtitle%" -T "date=%year%" -T "tracknumber=%tracknr%" -T "genre=%genre%" %source%


TOC of the extracted CD

Track | Start | Length | Start sector | End sector
––––––––––––––––––––––––––––-
1 | 0:00.50 | 5:36.07 | 50 | 25256
2 | 5:36.57 | 4:41.70 | 25257 | 46401
3 | 10:18.52 | 0:44.40 | 46402 | 49741
4 | 11:03.17 | 3:24.63 | 49742 | 65104
5 | 14:28.05 | 3:17.47 | 65105 | 79926
6 | 17:45.52 | 4:30.05 | 79927 | 100181
7 | 22:15.57 | 3:08.08 | 100182 | 114289
8 | 25:23.65 | 2:55.42 | 114290 | 127456
9 | 28:19.32 | 3:09.23 | 127457 | 141654
10 | 31:28.55 | 4:16.42 | 141655 | 160896
11 | 35:45.22 | 2:05.30 | 160897 | 170301
12 | 37:50.52 | 3:02.38 | 170302 | 183989
13 | 40:53.15 | 5:50.67 | 183990 | 210306
14 | 46:44.07 | 7:21.50 | 210307 | 243431


Range status and errors

Selected range

Filename F:\Musique\Ullmann, Viktor\Ullmann_PianoSonatas5_7\Viktor Ullmann - Piano Sonatas 5-7 ( Gregor Weichert).wav

Peak level 94.7 %
Extraction speed 14.4 X
Range quality 100.0 %
Copy CRC 7FE10BF3
Copy OK

No errors occurred

End of status report

==== Log checksum F80789B8CCE7A8461D9138200BC23675440F0F7DA3B0B15E7CE84B4F5CD342C8 ====

No Mirrors and Torrent-uploads Please

See my classical digital download posts in the Vinyl & HR section or check out My Avax blog