Subcategories
Tags
Language
Tags

Umphrey’s McGee - Similar Skin (2014)

Posted By: popsakov
Umphrey’s McGee - Similar Skin (2014)

Umphrey’s McGee - Similar Skin (2014)
EAC Rip | WavPack (Img) + Cue + Log ~ 376 Mb | MP3 CBR320 ~ 131 Mb
Full Scans ~ 66 Mb | 00:54:24 | RAR 5% Recovery
Progressive Rock | Hanging Brains Music / Nothing Too Fancy Music #umN2F101

Prog-influenced jam band champions Umphrey's McGee sought a return to unadulterated rock & roll for eighth album Similar Skin, and first to be released on the band's own imprint Nothing Too Fancy Music; it's also their first effort since 2011's Death by Stereo. While still entrenched in the wandering spirit of jam band improvisation, the 11 songs lean heavily on the influence of '80s pop, rock, and even radio metal, with tunes like album-opener "The Linear" calling to mind the epic polyrhythms of Rush and the epic soloing of the late-'80s Hollywood hair metal scene. The rock assault is tempered with the occasional low-key number, such as the bouncy, pop-minded "No Diablo."

~ Fred Thomas, All Music

***************

Umphrey’s McGee - Similar Skin (2014)

Track List:

01. The Linear [03:49]
02. Cut the Cable [03:54]
03. Hourglass [03:24]
04. No Diablo [04:14]
05. Similar Skin [06:06]
06. Puppet String [06:30]
07. Little Gift [03:15]
08. Educated Guess [05:49]
09. Loose Ends [05:02]
10. Hindsight [03:25]
11. Bridgeless [09:01]

Exact Audio Copy V1.0 beta 3 from 29. August 2011

EAC extraction logfile from 7. August 2014, 22:08

Umphrey’s McGee / Similar Skin

Used drive : PIONEER DVD-RW DVR-220RS Adapter: 0 ID: 0

Read mode : Secure
Utilize accurate stream : Yes
Defeat audio cache : Yes
Make use of C2 pointers : No

Read offset correction : 6
Overread into Lead-In and Lead-Out : No
Fill up missing offset samples with silence : Yes
Delete leading and trailing silent blocks : No
Null samples used in CRC calculations : Yes
Used interface : Native Win32 interface for Win NT & 2000

Used output format : User Defined Encoder
Selected bitrate : 768 kBit/s
Quality : High
Add ID3 tag : No
Command line compressor : C:\Program Files (x86)\Exact Audio Copy\Wavpack\wavpack.exe
Additional command line options : -hlm %source% %dest%


TOC of the extracted CD

Track | Start | Length | Start sector | End sector
––––––––––––––––––––––––––––-
1 | 0:00.00 | 3:48.37 | 0 | 17136
2 | 3:48.37 | 3:53.46 | 17137 | 34657
3 | 7:42.08 | 3:23.59 | 34658 | 49941
4 | 11:05.67 | 4:13.12 | 49942 | 68928
5 | 15:19.04 | 6:05.56 | 68929 | 96359
6 | 21:24.60 | 6:29.46 | 96360 | 125580
7 | 27:54.31 | 3:14.67 | 125581 | 140197
8 | 31:09.23 | 5:48.43 | 140198 | 166340
9 | 36:57.66 | 5:01.43 | 166341 | 188958
10 | 41:59.34 | 3:24.12 | 188959 | 204270
11 | 45:23.46 | 9:00.03 | 204271 | 244773


Range status and errors

Selected range

Filename C:\_NL+_\CD76\Umphrey’s McGee - Similar Skin.wav

Peak level 99.3 %
Extraction speed 1.8 X
Range quality 100.0 %
Test CRC DC28BF9C
Copy CRC DC28BF9C
Copy OK

No errors occurred


AccurateRip summary

Track 1 not present in database
Track 2 not present in database
Track 3 not present in database
Track 4 not present in database
Track 5 not present in database
Track 6 not present in database
Track 7 not present in database
Track 8 not present in database
Track 9 not present in database
Track 10 not present in database
Track 11 not present in database

None of the tracks are present in the AccurateRip database

End of status report

–– CUETools DB Plugin V2.1.3

[CTDB TOCID: P8QEzg4u0guZpSQRxWiW4zYFWPU-] found, Submit result: P8QEzg4u0guZpSQRxWiW4zYFWPU- has been confirmed
[73a38221] (7/7) Accurately ripped


==== Log checksum 258BEF75946DDD78A02B67D20DE94D4A0E969223B19CE962BAB70725FCBB6372 ====

[CUETools log; Date: 25.07.2019 17:07:53; Version: 2.1.6]
[CTDB TOCID: P8QEzg4u0guZpSQRxWiW4zYFWPU-] found.
Track | CTDB Status
1 | (44/44) Accurately ripped
2 | (44/44) Accurately ripped
3 | (43/44) Accurately ripped
4 | (43/44) Accurately ripped
5 | (44/44) Accurately ripped
6 | (44/44) Accurately ripped
7 | (44/44) Accurately ripped
8 | (43/44) Accurately ripped
9 | (44/44) Accurately ripped
10 | (44/44) Accurately ripped
11 | (43/44) Accurately ripped
[AccurateRip ID: 0014673e-00b48c51-920cbf0b] found.
Track [ CRC | V2 ] Status
01 [475cb2c0|8104d168] (00+25/25) Accurately ripped
02 [f2172bd9|647a3b37] (00+25/25) Accurately ripped
03 [f3dd131f|baededdb] (00+25/25) Accurately ripped
04 [c2fb86b9|c14dc58d] (00+25/25) Accurately ripped
05 [56662e19|96e6f679] (00+25/25) Accurately ripped
06 [b9b72e5a|d8f82ca7] (00+26/26) Accurately ripped
07 [daa3aba0|7f9ca6f9] (00+25/25) Accurately ripped
08 [1ddaa4fb|171fc1b3] (00+25/25) Accurately ripped
09 [969312d6|a90fa732] (00+25/25) Accurately ripped
10 [c691d24e|4e67370e] (00+25/25) Accurately ripped
11 [5cd14287|cb402067] (00+25/25) Accurately ripped

Track Peak [ CRC32 ] [W/O NULL] [ LOG ]
– 99,3 [DC28BF9C] [3E689D1C] CRC32
01 96,6 [A3B707A1] [8C46CE33]
02 96,1 [ED4E7F33] [A962E5D4]
03 97,0 [02AD0A3D] [5F355206]
04 96,3 [69BE6359] [2A6F6824]
05 96,7 [C6EF4035] [5C00C21A]
06 96,2 [953C893F] [23C41CFF]
07 96,2 [FEF99E89] [1A4573C9]
08 96,1 [DE5E28EF] [07DE6722]
09 96,5 [AA76F77E] [72474D9B]
10 97,1 [FDB39D4F] [F2B3A1CE]
11 99,3 [323AB829] [786B12AD]

Umphrey’s McGee - Similar Skin (2014)


All thanks go to tatuk

DOWNLOAD: