Subcategories

The Underground Set - The Underground Set (1970) [Reissue 2012]

Posted By: antonyart
The Underground Set - The Underground Set (1970) [Reissue 2012]

The Underground Set - The Underground Set (1970) [Reissue 2012]
EAC Rip | FLAC (IMG+CUE+LOG) | 323 MB | Complete HQ Scans 600 dpi JPG included | MP3 Lame 320 CBR | 108 MB
Genre: Psychedelic Progressive Rock | RAR 5% Rec. | Label: Flawed Gems (GEM 84) | Uploaded, Depositfiles

This very collectable Italian psychedelic]progressive/garage instrumental album was originally released in 1970 by Radio Records and then licensed to British Pan-Tonic label and German and French Vogue Records. Behind that name hid (for contractual reasons) the musicians of very fine progressive rock band Nuova Idea. But the real mastermind behind that LP was composer Gian Piero Reverberi (also the producer of Le Orme albums) who wrote all of the songs under the nickname Ninety. On their debut LP The Underground Set delivered a shot of psychedelic sounds that wouldn't be out of place at late 60’s European psychedelic club or one of many exploito movies. Lovers of mad organs and swirling fuzz psychedelic guitars will have hours of enjoyment with that CD!
The Underground Set - The Underground Set (1970) [Reissue 2012]

Tracklist:

01. Arcipelago 03:18
02. Emisfero 03:00
03. Atollo 03:07
04. Longitudine Est 02:11
05. 36 Degrees Parallelo 02:03
06. Samba Natalizia 03:12
07. Underground In Blue 05:22
08. Shake 26 02:45
09. Equatore 02:36
10. 7° Meridiano 02:25
11. Emisfero 03:43
12. Tanto Per Cambiare (Bonus A-Side 1970 SP) 03:39
13. Motor Road Underground (Bonus A-Side 1970 SP) 02:46
14. Slaughter On The Motor Road (Bonus B-Side 1970 SP) 04:13
15. La Filibusta (Bonus B-Side 1970 SP) 02:54

Total: 47:13

Exact Audio Copy V1.0 beta 3 from 29. August 2011

EAC extraction logfile from 2. December 2012, 18:30

The Underground Set / The Underground Set

Used drive : HL-DT-STDVDRAM GT34N Adapter: 0 ID: 2

Read mode : Secure
Utilize accurate stream : Yes
Defeat audio cache : Yes
Make use of C2 pointers : No

Read offset correction : 103
Overread into Lead-In and Lead-Out : No
Fill up missing offset samples with silence : Yes
Delete leading and trailing silent blocks : No
Null samples used in CRC calculations : Yes
Used interface : Native Win32 interface for Win NT & 2000

Used output format : User Defined Encoder
Selected bitrate : 896 kBit/s
Quality : High
Add ID3 tag : Yes
Command line compressor : C:\Program Files (x86)\Exact Audio Copy\FLAC\FLAC.EXE
Additional command line options : -6 -V -T "ARTIST=%artist%" -T "TITLE=%title%" -T "ALBUM=%albumtitle%" -T "DATE=%year%" -T "TRACKNUMBER=%tracknr%" -T "GENRE=%genre%" -T "COMMENT=%comment%" -T "BAND=%albuminterpret%" -T "ALBUMARTIST=%albuminterpret%" -T "COMPOSER=%composer%" %haslyrics%–tag-from-file=LYRICS="%lyricsfile%"%haslyrics% -T "DISCNUMBER=%cdnumber%" -T "TOTALDISCS=%totalcds%" -T "TOTALTRACKS=%numtracks%" %hascover%–picture="%coverfile%"%hascover% %source% -o %dest%


TOC of the extracted CD

Track | Start | Length | Start sector | End sector
––––––––––––––––––––––––––––-
1 | 0:00.00 | 3:18.11 | 0 | 14860
2 | 3:18.11 | 3:00.01 | 14861 | 28361
3 | 6:18.12 | 3:07.29 | 28362 | 42415
4 | 9:25.41 | 2:10.52 | 42416 | 52217
5 | 11:36.18 | 2:02.51 | 52218 | 61418
6 | 13:38.69 | 3:11.60 | 61419 | 75803
7 | 16:50.54 | 5:22.27 | 75804 | 99980
8 | 22:13.06 | 2:44.42 | 99981 | 112322
9 | 24:57.48 | 2:36.22 | 112323 | 124044
10 | 27:33.70 | 2:25.05 | 124045 | 134924
11 | 29:59.00 | 3:42.48 | 134925 | 151622
12 | 33:41.48 | 3:38.60 | 151623 | 168032
13 | 37:20.33 | 2:46.12 | 168033 | 180494
14 | 40:06.45 | 4:12.55 | 180495 | 199449
15 | 44:19.25 | 2:54.01 | 199450 | 212500


Range status and errors

Selected range

Filename D:\FLAC\UNDERGROUND SET, The -70- The Underground Set\The Underground Set - The Underground Set.wav

Peak level 100.0 %
Extraction speed 2.0 X
Range quality 100.0 %
Test CRC E970846A
Copy CRC E970846A
Copy OK

No errors occurred


AccurateRip summary

Track 1 not present in database
Track 2 not present in database
Track 3 not present in database
Track 4 not present in database
Track 5 not present in database
Track 6 not present in database
Track 7 not present in database
Track 8 not present in database
Track 9 not present in database
Track 10 not present in database
Track 11 not present in database
Track 12 not present in database
Track 13 not present in database
Track 14 not present in database
Track 15 not present in database

None of the tracks are present in the AccurateRip database

End of status report

==== Log checksum 8EF09CF49BBA791F339467861011E0771BD2930A20C150FE6BBE255498EC7ED3 ====

foobar2000 1.1.9 / Dynamic Range Meter 1.1.1
log date: 2013-02-16 15:55:57

––––––––––––––––––––––––––––––––––––––––
Analyzed: The Underground Set / The Underground Set
––––––––––––––––––––––––––––––––––––––––

DR Peak RMS Duration Track
––––––––––––––––––––––––––––––––––––––––
DR7 -0.10 dB -8.88 dB 3:18 01-Arcipelago
DR8 -0.10 dB -9.78 dB 3:00 02-Emisfero
DR8 0.00 dB -10.06 dB 3:07 03-Atollo
DR7 0.00 dB -9.74 dB 2:11 04-Longitudine Est
DR9 0.00 dB -10.61 dB 2:03 05-36 Degrees Parallelo
DR12 0.00 dB -14.91 dB 3:12 06-Samba Natalizia
DR8 0.00 dB -11.32 dB 5:22 07-Underground The Blue
DR8 0.00 dB -10.29 dB 2:45 08-Shake
DR9 0.00 dB -11.11 dB 2:36 09-Equatore
DR10 0.00 dB -10.74 dB 2:25 10-7 Degrees Meridiano
DR8 0.00 dB -9.85 dB 3:43 11-Emisfero
DR6 -0.10 dB -7.86 dB 3:39 12-Tanto Per Cambiare
DR7 0.00 dB -8.92 dB 2:46 13-Motor Road Underground
DR7 -0.09 dB -10.12 dB 4:13 14-Slaughter On The Motor Road
DR6 -0.10 dB -7.12 dB 2:54 15-La Filibusta
––––––––––––––––––––––––––––––––––––––––

Number of tracks: 15
Official DR value: DR8

Samplerate: 44100 Hz
Channels: 2
Bits per sample: 16
Bitrate: 922 kbps
Codec: FLAC
================================================================================

The mastermind behind Nuova Idea was composer Gian Piero Reverberi, who was also the producer of Le Orme and wrote most of the tracks on these albums under the nickname Ninety The Underground Set were often thought to be an English group, their first album having been issued in many European countries. It's interesting to notice that the group has been mentioned as English in Vernon Joynson's Tapestry of Delight book. But in an interview with Paolo Siani on the Italian Musikbox magazine, the drummer was one of the first to reveal that the musicians playing on this band's two albums were in fact Nuova Idea, as Radio Records (the label on which the first album and the singles appeared) was distributed by their label Ariston at the time.

from recordheaven

The Underground Set - The Underground Set (1970) [Reissue 2012]


This CD is from my personal collection. My original rip & my scan work.
>> here is my blog with all my rips <<
Please, do not mirror these links at any web pages.
FLAC + HQ 600 dpi complete scans:

Uploaded

Depositfiles

MP3 + 300 dpi front/back cover scans:

Uploaded

Depositfiles


Password: Ant