Subcategories

Urge Overkill - Exit The Dragon (1995)

Posted By: popsakov
Urge Overkill - Exit The Dragon (1995)

Urge Overkill - Exit The Dragon (1995)
EAC Rip | FLAC (Tracks) + Cue + m3u + Log ~ 471 Mb | MP3 CBR320 ~ 165 Mb
Scans Included (JPG, 300 dpi) | RAR 5% Recovery
Alternative Rock, Hard Rock, Glam | Geffen Records #GEFSD-24818

Urge Overkill is an alternative rock band, formed in Chicago, United States, consisting of Nathan Kaatrud, who took the stage name Nash Kato (vocals/guitar), and Eddie "King" Roeser (vocals/guitar/bass guitar). They are widely known for their song "Sister Havana" and their cover of Neil Diamond's "Girl, You'll Be a Woman Soon", which was notably used in Quentin Tarantino's Pulp Fiction.
~ Wiki

Few bands ever lusted after rock stardom quite as blatantly as Chicago's Urge Overkill. Although they draped their quest for stardom in a cloak of ironic detachment, it's quite clear the trio members expected that if they acted like stars, they would become stars. For a while, their stylish, retro-'70s outfits, matching medallions, and heavy Cheap Trick homages earned the group a popular following in alternative rock circles. The SuperSonic Storybook and the Stull EP were both underground hits in the early '90s, before alternative rock became big business. Once alternative rock entered the big leagues, it seemed likely that Urge Overkill, with their exceptionally accessible combination of arena rock, power pop, and underground punk, would follow Nirvana to the top of the charts, but mainstream America never quite understood their ironic outlook, embracing the group only after their cover of Neil Diamond's "Girl, You'll Be a Woman Soon" was used in a key scene in Pulp Fiction. Instead of breaking down the doors to stardom, the song proved to be a breaking point. Exit the Dragon, the first album released after the hit single, was a bomb, receiving little radio or MTV support, and the bandmembers soon fell prey to their widely documented excesses.

Sonically falling somewhere between Supersonic Storybook and Stull, Exit the Dragon is a dark, lean album, the flipside of Saturation's glossy celebration of '70s rock & roll excess, and easily Urge Overkill's most haunting collection of songs. It kicks off with "Jaywalking," a terse, powerful rocker lamenting "all the evil in this world," which sets the album's tone. Exit the Dragon is dominated by Eddie "King" Roeser, with Nash Kato on only six of the 14 songs. As usual, Roeser's songs are more claustrophobic than Kato's, particularly the clenched riffs of "The Break," and the slow crawl of "Tin Foil." Although Kato contributes the flat-out rocker "Need Some Air," many of his songs are nearly as dark as Roeser's, whether it's the acoustic "View of the Rain" (previously released as "Take a Walk" on the No Alternative compilation), the skipping pop of "Somebody Else's Body," the power pop of "Monopoly," or the soaring closer "Digital Black Epilogue," a duet with an uncredited female soul singer. But the heart of the record is Blackie Onassis' "The Mistake," an eerie tale of a drug overdose which helps Exit the Dragon take the form of a loose concept album about a rock & roll band beset by troubles on the road. While the subject is ripe for parody, Urge Overkill performs Exit the Dragon without much irony at all. Instead of being a fatal misstep, this choice proves that Urge is a tight, powerful rock & roll band blessed with first-rate songwriters, capable of more emotions than many listeners might have expected.
~ Stephen Thomas Erlewine, All Music
Urge Overkill - Exit The Dragon (1995)


***************

Urge Overkill - Exit The Dragon (1995)

Track List:

01. Jaywalkin' [3:27]
02. The Break [3:45]
03. Need Some Air [3:07]
04. Somebody Else's Body [3:48]
05. Honesty Files [3:55]
06. This Is No Place [3:46]
07. The Mistake [4:30]
08. Take Me [2:57]
09. View Of The Rain [4:43]
10. Last Night / Tomorrow [5:21]
11. Tin Foil [4:27]
12. Monopoly [3:29]
13. And You'll Say [3:39]
14. Digital Black Epilogue [8:47]

Personnel:
Eddie "King" Roeser - vocals, bass, guitars
Nash Kato - vocals, guitars, keyboards
Blackie Onassis - drums, vocals

Exact Audio Copy V1.0 beta 3 from 29. August 2011

EAC extraction logfile from 4. February 2013, 10:24

Urge Overkill / Exit The Dragon [Geffen Records]

Used drive : LITE-ON CD-RW SOHR-5238S Adapter: 1 ID: 0

Read mode : Secure
Utilize accurate stream : Yes
Defeat audio cache : Yes
Make use of C2 pointers : No

Read offset correction : 6
Overread into Lead-In and Lead-Out : No
Fill up missing offset samples with silence : Yes
Delete leading and trailing silent blocks : No
Null samples used in CRC calculations : Yes
Used interface : Native Win32 interface for Win NT & 2000
Gap handling : Appended to previous track

Used output format : User Defined Encoder
Selected bitrate : 1024 kBit/s
Quality : High
Add ID3 tag : No
Command line compressor : C:\Program Files\Exact Audio Copy\FLAC\FLAC.EXE
Additional command line options : -8 -V -T "ARTIST=%artist%" -T "TITLE=%title%" -T "ALBUM=%albumtitle%" -T "YEAR=%year%" -T "TRACK=%tracknr%" -T "GENRE=%genre%" -T "COMMENT=%comment%" %source% -o %dest%


TOC of the extracted CD

Track | Start | Length | Start sector | End sector
––––––––––––––––––––––––––––-
1 | 0:00.00 | 3:27.37 | 0 | 15561
2 | 3:27.37 | 3:44.50 | 15562 | 32411
3 | 7:12.12 | 3:07.35 | 32412 | 46471
4 | 10:19.47 | 3:49.15 | 46472 | 63661
5 | 14:08.62 | 4:29.35 | 63662 | 83871
6 | 18:38.22 | 3:46.08 | 83872 | 100829
7 | 22:24.30 | 4:30.62 | 100830 | 121141
8 | 26:55.17 | 3:00.58 | 121142 | 134699
9 | 29:56.00 | 4:42.52 | 134700 | 155901
10 | 34:38.52 | 5:22.38 | 155902 | 180089
11 | 40:01.15 | 4:26.70 | 180090 | 200109
12 | 44:28.10 | 3:29.72 | 200110 | 215856
13 | 47:58.07 | 4:16.25 | 215857 | 235081
14 | 52:14.32 | 8:47.00 | 235082 | 274606


Track 1

Filename C:\Urge Overkill - Exit The Dragon [Geffen Records]\01 Jaywalkin'.wav

Pre-gap length 0:00:02.00

Peak level 99.9 %
Extraction speed 2.9 X
Track quality 99.9 %
Test CRC D8EB84FE
Copy CRC D8EB84FE
Accurately ripped (confidence 7) [A0656BD8] (AR v1)
Copy OK

Track 2

Filename C:\Urge Overkill - Exit The Dragon [Geffen Records]\02 The Break.wav

Peak level 98.7 %
Extraction speed 3.8 X
Track quality 100.0 %
Test CRC 6E0A5E34
Copy CRC 6E0A5E34
Accurately ripped (confidence 7) [76BF4589] (AR v1)
Copy OK

Track 3

Filename C:\Urge Overkill - Exit The Dragon [Geffen Records]\03 Need Some Air.wav

Pre-gap length 0:00:00.02

Peak level 98.8 %
Extraction speed 4.0 X
Track quality 100.0 %
Test CRC 81C3DF33
Copy CRC 81C3DF33
Accurately ripped (confidence 7) [F19036DF] (AR v1)
Copy OK

Track 4

Filename C:\Urge Overkill - Exit The Dragon [Geffen Records]\04 Somebody Else's Body.wav

Pre-gap length 0:00:00.07

Peak level 98.6 %
Extraction speed 4.4 X
Track quality 100.0 %
Test CRC 90E62793
Copy CRC 90E62793
Accurately ripped (confidence 7) [AFCDA6DA] (AR v1)
Copy OK

Track 5

Filename C:\Urge Overkill - Exit The Dragon [Geffen Records]\05 Honesty Files.wav

Pre-gap length 0:00:00.62

Peak level 99.1 %
Extraction speed 4.7 X
Track quality 100.0 %
Test CRC 149ECFB0
Copy CRC 149ECFB0
Accurately ripped (confidence 7) [0BCCC630] (AR v1)
Copy OK

Track 6

Filename C:\Urge Overkill - Exit The Dragon [Geffen Records]\06 This Is No Place.wav

Pre-gap length 0:00:34.45

Peak level 100.0 %
Extraction speed 4.4 X
Track quality 99.9 %
Test CRC 31C2A8AF
Copy CRC 31C2A8AF
Accurately ripped (confidence 7) [774AEF26] (AR v1)
Copy OK

Track 7

Filename C:\Urge Overkill - Exit The Dragon [Geffen Records]\07 The Mistake.wav

Pre-gap length 0:00:00.45

Peak level 100.0 %
Extraction speed 5.3 X
Track quality 100.0 %
Test CRC E35A24BA
Copy CRC E35A24BA
Accurately ripped (confidence 7) [AD1CDD1F] (AR v1)
Copy OK

Track 8

Filename C:\Urge Overkill - Exit The Dragon [Geffen Records]\08 Take Me.wav

Pre-gap length 0:00:01.02

Peak level 99.9 %
Extraction speed 5.2 X
Track quality 100.0 %
Test CRC 29766CC1
Copy CRC 29766CC1
Accurately ripped (confidence 7) [722D5107] (AR v1)
Copy OK

Track 9

Filename C:\Urge Overkill - Exit The Dragon [Geffen Records]\09 View Of The Rain.wav

Pre-gap length 0:00:03.25

Peak level 100.0 %
Extraction speed 5.7 X
Track quality 100.0 %
Test CRC B5AA5368
Copy CRC B5AA5368
Accurately ripped (confidence 7) [B4FF17F6] (AR v1)
Copy OK

Track 10

Filename C:\Urge Overkill - Exit The Dragon [Geffen Records]\10 Last Night - Tomorrow.wav

Peak level 100.0 %
Extraction speed 6.1 X
Track quality 100.0 %
Test CRC F3277CD8
Copy CRC F3277CD8
Accurately ripped (confidence 7) [9A7D9A4B] (AR v1)
Copy OK

Track 11

Filename C:\Urge Overkill - Exit The Dragon [Geffen Records]\11 Tin Foil.wav

Pre-gap length 0:00:01.20

Peak level 100.0 %
Extraction speed 5.6 X
Track quality 99.9 %
Test CRC E5771EC8
Copy CRC E5771EC8
Accurately ripped (confidence 7) [0F226A5B] (AR v1)
Copy OK

Track 12

Filename C:\Urge Overkill - Exit The Dragon [Geffen Records]\12 Monopoly.wav

Peak level 100.0 %
Extraction speed 6.3 X
Track quality 100.0 %
Test CRC DF65968B
Copy CRC DF65968B
Accurately ripped (confidence 7) [F3732FFE] (AR v1)
Copy OK

Track 13

Filename C:\Urge Overkill - Exit The Dragon [Geffen Records]\13 And You'll Say.wav

Pre-gap length 0:00:00.60

Peak level 100.0 %
Extraction speed 6.5 X
Track quality 100.0 %
Test CRC DA929894
Copy CRC DA929894
Accurately ripped (confidence 7) [30A35FF3] (AR v1)
Copy OK

Track 14

Filename C:\Urge Overkill - Exit The Dragon [Geffen Records]\14 Digital Black Epilogue.wav

Pre-gap length 0:00:37.60

Peak level 100.0 %
Extraction speed 7.2 X
Track quality 100.0 %
Test CRC 608A4BCD
Copy CRC 608A4BCD
Accurately ripped (confidence 7) [A59FC675] (AR v1)
Copy OK


All tracks accurately ripped

No errors occurred

End of status report

==== Log checksum A89B0D0A9420810CB48CCC4A90C5E5409E9422C7C3985C12387D8B5BB319D9A4 ====

foobar2000 1.3.16 / Dynamic Range Meter 1.1.1
log date: 2018-06-18 18:46:31

––––––––––––––––––––––––––––––––––––––––
Analyzed: Urge Overkill / Exit the Dragon
––––––––––––––––––––––––––––––––––––––––

DR Peak RMS Duration Track
––––––––––––––––––––––––––––––––––––––––
DR9 0.00 dB -10.59 dB 3:27 01-Jaywalkin'
DR8 -0.11 dB -10.40 dB 3:45 02-The Break
DR9 -0.10 dB -10.40 dB 3:07 03-Need Some Air
DR9 -0.12 dB -10.82 dB 3:49 04-Somebody Else's Body
DR8 -0.08 dB -10.36 dB 4:29 05-Honesty Files
DR8 0.00 dB -9.17 dB 3:46 06-This Is No Place
DR10 0.00 dB -11.16 dB 4:31 07-The Mistake
DR9 0.00 dB -9.93 dB 3:01 08-Take Me
DR9 0.00 dB -11.68 dB 4:43 09-View Of The Rain
DR9 0.00 dB -10.65 dB 5:23 10-Last Night / Tomorrow
DR9 0.00 dB -11.47 dB 4:27 11-Tin Foil
DR9 0.00 dB -9.84 dB 3:30 12-Monopoly
DR10 0.00 dB -11.26 dB 4:16 13-And You'll Say
DR9 0.00 dB -12.88 dB 8:47 14-Digital Black Epilogue
––––––––––––––––––––––––––––––––––––––––

Number of tracks: 14
Official DR value: DR9

Samplerate: 44100 Hz
Channels: 2
Bits per sample: 16
Bitrate: 933 kbps
Codec: FLAC
================================================================================

[CUETools log; Date: 18.06.2018 18:46:41; Version: 2.1.6]
[CTDB TOCID: C3rUaOatskJI_Y6IAh0upuCl8Bw-] found.
Track | CTDB Status
1 | (8/8) Accurately ripped
2 | (8/8) Accurately ripped
3 | (8/8) Accurately ripped
4 | (8/8) Accurately ripped
5 | (8/8) Accurately ripped
6 | (8/8) Accurately ripped
7 | (8/8) Accurately ripped
8 | (8/8) Accurately ripped
9 | (8/8) Accurately ripped
10 | (8/8) Accurately ripped
11 | (8/8) Accurately ripped
12 | (8/8) Accurately ripped
13 | (8/8) Accurately ripped
14 | (8/8) Accurately ripped
[AccurateRip ID: 001c62cc-0133ef19-a90e4d0e] found.
Track [ CRC | V2 ] Status
01 [a0656bd8|6bb46c3d] (08+05/13) Accurately ripped
02 [76bf4589|000d4f5a] (08+05/13) Accurately ripped
03 [f19036df|01b6b93d] (08+05/13) Accurately ripped
04 [afcda6da|fc8450c4] (08+05/13) Accurately ripped
05 [0bccc630|73d24b23] (08+05/13) Accurately ripped
06 [774aef26|fe4a4fff] (08+05/13) Accurately ripped
07 [ad1cdd1f|6c1b8e8b] (08+05/13) Accurately ripped
08 [722d5107|5bb88125] (08+05/13) Accurately ripped
09 [b4ff17f6|7273b879] (08+05/13) Accurately ripped
10 [9a7d9a4b|b927200d] (08+05/13) Accurately ripped
11 [0f226a5b|83ed08c6] (08+05/13) Accurately ripped
12 [f3732ffe|bf504b3b] (08+05/13) Accurately ripped
13 [30a35ff3|d0881ece] (08+05/13) Accurately ripped
14 [a59fc675|7338563c] (08+05/13) Accurately ripped

Track Peak [ CRC32 ] [W/O NULL] [ LOG ]
– 100,0 [8867A1EE] [B4B35D06]
01 99,9 [D8EB84FE] [0C7964D8] CRC32
02 98,7 [6E0A5E34] [B65C62D5] CRC32
03 98,8 [81C3DF33] [092AED92] CRC32
04 98,6 [90E62793] [EC7FCAF9] CRC32
05 99,1 [149ECFB0] [CFF9413F] CRC32
06 99,9 [31C2A8AF] [B4629F95] CRC32
07 99,9 [E35A24BA] [EF291FB9] CRC32
08 99,9 [29766CC1] [D8B14373] CRC32
09 100,0 [B5AA5368] [A4FDE386] CRC32
10 99,9 [F3277CD8] [DBDC2C5B] CRC32
11 99,9 [E5771EC8] [79D490A5] CRC32
12 100,0 [DF65968B] [E1FF780A] CRC32
13 100,0 [DA929894] [49EAE945] CRC32
14 100,0 [608A4BCD] [BFA5F1C6] CRC32

Urge Overkill - Exit The Dragon (1995)

All thanks go to the original ripper(s) …

>>> My Blog <<<

Download from icerbox.com: