Subcategories

Uri Gurvich - The Storyteller (2009) {Tzadik}

Posted By: tiburon
Uri Gurvich - The Storyteller (2009) {Tzadik}

Uri Gurvich - The Storyteller (2009) {Tzadik}
EAC 1.3 | FLAC tracks level 8 | Cue+Log+M3U | Full Scans 300dpi | 369MB + 5% Recovery
MP3 CBR 320 Kbps | 151MB + 5% Recovery
Genre: Hard Bop, Avant-Garde Jazz

Despite the fact that alto saxophonist Uri Gurvich is Israeli and that his debut CD is on the Tzadik label (as part of its "Radical Jewish Culture" series), The Storyteller only sounds parenthetically Jewish. The leader traffics in strong melodies and compelling rhythms, regardless of their motific foundation. And certainly the improvisatory methodology on display by Gurvich, pianist Leo Genovese, bassist Peter Slavov and especially drummer Francisco Mela owe a greater debt to post-bop than pizmonim. And when the album features a second saxophone (Chris Cheek's tenor) and Genovese switches to Fender Rhodes for a pair of tunes, the aesthetic becomes highly reminiscent of early fusion experiments.
Track List
1 Midbar Suite 7:43
2 Ha'bonim 5:41
3 Ani Ma'amin 7:39
4 Prophecy 6:38
5 Nihun 6:31
6 Joseph The Storryteller 8:01
7 Oasis 6:49
8 Masabacha 7:05

musicians
Bass - Peter Slavov
Drums - Francisco Mela
Alto Saxophone - Uri Gurvich
Piano, Electric Piano [Fender Rhodes] - Leo Genovese (3,7)
Tenor Saxophone - Chris Cheek (3, 6,7)

Producer by Uri Gurvich


Exact Audio Copy V1.3 from 2. September 2016

EAC extraction logfile from 21. June 2017, 9:32

Uri Gurvich / The Storyteller

Used drive : HL-DT-STDVDRAM GSA-T50N Adapter: 1 ID: 0

Read mode : Secure
Utilize accurate stream : Yes
Defeat audio cache : Yes
Make use of C2 pointers : No

Read offset correction : 667
Overread into Lead-In and Lead-Out : No
Fill up missing offset samples with silence : Yes
Delete leading and trailing silent blocks : No
Null samples used in CRC calculations : Yes
Used interface : Native Win32 interface for Win NT & 2000
Gap handling : Appended to previous track

Used output format : User Defined Encoder
Selected bitrate : 1024 kBit/s
Quality : High
Add ID3 tag : No
Command line compressor : C:\Program Files\Exact Audio Copy\Flac\flac.exe
Additional command line options : -V -8 -T "Genre=%genre%" -T "Artist=%artist%" -T "Title=%title%" -T "Album=%albumtitle%" -T "Date=%year%" -T "Tracknumber=%tracknr%" %source% -o %dest%


TOC of the extracted CD

Track | Start | Length | Start sector | End sector
––––––––––––––––––––––––––––-
1 | 0:00.00 | 7:42.58 | 0 | 34707
2 | 7:42.58 | 5:41.18 | 34708 | 60300
3 | 13:24.01 | 7:39.02 | 60301 | 94727
4 | 21:03.03 | 6:37.53 | 94728 | 124555
5 | 27:40.56 | 6:30.41 | 124556 | 153846
6 | 34:11.22 | 8:01.71 | 153847 | 189992
7 | 42:13.18 | 6:48.49 | 189993 | 220641
8 | 49:01.67 | 7:05.15 | 220642 | 252531


Track 1

Filename C:\music\MG rips\Uri Gurvich - The Storyteller - 2009 (Tzadic) [flac]\01 - Midbar Suite.wav

Pre-gap length 0:00:02.00

Peak level 96.6 %
Extraction speed 2.5 X
Track quality 99.9 %
Test CRC 343845E9
Copy CRC 343845E9
Track not present in AccurateRip database
Copy OK

Track 2

Filename C:\music\MG rips\Uri Gurvich - The Storyteller - 2009 (Tzadic) [flac]\02 - Ha'bonim.wav

Peak level 96.6 %
Extraction speed 3.0 X
Track quality 100.0 %
Test CRC 53744619
Copy CRC 53744619
Track not present in AccurateRip database
Copy OK

Track 3

Filename C:\music\MG rips\Uri Gurvich - The Storyteller - 2009 (Tzadic) [flac]\03 - Ani Ma'amin.wav

Peak level 96.6 %
Extraction speed 3.5 X
Track quality 100.0 %
Test CRC 936B3A9D
Copy CRC 936B3A9D
Track not present in AccurateRip database
Copy OK

Track 4

Filename C:\music\MG rips\Uri Gurvich - The Storyteller - 2009 (Tzadic) [flac]\04 - Prophecy.wav

Peak level 96.6 %
Extraction speed 3.6 X
Track quality 99.9 %
Test CRC 0B215EF1
Copy CRC 0B215EF1
Track not present in AccurateRip database
Copy OK

Track 5

Filename C:\music\MG rips\Uri Gurvich - The Storyteller - 2009 (Tzadic) [flac]\05 - Nigun.wav

Peak level 96.6 %
Extraction speed 4.2 X
Track quality 100.0 %
Test CRC 1BDEF532
Copy CRC 1BDEF532
Track not present in AccurateRip database
Copy OK

Track 6

Filename C:\music\MG rips\Uri Gurvich - The Storyteller - 2009 (Tzadic) [flac]\06 - Joseph the Storyteller.wav

Peak level 96.6 %
Extraction speed 4.5 X
Track quality 100.0 %
Test CRC E855DEEF
Copy CRC E855DEEF
Track not present in AccurateRip database
Copy OK

Track 7

Filename C:\music\MG rips\Uri Gurvich - The Storyteller - 2009 (Tzadic) [flac]\07 - Oasis.wav

Peak level 96.6 %
Extraction speed 4.4 X
Track quality 99.9 %
Test CRC 149D13A5
Copy CRC 149D13A5
Track not present in AccurateRip database
Copy OK

Track 8

Filename C:\music\MG rips\Uri Gurvich - The Storyteller - 2009 (Tzadic) [flac]\08 - Masabacha.wav

Peak level 96.6 %
Extraction speed 5.0 X
Track quality 100.0 %
Test CRC 34D8A62B
Copy CRC 34D8A62B
Track not present in AccurateRip database
Copy OK


None of the tracks are present in the AccurateRip database

No errors occurred

End of status report

==== Log checksum 3757634BD4ECA2FA87813A299D10431F855095472F08949C829F0F57B2D92D89 ====

Uri Gurvich - The Storyteller (2009) {Tzadik}
Uri Gurvich - The Storyteller (2009) {Tzadik}


Thanks to the original ripper