Subcategories

Uriah Heep - Abominog (1982) [Repost]

Posted By: technick
Uriah Heep - Abominog (1982) [Repost]

Uriah Heep - Abominog (1982)
EAC: flac (tracks) + cue + log | RAR, 3 %, 270,42 MB
mp3 320 kbps | RAR, 3 %, 97,1 MB | Scans, 300/600 dpi | RAR, 3 %, 24,78/97,59 MB
Label: Castle Communications PLC | Cat №: CLACD 110 | (DepositFiles+FilePost+Uploaded)

"Abominog" was the 14th album for British rock group Uriah Heep. It was the first album without keyboardist Ken Hensley.
It featured their last U.S. hits, "On the Rebound" and "That's the Way That It Is". The latter is their highest-charting single, reaching #25 on the rock charts.
Exact Audio Copy V1.0 beta 1 from 15. November 2010

EAC extraction logfile from 20. January 2013, 14:09

Uriah Heep / Abominog (CLACD 110)

Used drive : TEAC CD-W552E Adapter: 1 ID: 1

Read mode : Secure
Utilize accurate stream : Yes
Defeat audio cache : Yes
Make use of C2 pointers : No

Read offset correction : 6
Overread into Lead-In and Lead-Out : No
Fill up missing offset samples with silence : Yes
Delete leading and trailing silent blocks : No
Null samples used in CRC calculations : No
Used interface : Installed external ASPI interface

Used output format : Internal WAV Routines
Sample format : 44.100 Hz; 16 Bit; Stereo


TOC of the extracted CD

Track | Start | Length | Start sector | End sector
––––––––––––––––––––––––––––-
1 | 0:00.00 | 3:48.27 | 0 | 17126
2 | 3:48.27 | 4:37.70 | 17127 | 37971
3 | 8:26.22 | 3:14.43 | 37972 | 52564
4 | 11:40.65 | 4:00.22 | 52565 | 70586
5 | 15:41.12 | 4:25.65 | 70587 | 90526
6 | 20:07.02 | 4:04.28 | 90527 | 108854
7 | 24:11.30 | 4:28.12 | 108855 | 128966
8 | 28:39.42 | 3:46.03 | 128967 | 145919
9 | 32:25.45 | 5:22.22 | 145920 | 170091
10 | 37:47.67 | 3:33.45 | 170092 | 186111


Range status and errors

Selected range

Filename P:\Upload\Uriah Heep - 1982 - Abominog (Castle Com. PLC, CLACD 110)_Upload\Uriah Heep - Abominog (CLACD 110).wav

Peak level 98.9 %
Extraction speed 0.2 X
Range quality 100.0 %
Test CRC 575B9044
Copy CRC 575B9044
Copy OK

No errors occurred


AccurateRip summary

Track 1 accurately ripped (confidence 10) [DB7AF829]
Track 2 accurately ripped (confidence 10) [36DDD46C]
Track 3 accurately ripped (confidence 10) [8958B051]
Track 4 accurately ripped (confidence 10) [AE433725]
Track 5 accurately ripped (confidence 10) [BA672C15]
Track 6 accurately ripped (confidence 10) [313CC1E3]
Track 7 accurately ripped (confidence 10) [98359309]
Track 8 accurately ripped (confidence 11) [D9CFD0AC]
Track 9 accurately ripped (confidence 9) [F884738A]
Track 10 accurately ripped (confidence 10) [7205C253]

All tracks accurately ripped

End of status report

==== Log checksum B1991A0F6D4395F4889D441C8D88063B5E73C229B8FCE084B20C679582E08A9D ====

Tracklist:
01. Too Scared To Run [03:48]
02. Chasing Shadows [04:37]
03. On The Rebound [03:14]
04. Hot Night In A Cold Town [04:00]
05. Running All Night (With The Lion) [04:25]
06. That's The Way It Is [04:04]
07. Prisoner [04:28]
08. Hot Persuasion [03:46]
09. Sell Your Soul [05:22]
10. Think It Over [03:33]
–––––––––––––
Total time [41:23]
Uriah Heep - Abominog (1982) [Repost]
Uriah Heep - Abominog (1982) [Repost]

No mirrors, please!
Welcome to My Blog!