Subcategories

VA - 100 Hits: Peace & Love (2016)

Posted By: ciklon5
VA - 100 Hits: Peace & Love (2016)

VA - 100 Hits: Peace & Love (2016)
FLAC (track+cue+log+scans) / MP3 320 kbps | 5:10:20 | 1,8 Gb / 724 Mb
Genre: Soul, R&B, Pop, Easy Listening, Rock / Label: 100 Hits

Continuation of the successful 100 Hits series in the new flat Digipack with 5 CDs with music of the 60s & 70s Generation, Jefferson Airplane, Fleetwood Mac, The Yardbirds, and many others.

Track List:

CD1:

01.The Fifth Dimension - Aquarius - Let The Sunshine In (The Flesh Failures) - 00:03:53
02.Big Brother & The Holding Company - Summertime - 00:03:58
03.Jefferson Airplane - White Rabbit - 00:02:33
04.Fleetwood Mac - Black Magic Woman - 00:02:52
05.Scott McKenzie - San Francisco (Be Sure To Wear Flowers In Your Hair) - 00:02:59
06.The Byrds - Turn! Turn! Turn! (To Everything There Is A Season) - 00:03:51
07.Nina Simone - Ain't Got No, I Got Life - 00:02:16
08.Lou Reed - Wild Child - 00:04:34
09.Sagittarius - My World Fell Down - 00:02:55
10.The End - Loving, Sacred Loving - 00:03:03
11.The Yardbirds - Happening Ten Years Time Ago - 00:02:57
12.Paul Revere & The Raiders - Steppin' Out - 00:02:14
13.The McCoys - Fever - 00:02:50
14.Billy Joe Royal - Hush - 00:02:30
15.Grapefruit - Dear Delilah - 00:02:31
16.The Cyrkle - Turn Down Day - 00:02:35
17.The Creation - Tom Tom - 00:02:56
18.Jim Croce - Sun Come Up - 00:02:04
19.Johnny Cash - It Ain't Me Babe - 00:03:02
20.Jose Feliciano - Hey Jude - 00:08:08

CD2:

01.Big Brother & The Holding Company Feat. Janis Joplin - Piece Of My Heart - 00:04:15
02.Jefferson Airplane - Volunteers - 00:02:06
03.Captain Beefheart & His Magic Band - Sure 'Nuff 'N' Yes, I Do - 00:02:15
04.Santana - Soul Sacrifice - 00:03:15
05.Chicken Shack - Weekend Love - 00:02:12
06.The Electric Flag - Sunny - 00:04:00
07.Taj Mahal - Leaving Trunk - 00:04:49
08.Lou Reed - Ride Into The Sun - 00:03:14
09.Stone Country - Magnolias - 00:04:16
10.The Guess Who - American Woman - 00:03:49
11.The Gun - Race With The Devil - 00:03:35
12.Crazy Elephant - Gimme Gimme Good Lovin' - 00:02:01
13.Sir Douglas Quintet - She Digs My Love - 00:02:47
14.Freda Payne - Bring The Boys Home - 00:03:30
15.The Chambers Brothers - Time Has Come Today - 00:03:33
16.The Lovin' Spoonful - Summer In The City - 00:02:40
17.Melanie - Beautiful People - 00:03:36
18.Keith Relf - Mr. Zero - 00:02:44
19.Al Kooper & Mike Bloomfield - Albert's Shuffle - 00:06:55
20.Zager & Evans - In The Year 2525 - 00:03:15

CD3:

01.The Box Tops - The Letter - 00:01:53
02.The Yardbirds - Over Under Sideways Down - 00:02:24
03.Paul Revere & The Raiders Feat. Mark Lindsay - Kicks - 00:02:27
04.Syndicate Of Sound - Little Girl - 00:02:28
05.The Remains - Don't Look Back - 00:02:40
06.The Groop - Woman You're Breaking Me - 00:02:13
07.Sir Douglas Quintet - She's About A Mover - 00:02:22
08.The Flamin' Groovies - Rockin' Pneumonia And The Boogie Woogie Flu - 00:02:34
09.Ruth Copeland - Hare Krishna - 00:02:47
10.The Creation - Painter Man - 00:02:52
11.Spirit - I Got A Line On You - 00:02:41
12.Captain Beefheart & His Magic Band - Zig Zag Wanderer - 00:02:39
13.The Gun - Head In The Clouds - 00:04:40
14.Grapefruit - Deep Water - 00:02:17
15.Love Affair - Rainbow Valley - 00:03:50
16.The Lemon Pipers - Rice Is Nice - 00:02:20
17.The Rainbows - Balla Balla - 00:02:02
18.The Spotnicks - Havah Nagila - 00:02:21
19.The Cyrkle - Don't Cry, No Fears, No Tears Comin' Your Way - 00:02:42
20.Ravi Shankar - Village Dance - 00:04:05

CD4:

01.Nina Simone - To Love Somebody - 00:02:40
02.The Honey Cone - Aquarius - 00:02:59
03.Janis Joplin - Me And Bobby McGee - 00:03:58
04.Blood, Sweet & Tears - You've Made Me So Very Happy - 00:03:30
05.Sir Douglas Quintet - The Rains Came - 00:02:15
06.The Searchers - Don't Throw Your Love Away - 00:02:17
07.The Box Tops - Cry Like A Baby - 00:02:34
08.The Remains - Ain't That Her - 00:02:09
09.The Guess Who - Laughing - 00:02:42
10.The Rokes - I Would Give The World - 00:03:13
11.The End - Shades Of Orange - 00:02:40
12.Chicken Shack - I'd Rather Go Blind - 00:03:15
13.Reparata & The Delrons - Captain Of Your Ship - 00:02:28
14.The Peddlers - Girlie - 00:02:45
15.Gary Puckett & The Union Gap - Young Girl - 00:03:04
16.Route 17 - Going To Bethel - 00:02:40
17.Merrilee Rush & The Turnabouts - Angel Of The Morning - 00:03:08
18.Melanie - Ruby Tuesday - 00:04:36
19.Lou Christie - She Sold Me Magic - 00:02:08
20.The Strangeloves - I Want Candy - 00:02:56

CD5:

01.Harry Nilsson - Everybody's Talkin' - 00:02:44
02.Tim Hardin - Simple Song Of Freedom - 00:03:52
03.Fleetwood Mac - Need Your Love So Bad - 00:03:54
04.Jose Feliciano - Light My Fire - 00:03:36
05.Santana - She's Not There - 00:03:19
06.The Byrds - Mr. Tambourine Man - 00:02:31
07.The Lovin' Spoonful - Daydream - 00:02:18
08.Jim Croce - Time In A Bottle - 00:02:27
09.The Youngbloods - Quicksand - 00:02:43
10.New Riders Of The Purple Sage - Garden Of Eden - 00:04:33
11.Terry Jacks - Seasons In The Sun - 00:03:26
12.Bobby Darin - If I Were A Carpenter - 00:02:22
13.Scott McKenzie - Like An Old Time Movie - 00:03:16
14.Kris Kristofferson - Sunday Morning Comin' Down - 00:04:32
15.The Youngbloods - Get Together - 00:04:37
16.The Creation - Making Time - 00:02:57
17.Stone Country - Love Psalm - 00:02:29
18.The Lemon Pipers - Green Tambourine - 00:02:27
19.The Rokes - When The Wind Arises - 00:03:23
20.Sagittarius - Glass - 00:02:26

Exact Audio Copy V1.3 from 2. September 2016

EAC extraction logfile from 9. May 2018, 4:53

Various / 100 Hits - Peace & Love - CD01

Used drive : HL-DT-STDVDRAM GSA-E40N Adapter: 1 ID: 1

Read mode : Secure
Utilize accurate stream : Yes
Defeat audio cache : No
Make use of C2 pointers : Yes

Read offset correction : 667
Overread into Lead-In and Lead-Out : No
Fill up missing offset samples with silence : Yes
Delete leading and trailing silent blocks : No
Null samples used in CRC calculations : Yes
Used interface : Native Win32 interface for Win NT & 2000
Gap handling : Not detected, thus appended to previous track

Used output format : User Defined Encoder
Selected bitrate : 896 kBit/s
Quality : High
Add ID3 tag : No
Command line compressor : C:\Program Files (x86)\Exact Audio Copy\FLAC\FLAC.EXE
Additional command line options : -6 -V -T "ARTIST=%artist%" -T "TITLE=%title%" -T "ALBUM=%albumtitle%" -T "DATE=%year%" -T "TRACKNUMBER=%tracknr%" -T "GENRE=%genre%" -T "COMMENT=%comment%" -T "BAND=%albuminterpret%" -T "ALBUMARTIST=%albuminterpret%" -T "COMPOSER=%composer%" %haslyrics%–tag-from-file=LYRICS="%lyricsfile%"%haslyrics% -T "DISCNUMBER=%cdnumber%" -T "TOTALDISCS=%totalcds%" -T "TOTALTRACKS=%numtracks%" %hascover%–picture="%coverfile%"%hascover% %source% -o %dest%


TOC of the extracted CD

Track | Start | Length | Start sector | End sector
––––––––––––––––––––––––––––-
1 | 0:00.00 | 3:53.13 | 0 | 17487
2 | 3:53.13 | 3:58.29 | 17488 | 35366
3 | 7:51.42 | 2:33.06 | 35367 | 46847
4 | 10:24.48 | 2:52.52 | 46848 | 59799
5 | 13:17.25 | 2:59.59 | 59800 | 73283
6 | 16:17.09 | 3:51.00 | 73284 | 90608
7 | 20:08.09 | 2:16.20 | 90609 | 100828
8 | 22:24.29 | 4:34.47 | 100829 | 121425
9 | 26:59.01 | 2:55.11 | 121426 | 134561
10 | 29:54.12 | 3:03.09 | 134562 | 148295
11 | 32:57.21 | 2:57.00 | 148296 | 161570
12 | 35:54.21 | 2:14.42 | 161571 | 171662
13 | 38:08.63 | 2:50.30 | 171663 | 184442
14 | 40:59.18 | 2:30.32 | 184443 | 195724
15 | 43:29.50 | 2:31.11 | 195725 | 207060
16 | 46:00.61 | 2:35.23 | 207061 | 218708
17 | 48:36.09 | 2:56.08 | 218709 | 231916
18 | 51:32.17 | 2:04.60 | 231917 | 241276
19 | 53:37.02 | 3:02.47 | 241277 | 254973
20 | 56:39.49 | 8:08.36 | 254974 | 291609


Track 1

Filename A:\PsPBuRnOuT's MUSIC\100 HITS\100 HITS - PEACE & LOVE\100 HITS - PEACE & LOVE - CD01\01.The Fifth Dimension - Aquarius - Let The Sunshine In (The Flesh Failures).wav

Peak level 74.3 %
Extraction speed 16.5 X
Track quality 100.0 %
Copy CRC C14DF9BC
Accurately ripped (confidence 8) [2D7C9562] (AR v2)
Copy OK

Track 2

Filename A:\PsPBuRnOuT's MUSIC\100 HITS\100 HITS - PEACE & LOVE\100 HITS - PEACE & LOVE - CD01\02.Big Brother & The Holding Company - Summertime.wav

Peak level 94.4 %
Extraction speed 20.4 X
Track quality 100.0 %
Copy CRC F612B35C
Accurately ripped (confidence 8) [81BEBDEB] (AR v2)
Copy OK

Track 3

Filename A:\PsPBuRnOuT's MUSIC\100 HITS\100 HITS - PEACE & LOVE\100 HITS - PEACE & LOVE - CD01\03.Jefferson Airplane - White Rabbit.wav

Peak level 94.4 %
Extraction speed 21.8 X
Track quality 100.0 %
Copy CRC 890CE890
Accurately ripped (confidence 8) [59096ECF] (AR v2)
Copy OK

Track 4

Filename A:\PsPBuRnOuT's MUSIC\100 HITS\100 HITS - PEACE & LOVE\100 HITS - PEACE & LOVE - CD01\04.Fleetwood Mac - Black Magic Woman.wav

Peak level 94.4 %
Extraction speed 18.9 X
Track quality 99.8 %
Copy CRC 3523A699
Accurately ripped (confidence 8) [5AE56DC9] (AR v2)
Copy OK

Track 5

Filename A:\PsPBuRnOuT's MUSIC\100 HITS\100 HITS - PEACE & LOVE\100 HITS - PEACE & LOVE - CD01\05.Scott McKenzie - San Francisco (Be Sure To Wear Flowers In Your Hair).wav

Peak level 94.4 %
Extraction speed 23.6 X
Track quality 100.0 %
Copy CRC 64BF1FEF
Accurately ripped (confidence 8) [810ED1F9] (AR v2)
Copy OK

Track 6

Filename A:\PsPBuRnOuT's MUSIC\100 HITS\100 HITS - PEACE & LOVE\100 HITS - PEACE & LOVE - CD01\06.The Byrds - Turn! Turn! Turn! (To Everything There Is A Season).wav

Peak level 74.1 %
Extraction speed 22.3 X
Track quality 99.9 %
Copy CRC B05D7215
Accurately ripped (confidence 8) [10C24CBF] (AR v2)
Copy OK

Track 7

Filename A:\PsPBuRnOuT's MUSIC\100 HITS\100 HITS - PEACE & LOVE\100 HITS - PEACE & LOVE - CD01\07.Nina Simone - Ain't Got No, I Got Life.wav

Peak level 84.6 %
Extraction speed 21.5 X
Track quality 100.0 %
Copy CRC 67B3C26D
Accurately ripped (confidence 8) [23F49D16] (AR v2)
Copy OK

Track 8

Filename A:\PsPBuRnOuT's MUSIC\100 HITS\100 HITS - PEACE & LOVE\100 HITS - PEACE & LOVE - CD01\08.Lou Reed - Wild Child.wav

Peak level 74.1 %
Extraction speed 25.4 X
Track quality 100.0 %
Copy CRC B5544C9F
Accurately ripped (confidence 8) [40C00571] (AR v2)
Copy OK

Track 9

Filename A:\PsPBuRnOuT's MUSIC\100 HITS\100 HITS - PEACE & LOVE\100 HITS - PEACE & LOVE - CD01\09.Sagittarius - My World Fell Down.wav

Peak level 79.4 %
Extraction speed 24.8 X
Track quality 100.0 %
Copy CRC 37FA2BF6
Accurately ripped (confidence 8) [ECB1D383] (AR v2)
Copy OK

Track 10

Filename A:\PsPBuRnOuT's MUSIC\100 HITS\100 HITS - PEACE & LOVE\100 HITS - PEACE & LOVE - CD01\10.The End - Loving, Sacred Loving.wav

Peak level 88.5 %
Extraction speed 25.6 X
Track quality 100.0 %
Copy CRC 53A93B73
Accurately ripped (confidence 8) [769A304E] (AR v2)
Copy OK

Track 11

Filename A:\PsPBuRnOuT's MUSIC\100 HITS\100 HITS - PEACE & LOVE\100 HITS - PEACE & LOVE - CD01\11.The Yardbirds - Happening Ten Years Time Ago.wav

Peak level 94.4 %
Extraction speed 30.1 X
Track quality 100.0 %
Copy CRC 1C5ED4E2
Accurately ripped (confidence 8) [583C861E] (AR v2)
Copy OK

Track 12

Filename A:\PsPBuRnOuT's MUSIC\100 HITS\100 HITS - PEACE & LOVE\100 HITS - PEACE & LOVE - CD01\12.Paul Revere & The Raiders - Steppin' Out.wav

Peak level 91.2 %
Extraction speed 31.2 X
Track quality 100.0 %
Copy CRC 4208A45F
Accurately ripped (confidence 8) [41B4240A] (AR v2)
Copy OK

Track 13

Filename A:\PsPBuRnOuT's MUSIC\100 HITS\100 HITS - PEACE & LOVE\100 HITS - PEACE & LOVE - CD01\13.The McCoys - Fever.wav

Peak level 94.4 %
Extraction speed 14.2 X
Track quality 100.0 %
Copy CRC F9CA9DD4
Accurately ripped (confidence 8) [7816D62B] (AR v2)
Copy OK

Track 14

Filename A:\PsPBuRnOuT's MUSIC\100 HITS\100 HITS - PEACE & LOVE\100 HITS - PEACE & LOVE - CD01\14.Billy Joe Royal - Hush.wav

Peak level 94.4 %
Extraction speed 17.3 X
Track quality 99.8 %
Copy CRC 46A09358
Accurately ripped (confidence 8) [2CB8F3B7] (AR v2)
Copy OK

Track 15

Filename A:\PsPBuRnOuT's MUSIC\100 HITS\100 HITS - PEACE & LOVE\100 HITS - PEACE & LOVE - CD01\15.Grapefruit - Dear Delilah.wav

Peak level 84.6 %
Extraction speed 20.9 X
Track quality 100.0 %
Copy CRC 03AFEF6D
Accurately ripped (confidence 8) [F9D1FC14] (AR v2)
Copy OK

Track 16

Filename A:\PsPBuRnOuT's MUSIC\100 HITS\100 HITS - PEACE & LOVE\100 HITS - PEACE & LOVE - CD01\16.The Cyrkle - Turn Down Day.wav

Peak level 94.4 %
Extraction speed 21.4 X
Track quality 100.0 %
Copy CRC BE6B4DE2
Accurately ripped (confidence 8) [14DD9008] (AR v2)
Copy OK

Track 17

Filename A:\PsPBuRnOuT's MUSIC\100 HITS\100 HITS - PEACE & LOVE\100 HITS - PEACE & LOVE - CD01\17.The Creation - Tom Tom.wav

Peak level 91.2 %
Extraction speed 18.9 X
Track quality 100.0 %
Copy CRC 2D524C1B
Accurately ripped (confidence 8) [66466447] (AR v2)
Copy OK

Track 18

Filename A:\PsPBuRnOuT's MUSIC\100 HITS\100 HITS - PEACE & LOVE\100 HITS - PEACE & LOVE - CD01\18.Jim Croce - Sun Come Up.wav

Peak level 95.7 %
Extraction speed 18.2 X
Track quality 100.0 %
Copy CRC 23696360
Accurately ripped (confidence 8) [41A02487] (AR v2)
Copy OK

Track 19

Filename A:\PsPBuRnOuT's MUSIC\100 HITS\100 HITS - PEACE & LOVE\100 HITS - PEACE & LOVE - CD01\19.Johnny Cash - It Ain't Me Babe.wav

Peak level 94.4 %
Extraction speed 22.2 X
Track quality 100.0 %
Copy CRC BD9C0B23
Accurately ripped (confidence 8) [0AE81B0D] (AR v2)
Copy OK

Track 20

Filename A:\PsPBuRnOuT's MUSIC\100 HITS\100 HITS - PEACE & LOVE\100 HITS - PEACE & LOVE - CD01\20.Jose Feliciano - Hey Jude.wav

Peak level 91.2 %
Extraction speed 22.4 X
Track quality 100.0 %
Copy CRC E220C0C4
Accurately ripped (confidence 7) [3F239B90] (AR v2)
Copy OK


All tracks accurately ripped

No errors occurred

End of status report

–– CUETools DB Plugin V2.1.6

[CTDB TOCID: NBBjykDxQxxr4SFGrm_OJb4gmKY-] found
Submit result: NBBjykDxQxxr4SFGrm_OJb4gmKY- has been confirmed
Track | CTDB Status
1 | (15/15) Accurately ripped
2 | (15/15) Accurately ripped
3 | (15/15) Accurately ripped
4 | (15/15) Accurately ripped
5 | (15/15) Accurately ripped
6 | (15/15) Accurately ripped
7 | (15/15) Accurately ripped
8 | (15/15) Accurately ripped
9 | (15/15) Accurately ripped
10 | (15/15) Accurately ripped
11 | (15/15) Accurately ripped
12 | (15/15) Accurately ripped
13 | (15/15) Accurately ripped
14 | (15/15) Accurately ripped
15 | (15/15) Accurately ripped
16 | (15/15) Accurately ripped
17 | (15/15) Accurately ripped
18 | (15/15) Accurately ripped
19 | (15/15) Accurately ripped
20 | (15/15) Accurately ripped

Exact Audio Copy V1.3 from 2. September 2016

EAC extraction logfile from 9. May 2018, 5:14

Various / 100 Hits - Peace & Love - CD02

Used drive : HL-DT-STDVDRAM GSA-E40N Adapter: 1 ID: 1

Read mode : Secure
Utilize accurate stream : Yes
Defeat audio cache : No
Make use of C2 pointers : Yes

Read offset correction : 667
Overread into Lead-In and Lead-Out : No
Fill up missing offset samples with silence : Yes
Delete leading and trailing silent blocks : No
Null samples used in CRC calculations : Yes
Used interface : Native Win32 interface for Win NT & 2000
Gap handling : Not detected, thus appended to previous track

Used output format : User Defined Encoder
Selected bitrate : 896 kBit/s
Quality : High
Add ID3 tag : No
Command line compressor : C:\Program Files (x86)\Exact Audio Copy\FLAC\FLAC.EXE
Additional command line options : -6 -V -T "ARTIST=%artist%" -T "TITLE=%title%" -T "ALBUM=%albumtitle%" -T "DATE=%year%" -T "TRACKNUMBER=%tracknr%" -T "GENRE=%genre%" -T "COMMENT=%comment%" -T "BAND=%albuminterpret%" -T "ALBUMARTIST=%albuminterpret%" -T "COMPOSER=%composer%" %haslyrics%–tag-from-file=LYRICS="%lyricsfile%"%haslyrics% -T "DISCNUMBER=%cdnumber%" -T "TOTALDISCS=%totalcds%" -T "TOTALTRACKS=%numtracks%" %hascover%–picture="%coverfile%"%hascover% %source% -o %dest%


TOC of the extracted CD

Track | Start | Length | Start sector | End sector
––––––––––––––––––––––––––––-
1 | 0:00.00 | 4:15.20 | 0 | 19144
2 | 4:15.20 | 2:06.69 | 19145 | 28663
3 | 6:22.14 | 2:15.45 | 28664 | 38833
4 | 8:37.59 | 3:15.66 | 38834 | 53524
5 | 11:53.50 | 2:12.59 | 53525 | 63483
6 | 14:06.34 | 4:00.67 | 63484 | 81550
7 | 18:07.26 | 4:49.73 | 81551 | 103298
8 | 22:57.24 | 3:14.27 | 103299 | 117875
9 | 26:11.51 | 4:16.37 | 117876 | 137112
10 | 30:28.13 | 3:49.62 | 137113 | 154349
11 | 34:18.00 | 3:35.71 | 154350 | 170545
12 | 37:53.71 | 2:01.32 | 170546 | 179652
13 | 39:55.28 | 2:47.01 | 179653 | 192178
14 | 42:42.29 | 3:30.70 | 192179 | 207998
15 | 46:13.24 | 3:33.16 | 207999 | 223989
16 | 49:46.40 | 2:40.70 | 223990 | 236059
17 | 52:27.35 | 3:36.01 | 236060 | 252260
18 | 56:03.36 | 2:44.53 | 252261 | 264613
19 | 58:48.14 | 6:55.46 | 264614 | 295784
20 | 65:43.60 | 3:15.56 | 295785 | 310465


Track 1

Filename A:\PsPBuRnOuT's MUSIC\100 HITS\100 HITS - PEACE & LOVE\100 HITS - PEACE & LOVE - CD02\01.Big Brother & The Holding Company Feat. Janis Joplin - Piece Of My Heart.wav

Peak level 93.5 %
Extraction speed 16.3 X
Track quality 99.9 %
Copy CRC 39FC059F
Accurately ripped (confidence 6) [8303920D] (AR v2)
Copy OK

Track 2

Filename A:\PsPBuRnOuT's MUSIC\100 HITS\100 HITS - PEACE & LOVE\100 HITS - PEACE & LOVE - CD02\02.Jefferson Airplane - Volunteers.wav

Peak level 94.4 %
Extraction speed 19.4 X
Track quality 100.0 %
Copy CRC 4E2C40F9
Accurately ripped (confidence 6) [BB150BF9] (AR v2)
Copy OK

Track 3

Filename A:\PsPBuRnOuT's MUSIC\100 HITS\100 HITS - PEACE & LOVE\100 HITS - PEACE & LOVE - CD02\03.Captain Beefheart & His Magic Band - Sure 'Nuff 'N' Yes, I Do.wav

Peak level 91.1 %
Extraction speed 17.6 X
Track quality 100.0 %
Copy CRC 7F177D21
Accurately ripped (confidence 6) [15BF2AEB] (AR v2)
Copy OK

Track 4

Filename A:\PsPBuRnOuT's MUSIC\100 HITS\100 HITS - PEACE & LOVE\100 HITS - PEACE & LOVE - CD02\04.Santana - Soul Sacrifice.wav

Peak level 94.4 %
Extraction speed 19.5 X
Track quality 100.0 %
Copy CRC 953AF91A
Accurately ripped (confidence 7) [B5F205C4] (AR v2)
Copy OK

Track 5

Filename A:\PsPBuRnOuT's MUSIC\100 HITS\100 HITS - PEACE & LOVE\100 HITS - PEACE & LOVE - CD02\05.Chicken Shack - Weekend Love.wav

Peak level 78.8 %
Extraction speed 19.1 X
Track quality 100.0 %
Copy CRC 681DC343
Accurately ripped (confidence 7) [12E79610] (AR v2)
Copy OK

Track 6

Filename A:\PsPBuRnOuT's MUSIC\100 HITS\100 HITS - PEACE & LOVE\100 HITS - PEACE & LOVE - CD02\06.The Electric Flag - Sunny.wav

Peak level 75.8 %
Extraction speed 21.0 X
Track quality 99.9 %
Copy CRC 443966DD
Accurately ripped (confidence 7) [B692BC65] (AR v2)
Copy OK

Track 7

Filename A:\PsPBuRnOuT's MUSIC\100 HITS\100 HITS - PEACE & LOVE\100 HITS - PEACE & LOVE - CD02\07.Taj Mahal - Leaving Trunk.wav

Peak level 91.2 %
Extraction speed 22.6 X
Track quality 99.9 %
Copy CRC 3B726CFB
Accurately ripped (confidence 7) [71E3C3E3] (AR v2)
Copy OK

Track 8

Filename A:\PsPBuRnOuT's MUSIC\100 HITS\100 HITS - PEACE & LOVE\100 HITS - PEACE & LOVE - CD02\08.Lou Reed - Ride Into The Sun.wav

Peak level 94.4 %
Extraction speed 22.1 X
Track quality 99.8 %
Copy CRC 27D9E64D
Accurately ripped (confidence 7) [2509F9B8] (AR v2)
Copy OK

Track 9

Filename A:\PsPBuRnOuT's MUSIC\100 HITS\100 HITS - PEACE & LOVE\100 HITS - PEACE & LOVE - CD02\09.Stone Country - Magnolias.wav

Peak level 89.2 %
Extraction speed 24.7 X
Track quality 99.9 %
Copy CRC 4FCB4684
Accurately ripped (confidence 7) [B92FEF02] (AR v2)
Copy OK

Track 10

Filename A:\PsPBuRnOuT's MUSIC\100 HITS\100 HITS - PEACE & LOVE\100 HITS - PEACE & LOVE - CD02\10.The Guess Who - American Woman.wav

Peak level 79.4 %
Extraction speed 29.5 X
Track quality 100.0 %
Copy CRC 3C774F21
Accurately ripped (confidence 7) [7C8EE690] (AR v2)
Copy OK

Track 11

Filename A:\PsPBuRnOuT's MUSIC\100 HITS\100 HITS - PEACE & LOVE\100 HITS - PEACE & LOVE - CD02\11.The Gun - Race With The Devil.wav

Peak level 78.5 %
Extraction speed 27.1 X
Track quality 100.0 %
Copy CRC 084957EA
Accurately ripped (confidence 7) [4401E971] (AR v2)
Copy OK

Track 12

Filename A:\PsPBuRnOuT's MUSIC\100 HITS\100 HITS - PEACE & LOVE\100 HITS - PEACE & LOVE - CD02\12.Crazy Elephant - Gimme Gimme Good Lovin'.wav

Peak level 79.4 %
Extraction speed 23.3 X
Track quality 99.8 %
Copy CRC 57816AA5
Accurately ripped (confidence 7) [C6DC9917] (AR v2)
Copy OK

Track 13

Filename A:\PsPBuRnOuT's MUSIC\100 HITS\100 HITS - PEACE & LOVE\100 HITS - PEACE & LOVE - CD02\13.Sir Douglas Quintet - She Digs My Love.wav

Peak level 79.4 %
Extraction speed 31.0 X
Track quality 100.0 %
Copy CRC B39C2E7D
Accurately ripped (confidence 7) [9A2C75F1] (AR v2)
Copy OK

Track 14

Filename A:\PsPBuRnOuT's MUSIC\100 HITS\100 HITS - PEACE & LOVE\100 HITS - PEACE & LOVE - CD02\14.Freda Payne - Bring The Boys Home.wav

Peak level 80.3 %
Extraction speed 27.7 X
Track quality 99.8 %
Copy CRC 28F40360
Accurately ripped (confidence 7) [B949CF87] (AR v2)
Copy OK

Track 15

Filename A:\PsPBuRnOuT's MUSIC\100 HITS\100 HITS - PEACE & LOVE\100 HITS - PEACE & LOVE - CD02\15.The Chambers Brothers - Time Has Come Today.wav

Peak level 100.0 %
Extraction speed 32.9 X
Track quality 100.0 %
Copy CRC BE16BFE0
Accurately ripped (confidence 7) [725BB843] (AR v2)
Copy OK

Track 16

Filename A:\PsPBuRnOuT's MUSIC\100 HITS\100 HITS - PEACE & LOVE\100 HITS - PEACE & LOVE - CD02\16.The Lovin' Spoonful - Summer In The City.wav

Peak level 76.9 %
Extraction speed 26.5 X
Track quality 99.8 %
Copy CRC CE11820A
Accurately ripped (confidence 7) [7D9F9E73] (AR v2)
Copy OK

Track 17

Filename A:\PsPBuRnOuT's MUSIC\100 HITS\100 HITS - PEACE & LOVE\100 HITS - PEACE & LOVE - CD02\17.Melanie - Beautiful People.wav

Peak level 94.3 %
Extraction speed 30.4 X
Track quality 100.0 %
Copy CRC DFEE5ED3
Accurately ripped (confidence 7) [3BC53AE5] (AR v2)
Copy OK

Track 18

Filename A:\PsPBuRnOuT's MUSIC\100 HITS\100 HITS - PEACE & LOVE\100 HITS - PEACE & LOVE - CD02\18.Keith Relf - Mr. Zero.wav

Peak level 94.4 %
Extraction speed 28.8 X
Track quality 100.0 %
Copy CRC 5C9496DE
Accurately ripped (confidence 7) [3A39F0CF] (AR v2)
Copy OK

Track 19

Filename A:\PsPBuRnOuT's MUSIC\100 HITS\100 HITS - PEACE & LOVE\100 HITS - PEACE & LOVE - CD02\19.Al Kooper & Mike Bloomfield - Albert's Shuffle.wav

Peak level 77.6 %
Extraction speed 36.6 X
Track quality 100.0 %
Copy CRC 7D7F2A0E
Accurately ripped (confidence 7) [AC0B9E45] (AR v2)
Copy OK

Track 20

Filename A:\PsPBuRnOuT's MUSIC\100 HITS\100 HITS - PEACE & LOVE\100 HITS - PEACE & LOVE - CD02\20.Zager & Evans - In The Year 2525.wav

Peak level 91.1 %
Extraction speed 36.5 X
Track quality 100.0 %
Copy CRC 4EC2FB9B
Accurately ripped (confidence 7) [A262DC26] (AR v2)
Copy OK


All tracks accurately ripped

No errors occurred

End of status report

–– CUETools DB Plugin V2.1.6

[CTDB TOCID: hH.0faLelS7HlPd69XZwlG0jtZg-] found
Submit result: hH.0faLelS7HlPd69XZwlG0jtZg- has been confirmed
Track | CTDB Status
1 | (17/17) Accurately ripped
2 | (17/17) Accurately ripped
3 | (17/17) Accurately ripped
4 | (17/17) Accurately ripped
5 | (17/17) Accurately ripped
6 | (17/17) Accurately ripped
7 | (17/17) Accurately ripped
8 | (17/17) Accurately ripped
9 | (17/17) Accurately ripped
10 | (17/17) Accurately ripped
11 | (17/17) Accurately ripped
12 | (17/17) Accurately ripped
13 | (17/17) Accurately ripped
14 | (17/17) Accurately ripped
15 | (17/17) Accurately ripped
16 | (17/17) Accurately ripped
17 | (17/17) Accurately ripped
18 | (17/17) Accurately ripped
19 | (17/17) Accurately ripped
20 | (17/17) Accurately ripped

Exact Audio Copy V1.3 from 2. September 2016

EAC extraction logfile from 9. May 2018, 10:35

Various / 100 Hits - Peace & Love - CD03

Used drive : HL-DT-STDVDRAM GSA-E40N Adapter: 1 ID: 1

Read mode : Secure
Utilize accurate stream : Yes
Defeat audio cache : No
Make use of C2 pointers : Yes

Read offset correction : 667
Overread into Lead-In and Lead-Out : No
Fill up missing offset samples with silence : Yes
Delete leading and trailing silent blocks : No
Null samples used in CRC calculations : Yes
Used interface : Native Win32 interface for Win NT & 2000
Gap handling : Not detected, thus appended to previous track

Used output format : User Defined Encoder
Selected bitrate : 896 kBit/s
Quality : High
Add ID3 tag : No
Command line compressor : C:\Program Files (x86)\Exact Audio Copy\FLAC\FLAC.EXE
Additional command line options : -6 -V -T "ARTIST=%artist%" -T "TITLE=%title%" -T "ALBUM=%albumtitle%" -T "DATE=%year%" -T "TRACKNUMBER=%tracknr%" -T "GENRE=%genre%" -T "COMMENT=%comment%" -T "BAND=%albuminterpret%" -T "ALBUMARTIST=%albuminterpret%" -T "COMPOSER=%composer%" %haslyrics%–tag-from-file=LYRICS="%lyricsfile%"%haslyrics% -T "DISCNUMBER=%cdnumber%" -T "TOTALDISCS=%totalcds%" -T "TOTALTRACKS=%numtracks%" %hascover%–picture="%coverfile%"%hascover% %source% -o %dest%


TOC of the extracted CD

Track | Start | Length | Start sector | End sector
––––––––––––––––––––––––––––-
1 | 0:00.00 | 1:53.74 | 0 | 8548
2 | 1:53.74 | 2:24.07 | 8549 | 19355
3 | 4:18.06 | 2:27.66 | 19356 | 30446
4 | 6:45.72 | 2:28.21 | 30447 | 41567
5 | 9:14.18 | 2:40.23 | 41568 | 53590
6 | 11:54.41 | 2:13.69 | 53591 | 63634
7 | 14:08.35 | 2:22.35 | 63635 | 74319
8 | 16:30.70 | 2:34.18 | 74320 | 85887
9 | 19:05.13 | 2:47.48 | 85888 | 98460
10 | 21:52.61 | 2:52.00 | 98461 | 111360
11 | 24:44.61 | 2:41.03 | 111361 | 123438
12 | 27:25.64 | 2:39.56 | 123439 | 135419
13 | 30:05.45 | 4:40.22 | 135420 | 156441
14 | 34:45.67 | 2:17.09 | 156442 | 166725
15 | 37:03.01 | 3:50.45 | 166726 | 184020
16 | 40:53.46 | 2:20.28 | 184021 | 194548
17 | 43:13.74 | 2:02.51 | 194549 | 203749
18 | 45:16.50 | 2:21.21 | 203750 | 214345
19 | 47:37.71 | 2:42.18 | 214346 | 226513
20 | 50:20.14 | 4:05.05 | 226514 | 244893


Track 1

Filename A:\PsPBuRnOuT's MUSIC\100 HITS\100 HITS - PEACE & LOVE\100 HITS - PEACE & LOVE - CD03\01.The Box Tops - The Letter.wav

Peak level 94.4 %
Extraction speed 14.2 X
Track quality 100.0 %
Copy CRC BA5F150E
Accurately ripped (confidence 8) [8D7A8595] (AR v2)
Copy OK

Track 2

Filename A:\PsPBuRnOuT's MUSIC\100 HITS\100 HITS - PEACE & LOVE\100 HITS - PEACE & LOVE - CD03\02.The Yardbirds - Over Under Sideways Down.wav

Peak level 94.4 %
Extraction speed 14.1 X
Track quality 100.0 %
Copy CRC EAFF753D
Accurately ripped (confidence 8) [C2E839FD] (AR v2)
Copy OK

Track 3

Filename A:\PsPBuRnOuT's MUSIC\100 HITS\100 HITS - PEACE & LOVE\100 HITS - PEACE & LOVE - CD03\03.Paul Revere & The Raiders Feat. Mark Lindsay - Kicks.wav

Peak level 94.4 %
Extraction speed 20.6 X
Track quality 100.0 %
Copy CRC 6CD21288
Accurately ripped (confidence 8) [00051268] (AR v2)
Copy OK

Track 4

Filename A:\PsPBuRnOuT's MUSIC\100 HITS\100 HITS - PEACE & LOVE\100 HITS - PEACE & LOVE - CD03\04.Syndicate Of Sound - Little Girl.wav

Peak level 90.1 %
Extraction speed 21.4 X
Track quality 100.0 %
Copy CRC E5BA8BB8
Accurately ripped (confidence 8) [1D58BB79] (AR v2)
Copy OK

Track 5

Filename A:\PsPBuRnOuT's MUSIC\100 HITS\100 HITS - PEACE & LOVE\100 HITS - PEACE & LOVE - CD03\05.The Remains - Don't Look Back.wav

Peak level 94.4 %
Extraction speed 23.0 X
Track quality 100.0 %
Copy CRC 3673524A
Accurately ripped (confidence 8) [2C2AF50D] (AR v2)
Copy OK

Track 6

Filename A:\PsPBuRnOuT's MUSIC\100 HITS\100 HITS - PEACE & LOVE\100 HITS - PEACE & LOVE - CD03\06.The Groop - Woman You're Breaking Me.wav

Peak level 83.1 %
Extraction speed 23.6 X
Track quality 100.0 %
Copy CRC 27C63C6A
Accurately ripped (confidence 8) [28467624] (AR v2)
Copy OK

Track 7

Filename A:\PsPBuRnOuT's MUSIC\100 HITS\100 HITS - PEACE & LOVE\100 HITS - PEACE & LOVE - CD03\07.Sir Douglas Quintet - She's About A Mover.wav

Peak level 83.1 %
Extraction speed 25.3 X
Track quality 100.0 %
Copy CRC 2B844235
Accurately ripped (confidence 8) [98C00C49] (AR v2)
Copy OK

Track 8

Filename A:\PsPBuRnOuT's MUSIC\100 HITS\100 HITS - PEACE & LOVE\100 HITS - PEACE & LOVE - CD03\08.The Flamin' Groovies - Rockin' Pneumonia And The Boogie Woogie Flu.wav

Peak level 94.4 %
Extraction speed 18.6 X
Track quality 99.8 %
Copy CRC A9B98768
Accurately ripped (confidence 8) [F3760A81] (AR v2)
Copy OK

Track 9

Filename A:\PsPBuRnOuT's MUSIC\100 HITS\100 HITS - PEACE & LOVE\100 HITS - PEACE & LOVE - CD03\09.Ruth Copeland - Hare Krishna.wav

Peak level 94.4 %
Extraction speed 23.2 X
Track quality 100.0 %
Copy CRC F727D9D1
Accurately ripped (confidence 8) [C8BDB405] (AR v2)
Copy OK

Track 10

Filename A:\PsPBuRnOuT's MUSIC\100 HITS\100 HITS - PEACE & LOVE\100 HITS - PEACE & LOVE - CD03\10.The Creation - Painter Man.wav

Peak level 94.4 %
Extraction speed 22.4 X
Track quality 100.0 %
Copy CRC 54CD359E
Accurately ripped (confidence 8) [B0A6A000] (AR v2)
Copy OK

Track 11

Filename A:\PsPBuRnOuT's MUSIC\100 HITS\100 HITS - PEACE & LOVE\100 HITS - PEACE & LOVE - CD03\11.Spirit - I Got A Line On You.wav

Peak level 94.4 %
Extraction speed 27.0 X
Track quality 100.0 %
Copy CRC F3D4399F
Accurately ripped (confidence 8) [DFD14F2A] (AR v2)
Copy OK

Track 12

Filename A:\PsPBuRnOuT's MUSIC\100 HITS\100 HITS - PEACE & LOVE\100 HITS - PEACE & LOVE - CD03\12.Captain Beefheart & His Magic Band - Zig Zag Wanderer.wav

Peak level 89.6 %
Extraction speed 30.0 X
Track quality 100.0 %
Copy CRC 638DDEE6
Accurately ripped (confidence 8) [11182769] (AR v2)
Copy OK

Track 13

Filename A:\PsPBuRnOuT's MUSIC\100 HITS\100 HITS - PEACE & LOVE\100 HITS - PEACE & LOVE - CD03\13.The Gun - Head In The Clouds.wav

Peak level 58.2 %
Extraction speed 26.5 X
Track quality 100.0 %
Copy CRC 476AE889
Accurately ripped (confidence 8) [80BC06D3] (AR v2)
Copy OK

Track 14

Filename A:\PsPBuRnOuT's MUSIC\100 HITS\100 HITS - PEACE & LOVE\100 HITS - PEACE & LOVE - CD03\14.Grapefruit - Deep Water.wav

Peak level 94.4 %
Extraction speed 28.0 X
Track quality 100.0 %
Copy CRC 5127561A
Accurately ripped (confidence 8) [C4B4470A] (AR v2)
Copy OK

Track 15

Filename A:\PsPBuRnOuT's MUSIC\100 HITS\100 HITS - PEACE & LOVE\100 HITS - PEACE & LOVE - CD03\15.Love Affair - Rainbow Valley.wav

Peak level 94.4 %
Extraction speed 27.3 X
Track quality 100.0 %
Copy CRC 3B14DFFB
Accurately ripped (confidence 8) [8502AF9E] (AR v2)
Copy OK

Track 16

Filename A:\PsPBuRnOuT's MUSIC\100 HITS\100 HITS - PEACE & LOVE\100 HITS - PEACE & LOVE - CD03\16.The Lemon Pipers - Rice Is Nice.wav

Peak level 88.1 %
Extraction speed 24.9 X
Track quality 100.0 %
Copy CRC A761198A
Accurately ripped (confidence 8) [5B89E77A] (AR v2)
Copy OK

Track 17

Filename A:\PsPBuRnOuT's MUSIC\100 HITS\100 HITS - PEACE & LOVE\100 HITS - PEACE & LOVE - CD03\17.The Rainbows - Balla Balla.wav

Peak level 82.0 %
Extraction speed 24.9 X
Track quality 99.8 %
Copy CRC 49E61529
Accurately ripped (confidence 8) [9E9DDAAF] (AR v2)
Copy OK

Track 18

Filename A:\PsPBuRnOuT's MUSIC\100 HITS\100 HITS - PEACE & LOVE\100 HITS - PEACE & LOVE - CD03\18.The Spotnicks - Havah Nagila.wav

Peak level 88.4 %
Extraction speed 30.2 X
Track quality 100.0 %
Copy CRC AC6E4FE8
Accurately ripped (confidence 8) [B6F66E51] (AR v2)
Copy OK

Track 19

Filename A:\PsPBuRnOuT's MUSIC\100 HITS\100 HITS - PEACE & LOVE\100 HITS - PEACE & LOVE - CD03\19.The Cyrkle - Don't Cry, No Fears, No Tears Comin' Your Way.wav

Peak level 94.4 %
Extraction speed 35.0 X
Track quality 100.0 %
Copy CRC 190606E8
Accurately ripped (confidence 8) [7F193BBD] (AR v2)
Copy OK

Track 20

Filename A:\PsPBuRnOuT's MUSIC\100 HITS\100 HITS - PEACE & LOVE\100 HITS - PEACE & LOVE - CD03\20.Ravi Shankar - Village Dance.wav

Peak level 94.4 %
Extraction speed 34.8 X
Track quality 99.9 %
Copy CRC 0EEAE239
Accurately ripped (confidence 8) [1BD56D65] (AR v2)
Copy OK


All tracks accurately ripped

No errors occurred

End of status report

–– CUETools DB Plugin V2.1.6

[CTDB TOCID: Yc3rUdI.fOxZiAFYzKsl6_BWto4-] found
Submit result: Yc3rUdI.fOxZiAFYzKsl6_BWto4- has been confirmed
Track | CTDB Status
1 | (19/19) Accurately ripped
2 | (19/19) Accurately ripped
3 | (19/19) Accurately ripped
4 | (19/19) Accurately ripped
5 | (19/19) Accurately ripped
6 | (19/19) Accurately ripped
7 | (19/19) Accurately ripped
8 | (19/19) Accurately ripped
9 | (19/19) Accurately ripped
10 | (19/19) Accurately ripped
11 | (19/19) Accurately ripped
12 | (19/19) Accurately ripped
13 | (19/19) Accurately ripped
14 | (19/19) Accurately ripped
15 | (19/19) Accurately ripped
16 | (19/19) Accurately ripped
17 | (19/19) Accurately ripped
18 | (19/19) Accurately ripped
19 | (19/19) Accurately ripped
20 | (19/19) Accurately ripped

Exact Audio Copy V1.3 from 2. September 2016

EAC extraction logfile from 9. May 2018, 11:04

Various / 100 Hits - Peace & Love - CD04

Used drive : HL-DT-STDVDRAM GSA-E40N Adapter: 1 ID: 1

Read mode : Secure
Utilize accurate stream : Yes
Defeat audio cache : No
Make use of C2 pointers : Yes

Read offset correction : 667
Overread into Lead-In and Lead-Out : No
Fill up missing offset samples with silence : Yes
Delete leading and trailing silent blocks : No
Null samples used in CRC calculations : Yes
Used interface : Native Win32 interface for Win NT & 2000
Gap handling : Not detected, thus appended to previous track

Used output format : User Defined Encoder
Selected bitrate : 896 kBit/s
Quality : High
Add ID3 tag : No
Command line compressor : C:\Program Files (x86)\Exact Audio Copy\FLAC\FLAC.EXE
Additional command line options : -6 -V -T "ARTIST=%artist%" -T "TITLE=%title%" -T "ALBUM=%albumtitle%" -T "DATE=%year%" -T "TRACKNUMBER=%tracknr%" -T "GENRE=%genre%" -T "COMMENT=%comment%" -T "BAND=%albuminterpret%" -T "ALBUMARTIST=%albuminterpret%" -T "COMPOSER=%composer%" %haslyrics%–tag-from-file=LYRICS="%lyricsfile%"%haslyrics% -T "DISCNUMBER=%cdnumber%" -T "TOTALDISCS=%totalcds%" -T "TOTALTRACKS=%numtracks%" %hascover%–picture="%coverfile%"%hascover% %source% -o %dest%


TOC of the extracted CD

Track | Start | Length | Start sector | End sector
––––––––––––––––––––––––––––-
1 | 0:00.00 | 2:40.19 | 0 | 12018
2 | 2:40.19 | 2:59.50 | 12019 | 25493
3 | 5:39.69 | 3:58.32 | 25494 | 43375
4 | 9:38.26 | 3:30.64 | 43376 | 59189
5 | 13:09.15 | 2:15.14 | 59190 | 69328
6 | 15:24.29 | 2:17.06 | 69329 | 79609
7 | 17:41.35 | 2:34.27 | 79610 | 91186
8 | 20:15.62 | 2:09.53 | 91187 | 100914
9 | 22:25.40 | 2:42.44 | 100915 | 113108
10 | 25:08.09 | 3:13.48 | 113109 | 127631
11 | 28:21.57 | 2:40.57 | 127632 | 139688
12 | 31:02.39 | 3:15.17 | 139689 | 154330
13 | 34:17.56 | 2:28.51 | 154331 | 165481
14 | 36:46.32 | 2:45.33 | 165482 | 177889
15 | 39:31.65 | 3:04.38 | 177890 | 191727
16 | 42:36.28 | 2:40.03 | 191728 | 203730
17 | 45:16.31 | 3:08.68 | 203731 | 217898
18 | 48:25.24 | 4:36.23 | 217899 | 238621
19 | 53:01.47 | 2:08.00 | 238622 | 248221
20 | 55:09.47 | 2:56.60 | 248222 | 261481


Track 1

Filename A:\PsPBuRnOuT's MUSIC\100 HITS\100 HITS - PEACE & LOVE\100 HITS - PEACE & LOVE - CD04\01.Nina Simone - To Love Somebody.wav

Peak level 94.4 %
Extraction speed 8.8 X
Track quality 99.8 %
Copy CRC AEF02C30
Accurately ripped (confidence 8) [3C0263D0] (AR v2)
Copy OK

Track 2

Filename A:\PsPBuRnOuT's MUSIC\100 HITS\100 HITS - PEACE & LOVE\100 HITS - PEACE & LOVE - CD04\02.The Honey Cone - Aquarius.wav

Peak level 94.4 %
Extraction speed 10.4 X
Track quality 100.0 %
Copy CRC 826F6A11
Accurately ripped (confidence 8) [6A807460] (AR v2)
Copy OK

Track 3

Filename A:\PsPBuRnOuT's MUSIC\100 HITS\100 HITS - PEACE & LOVE\100 HITS - PEACE & LOVE - CD04\03.Janis Joplin - Me And Bobby McGee.wav

Peak level 94.4 %
Extraction speed 13.0 X
Track quality 100.0 %
Copy CRC 73E370D0
Accurately ripped (confidence 8) [1036A5DD] (AR v2)
Copy OK

Track 4

Filename A:\PsPBuRnOuT's MUSIC\100 HITS\100 HITS - PEACE & LOVE\100 HITS - PEACE & LOVE - CD04\04.Blood, Sweet & Tears - You've Made Me So Very Happy.wav

Peak level 94.4 %
Extraction speed 12.7 X
Track quality 100.0 %
Copy CRC 8DDCE833
Accurately ripped (confidence 8) [286AF310] (AR v2)
Copy OK

Track 5

Filename A:\PsPBuRnOuT's MUSIC\100 HITS\100 HITS - PEACE & LOVE\100 HITS - PEACE & LOVE - CD04\05.Sir Douglas Quintet - The Rains Came.wav

Peak level 85.1 %
Extraction speed 14.8 X
Track quality 100.0 %
Copy CRC 2DE1E49F
Accurately ripped (confidence 8) [F6F4BA70] (AR v2)
Copy OK

Track 6

Filename A:\PsPBuRnOuT's MUSIC\100 HITS\100 HITS - PEACE & LOVE\100 HITS - PEACE & LOVE - CD04\06.The Searchers - Don't Throw Your Love Away.wav

Peak level 94.4 %
Extraction speed 15.3 X
Track quality 100.0 %
Copy CRC FEAE5FA5
Accurately ripped (confidence 8) [14BA8218] (AR v2)
Copy OK

Track 7

Filename A:\PsPBuRnOuT's MUSIC\100 HITS\100 HITS - PEACE & LOVE\100 HITS - PEACE & LOVE - CD04\07.The Box Tops - Cry Like A Baby.wav

Peak level 94.4 %
Extraction speed 15.7 X
Track quality 100.0 %
Copy CRC 3F6950C7
Accurately ripped (confidence 8) [E703396A] (AR v2)
Copy OK

Track 8

Filename A:\PsPBuRnOuT's MUSIC\100 HITS\100 HITS - PEACE & LOVE\100 HITS - PEACE & LOVE - CD04\08.The Remains - Ain't That Her.wav

Peak level 96.6 %
Extraction speed 12.4 X
Track quality 99.8 %
Copy CRC 09D5A518
Accurately ripped (confidence 8) [7E56DE78] (AR v2)
Copy OK

Track 9

Filename A:\PsPBuRnOuT's MUSIC\100 HITS\100 HITS - PEACE & LOVE\100 HITS - PEACE & LOVE - CD04\09.The Guess Who - Laughing.wav

Peak level 87.1 %
Extraction speed 16.2 X
Track quality 100.0 %
Copy CRC FAEDD19A
Accurately ripped (confidence 8) [C2070626] (AR v2)
Copy OK

Track 10

Filename A:\PsPBuRnOuT's MUSIC\100 HITS\100 HITS - PEACE & LOVE\100 HITS - PEACE & LOVE - CD04\10.The Rokes - I Would Give The World.wav

Peak level 94.4 %
Extraction speed 15.5 X
Track quality 100.0 %
Copy CRC C0D430CD
Accurately ripped (confidence 8) [64597A0E] (AR v2)
Copy OK

Track 11

Filename A:\PsPBuRnOuT's MUSIC\100 HITS\100 HITS - PEACE & LOVE\100 HITS - PEACE & LOVE - CD04\11.The End - Shades Of Orange.wav

Peak level 94.4 %
Extraction speed 15.7 X
Track quality 100.0 %
Copy CRC C9B02D2D
Accurately ripped (confidence 8) [3245D2E3] (AR v2)
Copy OK

Track 12

Filename A:\PsPBuRnOuT's MUSIC\100 HITS\100 HITS - PEACE & LOVE\100 HITS - PEACE & LOVE - CD04\12.Chicken Shack - I'd Rather Go Blind.wav

Peak level 91.2 %
Extraction speed 16.9 X
Track quality 100.0 %
Copy CRC 7F1A52C8
Accurately ripped (confidence 8) [2B3002CC] (AR v2)
Copy OK

Track 13

Filename A:\PsPBuRnOuT's MUSIC\100 HITS\100 HITS - PEACE & LOVE\100 HITS - PEACE & LOVE - CD04\13.Reparata & The Delrons - Captain Of Your Ship.wav

Peak level 94.4 %
Extraction speed 16.5 X
Track quality 100.0 %
Copy CRC C00146B7
Accurately ripped (confidence 8) [2D058175] (AR v2)
Copy OK

Track 14

Filename A:\PsPBuRnOuT's MUSIC\100 HITS\100 HITS - PEACE & LOVE\100 HITS - PEACE & LOVE - CD04\14.The Peddlers - Girlie.wav

Peak level 94.4 %
Extraction speed 19.9 X
Track quality 100.0 %
Copy CRC F35F6642
Accurately ripped (confidence 8) [49D426C5] (AR v2)
Copy OK

Track 15

Filename A:\PsPBuRnOuT's MUSIC\100 HITS\100 HITS - PEACE & LOVE\100 HITS - PEACE & LOVE - CD04\15.Gary Puckett & The Union Gap - Young Girl.wav

Peak level 94.4 %
Extraction speed 16.5 X
Track quality 99.8 %
Copy CRC 01AB407D
Accurately ripped (confidence 8) [2DA95968] (AR v2)
Copy OK

Track 16

Filename A:\PsPBuRnOuT's MUSIC\100 HITS\100 HITS - PEACE & LOVE\100 HITS - PEACE & LOVE - CD04\16.Route 17 - Going To Bethel.wav

Peak level 94.4 %
Extraction speed 20.1 X
Track quality 100.0 %
Copy CRC C5AE8669
Accurately ripped (confidence 8) [B313572F] (AR v2)
Copy OK

Track 17

Filename A:\PsPBuRnOuT's MUSIC\100 HITS\100 HITS - PEACE & LOVE\100 HITS - PEACE & LOVE - CD04\17.Merrilee Rush & The Turnabouts - Angel Of The Morning.wav

Peak level 94.4 %
Extraction speed 19.0 X
Track quality 100.0 %
Copy CRC 99330F53
Accurately ripped (confidence 8) [6FA9A873] (AR v2)
Copy OK

Track 18

Filename A:\PsPBuRnOuT's MUSIC\100 HITS\100 HITS - PEACE & LOVE\100 HITS - PEACE & LOVE - CD04\18.Melanie - Ruby Tuesday.wav

Peak level 85.1 %
Extraction speed 22.4 X
Track quality 100.0 %
Copy CRC B4A0C2AC
Accurately ripped (confidence 8) [FAD1BC78] (AR v2)
Copy OK

Track 19

Filename A:\PsPBuRnOuT's MUSIC\100 HITS\100 HITS - PEACE & LOVE\100 HITS - PEACE & LOVE - CD04\19.Lou Christie - She Sold Me Magic.wav

Peak level 94.4 %
Extraction speed 19.0 X
Track quality 100.0 %
Copy CRC E51D4203
Accurately ripped (confidence 8) [A988BAC2] (AR v2)
Copy OK

Track 20

Filename A:\PsPBuRnOuT's MUSIC\100 HITS\100 HITS - PEACE & LOVE\100 HITS - PEACE & LOVE - CD04\20.The Strangeloves - I Want Candy.wav

Peak level 94.4 %
Extraction speed 20.5 X
Track quality 100.0 %
Copy CRC 19AFE15D
Accurately ripped (confidence 8) [75A70AE0] (AR v2)
Copy OK


All tracks accurately ripped

No errors occurred

End of status report

–– CUETools DB Plugin V2.1.6

[CTDB TOCID: sbWMwVKwdjWcZe.jzCNARZ99_7U-] found
Submit result: sbWMwVKwdjWcZe.jzCNARZ99_7U- has been confirmed
Track | CTDB Status
1 | (18/18) Accurately ripped
2 | (18/18) Accurately ripped
3 | (18/18) Accurately ripped
4 | (18/18) Accurately ripped
5 | (18/18) Accurately ripped
6 | (18/18) Accurately ripped
7 | (18/18) Accurately ripped
8 | (18/18) Accurately ripped
9 | (18/18) Accurately ripped
10 | (18/18) Accurately ripped
11 | (18/18) Accurately ripped
12 | (18/18) Accurately ripped
13 | (18/18) Accurately ripped
14 | (18/18) Accurately ripped
15 | (18/18) Accurately ripped
16 | (18/18) Accurately ripped
17 | (18/18) Accurately ripped
18 | (18/18) Accurately ripped
19 | (18/18) Accurately ripped
20 | (18/18) Accurately ripped

Exact Audio Copy V1.3 from 2. September 2016

EAC extraction logfile from 9. May 2018, 11:35

Various / 100 Hits - Peace & Love - CD05

Used drive : HL-DT-STDVDRAM GSA-E40N Adapter: 1 ID: 1

Read mode : Secure
Utilize accurate stream : Yes
Defeat audio cache : No
Make use of C2 pointers : Yes

Read offset correction : 667
Overread into Lead-In and Lead-Out : No
Fill up missing offset samples with silence : Yes
Delete leading and trailing silent blocks : No
Null samples used in CRC calculations : Yes
Used interface : Native Win32 interface for Win NT & 2000
Gap handling : Not detected, thus appended to previous track

Used output format : User Defined Encoder
Selected bitrate : 896 kBit/s
Quality : High
Add ID3 tag : No
Command line compressor : C:\Program Files (x86)\Exact Audio Copy\FLAC\FLAC.EXE
Additional command line options : -6 -V -T "ARTIST=%artist%" -T "TITLE=%title%" -T "ALBUM=%albumtitle%" -T "DATE=%year%" -T "TRACKNUMBER=%tracknr%" -T "GENRE=%genre%" -T "COMMENT=%comment%" -T "BAND=%albuminterpret%" -T "ALBUMARTIST=%albuminterpret%" -T "COMPOSER=%composer%" %haslyrics%–tag-from-file=LYRICS="%lyricsfile%"%haslyrics% -T "DISCNUMBER=%cdnumber%" -T "TOTALDISCS=%totalcds%" -T "TOTALTRACKS=%numtracks%" %hascover%–picture="%coverfile%"%hascover% %source% -o %dest%


TOC of the extracted CD

Track | Start | Length | Start sector | End sector
––––––––––––––––––––––––––––-
1 | 0:00.00 | 2:44.37 | 0 | 12336
2 | 2:44.37 | 3:52.64 | 12337 | 29800
3 | 6:37.26 | 3:54.74 | 29801 | 47424
4 | 10:32.25 | 3:36.37 | 47425 | 63661
5 | 14:08.62 | 3:19.51 | 63662 | 78637
6 | 17:28.38 | 2:31.30 | 78638 | 89992
7 | 19:59.68 | 2:18.65 | 89993 | 100407
8 | 22:18.58 | 2:27.30 | 100408 | 111462
9 | 24:46.13 | 2:43.02 | 111463 | 123689
10 | 27:29.15 | 4:33.60 | 123690 | 144224
11 | 32:03.00 | 3:26.19 | 144225 | 159693
12 | 35:29.19 | 2:22.14 | 159694 | 170357
13 | 37:51.33 | 3:16.57 | 170358 | 185114
14 | 41:08.15 | 4:32.43 | 185115 | 205557
15 | 45:40.58 | 4:37.41 | 205558 | 226373
16 | 50:18.24 | 2:57.09 | 226374 | 239657
17 | 53:15.33 | 2:29.25 | 239658 | 250857
18 | 55:44.58 | 2:27.39 | 250858 | 261921
19 | 58:12.22 | 3:23.02 | 261922 | 277148
20 | 61:35.24 | 2:26.19 | 277149 | 288117


Track 1

Filename A:\PsPBuRnOuT's MUSIC\100 HITS\100 HITS - PEACE & LOVE\100 HITS - PEACE & LOVE - CD05\01.Harry Nilsson - Everybody's Talkin'.wav

Peak level 98.4 %
Extraction speed 10.8 X
Track quality 100.0 %
Copy CRC 32F2D4AA
Accurately ripped (confidence 8) [F895EB74] (AR v2)
Copy OK

Track 2

Filename A:\PsPBuRnOuT's MUSIC\100 HITS\100 HITS - PEACE & LOVE\100 HITS - PEACE & LOVE - CD05\02.Tim Hardin - Simple Song Of Freedom.wav

Peak level 91.2 %
Extraction speed 11.0 X
Track quality 100.0 %
Copy CRC E729FF98
Accurately ripped (confidence 8) [82ADFE95] (AR v2)
Copy OK

Track 3

Filename A:\PsPBuRnOuT's MUSIC\100 HITS\100 HITS - PEACE & LOVE\100 HITS - PEACE & LOVE - CD05\03.Fleetwood Mac - Need Your Love So Bad.wav

Peak level 94.4 %
Extraction speed 13.0 X
Track quality 100.0 %
Copy CRC 08CDE209
Accurately ripped (confidence 8) [5CA0A33D] (AR v2)
Copy OK

Track 4

Filename A:\PsPBuRnOuT's MUSIC\100 HITS\100 HITS - PEACE & LOVE\100 HITS - PEACE & LOVE - CD05\04.Jose Feliciano - Light My Fire.wav

Peak level 79.4 %
Extraction speed 14.3 X
Track quality 100.0 %
Copy CRC FD47A5F8
Accurately ripped (confidence 8) [F1A66391] (AR v2)
Copy OK

Track 5

Filename A:\PsPBuRnOuT's MUSIC\100 HITS\100 HITS - PEACE & LOVE\100 HITS - PEACE & LOVE - CD05\05.Santana - She's Not There.wav

Peak level 78.5 %
Extraction speed 13.4 X
Track quality 100.0 %
Copy CRC E77ADE43
Accurately ripped (confidence 8) [A67C8400] (AR v2)
Copy OK

Track 6

Filename A:\PsPBuRnOuT's MUSIC\100 HITS\100 HITS - PEACE & LOVE\100 HITS - PEACE & LOVE - CD05\06.The Byrds - Mr. Tambourine Man.wav

Peak level 78.5 %
Extraction speed 15.6 X
Track quality 100.0 %
Copy CRC 8FC9224F
Accurately ripped (confidence 8) [5E234741] (AR v2)
Copy OK

Track 7

Filename A:\PsPBuRnOuT's MUSIC\100 HITS\100 HITS - PEACE & LOVE\100 HITS - PEACE & LOVE - CD05\07.The Lovin' Spoonful - Daydream.wav

Peak level 79.4 %
Extraction speed 13.8 X
Track quality 100.0 %
Copy CRC 76BB2372
Accurately ripped (confidence 8) [743C75CE] (AR v2)
Copy OK

Track 8

Filename A:\PsPBuRnOuT's MUSIC\100 HITS\100 HITS - PEACE & LOVE\100 HITS - PEACE & LOVE - CD05\08.Jim Croce - Time In A Bottle.wav

Peak level 94.4 %
Extraction speed 14.2 X
Track quality 100.0 %
Copy CRC C57A79AB
Accurately ripped (confidence 8) [B7CD81CF] (AR v2)
Copy OK

Track 9

Filename A:\PsPBuRnOuT's MUSIC\100 HITS\100 HITS - PEACE & LOVE\100 HITS - PEACE & LOVE - CD05\09.The Youngbloods - Quicksand.wav

Peak level 94.4 %
Extraction speed 14.8 X
Track quality 100.0 %
Copy CRC 238B1F7A
Accurately ripped (confidence 8) [4F42613B] (AR v2)
Copy OK

Track 10

Filename A:\PsPBuRnOuT's MUSIC\100 HITS\100 HITS - PEACE & LOVE\100 HITS - PEACE & LOVE - CD05\10.New Riders Of The Purple Sage - Garden Of Eden.wav

Peak level 93.4 %
Extraction speed 18.0 X
Track quality 100.0 %
Copy CRC 188A5457
Accurately ripped (confidence 8) [85B439BA] (AR v2)
Copy OK

Track 11

Filename A:\PsPBuRnOuT's MUSIC\100 HITS\100 HITS - PEACE & LOVE\100 HITS - PEACE & LOVE - CD05\11.Terry Jacks - Seasons In The Sun.wav

Peak level 88.1 %
Extraction speed 19.1 X
Track quality 100.0 %
Copy CRC 5A8E37F4
Accurately ripped (confidence 8) [0169A490] (AR v2)
Copy OK

Track 12

Filename A:\PsPBuRnOuT's MUSIC\100 HITS\100 HITS - PEACE & LOVE\100 HITS - PEACE & LOVE - CD05\12.Bobby Darin - If I Were A Carpenter.wav

Peak level 85.1 %
Extraction speed 19.4 X
Track quality 100.0 %
Copy CRC BA83800D
Accurately ripped (confidence 8) [0655592A] (AR v2)
Copy OK

Track 13

Filename A:\PsPBuRnOuT's MUSIC\100 HITS\100 HITS - PEACE & LOVE\100 HITS - PEACE & LOVE - CD05\13.Scott McKenzie - Like An Old Time Movie.wav

Peak level 94.4 %
Extraction speed 19.9 X
Track quality 100.0 %
Copy CRC FE986DA4
Accurately ripped (confidence 8) [CEC92B63] (AR v2)
Copy OK

Track 14

Filename A:\PsPBuRnOuT's MUSIC\100 HITS\100 HITS - PEACE & LOVE\100 HITS - PEACE & LOVE - CD05\14.Kris Kristofferson - Sunday Morning Comin' Down.wav

Peak level 94.4 %
Extraction speed 20.3 X
Track quality 100.0 %
Copy CRC 019D6B88
Accurately ripped (confidence 8) [2F0BA096] (AR v2)
Copy OK

Track 15

Filename A:\PsPBuRnOuT's MUSIC\100 HITS\100 HITS - PEACE & LOVE\100 HITS - PEACE & LOVE - CD05\15.The Youngbloods - Get Together.wav

Peak level 94.4 %
Extraction speed 18.4 X
Track quality 99.9 %
Copy CRC B6E66D2A
Accurately ripped (confidence 8) [130DF329] (AR v2)
Copy OK

Track 16

Filename A:\PsPBuRnOuT's MUSIC\100 HITS\100 HITS - PEACE & LOVE\100 HITS - PEACE & LOVE - CD05\16.The Creation - Making Time.wav

Peak level 72.4 %
Extraction speed 17.9 X
Track quality 100.0 %
Copy CRC 9FB0C504
Accurately ripped (confidence 8) [8081021F] (AR v2)
Copy OK

Track 17

Filename A:\PsPBuRnOuT's MUSIC\100 HITS\100 HITS - PEACE & LOVE\100 HITS - PEACE & LOVE - CD05\17.Stone Country - Love Psalm.wav

Peak level 73.4 %
Extraction speed 19.0 X
Track quality 100.0 %
Copy CRC 02BBC79A
Accurately ripped (confidence 8) [E38BEAE0] (AR v2)
Copy OK

Track 18

Filename A:\PsPBuRnOuT's MUSIC\100 HITS\100 HITS - PEACE & LOVE\100 HITS - PEACE & LOVE - CD05\18.The Lemon Pipers - Green Tambourine.wav

Peak level 73.4 %
Extraction speed 17.0 X
Track quality 99.8 %
Copy CRC D2F45C28
Accurately ripped (confidence 8) [BD25E2AB] (AR v2)
Copy OK

Track 19

Filename A:\PsPBuRnOuT's MUSIC\100 HITS\100 HITS - PEACE & LOVE\100 HITS - PEACE & LOVE - CD05\19.The Rokes - When The Wind Arises.wav

Peak level 79.4 %
Extraction speed 22.2 X
Track quality 100.0 %
Copy CRC D1FC6066
Accurately ripped (confidence 8) [DE5B4A0D] (AR v2)
Copy OK

Track 20

Filename A:\PsPBuRnOuT's MUSIC\100 HITS\100 HITS - PEACE & LOVE\100 HITS - PEACE & LOVE - CD05\20.Sagittarius - Glass.wav

Peak level 85.1 %
Extraction speed 20.5 X
Track quality 100.0 %
Copy CRC A271B9EC
Accurately ripped (confidence 8) [153080D1] (AR v2)
Copy OK


All tracks accurately ripped

No errors occurred

End of status report

–– CUETools DB Plugin V2.1.6

[CTDB TOCID: RvlhBLDPGAJcJrNQxoMbuxnIPY4-] found
Submit result: RvlhBLDPGAJcJrNQxoMbuxnIPY4- has been confirmed
Track | CTDB Status
1 | (19/19) Accurately ripped
2 | (19/19) Accurately ripped
3 | (19/19) Accurately ripped
4 | (19/19) Accurately ripped
5 | (19/19) Accurately ripped
6 | (19/19) Accurately ripped
7 | (19/19) Accurately ripped
8 | (19/19) Accurately ripped
9 | (19/19) Accurately ripped
10 | (19/19) Accurately ripped
11 | (19/19) Accurately ripped
12 | (19/19) Accurately ripped
13 | (19/19) Accurately ripped
14 | (19/19) Accurately ripped
15 | (19/19) Accurately ripped
16 | (19/19) Accurately ripped
17 | (19/19) Accurately ripped
18 | (19/19) Accurately ripped
19 | (19/19) Accurately ripped
20 | (19/19) Accurately ripped