Subcategories

VA - Car Hits The Ultimate Collection (5CD, 2019)

Posted By: ciklon5
VA - Car Hits The Ultimate Collection (5CD, 2019)

VA - Car Hits The Ultimate Collection (5CD, 2019)
FLAC (tracks +cue+log+scans) / MP3 320 kbps | 04:47:38 | 875 Mb / 2,4 Gb
Genre: Synth-pop, Pop, Rock, Funk / Label: Union Square Music Ltd

The Ultimate Collection: Car Hits brings together 5CDs packed full of sing-along classics for all types of car journeys. Whether you’ve got a long business trip ahead or just the school run, picking up some friends before a night out or travelling on your own this 100 track compilation will have you singing all the way!



Track List:
CD1

01.Frankie Goes To Hollywood - Relax - 00:03:55
02.Tears For Fears - Shout - 00:04:02
03.Kool & The Gang - Get Down On It - 00:03:30
04.Madness - It Must Be Love - 00:03:18
05.Wet Wet Wet - With A Little Help From My Friends - 00:02:37
06.Thompson Twins - You Take Me Up - 00:04:25
07.ABC - The Look Of Love (Part 1) - 00:03:28
08.Soft Cell - Say Hello, Wave Goodbye - 00:05:24
09.The Human League - Open Your Heart - 00:03:53
10.Dexys Midnight Runners - Jackie Wilson Said (I'm In Heaven When You Smile) - 00:03:05
11.Shalamar - I Can Make You Feel Good - 00:04:16
12.Kelly Marie - Feels Like I'm In Love - 00:03:16
13.Junior - Mama Used To Say - 00:03:35
14.Samantha Fox - I Only Wanna Be With You - 00:02:43
15.A Flock Of Seagulls - I Ran - 00:03:39
16.The Housemartins - Happy Hour - 00:02:20
17.Was Not Was - Walk The Dinosaur - 00:03:33
18.Level 42 - Running In The Family - 00:03:55
19.Kylie Minogue - The Loco-Motion - 00:03:13
20.Rick Astley - When I Fall In Love - 00:03:02

CD2

01.Hozier - Take Me To The Church - 00:04:01
02.Avicii - Hey Brother - 00:03:11
03.John Newman - Love Me Again - 00:03:34
04.Maroon 5 Feat. Christina Aguilera - Moves Like Jagger - 00:03:21
05.Katy Perry Feat. Snoop Dogg - California Girls - 00:03:53
06.Emeli Sande - Next To Me - 00:03:14
07.The Weeknd - Can't Feel My Face - 00:03:32
08.Ellie Goulding - Love Me Like You Do - 00:03:55
09.Amy Winehouse - Back To Black - 00:03:11
10.Razorlight - America - 00:04:09
11.The Dandy Warhols - Bohemian Like You - 00:03:29
12.Stereophonics - Have A Nice Day - 00:03:23
13.Gabrielle - Rise - 00:03:36
14.Des'ree - You Gotta Be - 00:03:58
15.Boyzone - Love Me For A Reason - 00:03:38
16.Lenny Kravitz - Fly Away - 00:03:40
17.Shed Seven - Going For Gold - 00:04:22
18.Texas - Black Eyed Boy - 00:03:09
19.Ronan Keating - When You Say Nothing At All - 00:04:11
20.Robbie Williams - Let Me Entertain You - 00:04:21

CD3

01.Madness - Driving In My Car - 00:03:17
02.Jane Wiedlin - Rush Hour - 00:03:59
03.Frankie Goes To Hollywood - Two Tribes - 00:03:22
04.Simple Minds - Alive & Kicking - 00:04:45
05.The Wonder Stuff - The Size Of A Cow - 00:03:12
06.Tenpole Tudor - Swords Of A Thousand Men - 00:02:54
07.Kiss - Crazy Crazy Nights - 00:03:40
08.The Stranglers - All Day And All Of The Night - 00:02:30
09.Inspiral Carpets - This Is How It Feels - 00:03:10
10.Ce Ce Peniston - Finally - 00:04:07
11.Snap! - The Power - 00:03:46
12.Mel & Kim - Showing Out (Get Fresh At The Weekend) - 00:03:32
13.The Blow Monkeys - Digging Your Scene - 00:04:02
14.Thompson Twins - Hold Me Now - 00:04:43
15.Shakin' Stevens - Green Door - 00:03:11
16.Bucks Fizz - Land Of Make Believe - 00:03:48
17.The Whispers - It's A Love Thing - 00:03:44
18.Tracey Ullman - My Guy - 00:02:54
19.Jason Donovan - Sealed With A Kiss - 00:02:32
20.Alison Moyet - That Ole Devil Called Love - 00:03:03

CD4

01.Abba - Mamma Mia - 00:03:31
02.Thelma Houston - Don't Leave Me This Way - 00:03:34
03.Gloria Gaynor - Never Can Say Goodbye - 00:02:57
04.Sylvester - You Make Me Feel (Mighty Real) - 00:03:50
05.Amii Stewart - Light My Fire - 00:03:51
06.Sugar Hill Gang - Rapper's Delight - 00:03:55
07.The Beat - Mirror In The Bathroom - 00:03:05
08.Blondie - One Way Or Another - 00:03:31
09.Squeeze - Up The Junction - 00:03:08
10.Martha & The Muffins - Echo Beach - 00:03:34
11.Sham 69 - Hersham Boys - 00:03:23
12.Status Quo - Whatever You Want - 00:04:00
13.Sweet - The Ballroom Blitz - 00:04:01
14.Jason Donovan & The Rocky Horror Show Cast - The Time Warp (Live) - 00:04:16
15.10cc - Rubber Bullets - 00:04:46
16.Bonnie Tyler - It's A Heartache - 00:03:28
17.David Parton - Isn't She Lovely - 00:04:07
18.The Real Thing - Can You Feel The Force - 00:04:06
19.The Whispers - And The Beat Goes On - 00:03:25
20.Positive Force - We Got He Funk - 00:03:20

CD5

01.Martha & The Vandellas - Dancing In The Street - 00:02:39
02.The Mamas & The Papas - California Dreamin' - 00:02:38
03.Tom Jones - It's Not Unusual - 00:01:59
04.Desmond Dekker & The Aces - Israelites - 00:02:33
05.Marvin Gaye & Tammi Terrell - Ain't No Mountain High Enough - 00:02:25
06.First Class - Beach Baby - 00:04:48
07.Mary Wells - My Guy - 00:02:47
08.The Searchers - Sweets For My Sweet - 00:02:26
09.The Zombies - She's Not There - 00:02:24
10.The Moody Blues - Go Now - 00:03:10
11.The Overlanders - Michelle - 00:02:21
12.The Pipkins - Gimme Dat Ding - 00:02:11
13.Blue Mink - Melting Pot - 00:03:47
14.Bob & Marcia - Young Gifted & Black - 00:03:06
15.Bob & Earl - Harlem Shuffle - 00:02:43
16.The Pioneers - Let Your Yeah Be Yeah - 00:03:06
17.Diana Ross & The Supremes - You Keep Me Hangin' On - 00:02:41
18.Petula Clark - I Couldn't Live Without Your Love - 00:02:53
19.The Sandpipers - Guantanamera - 00:03:12
20.Ralph McTell - Streets Of London - 00:04:06

Exact Audio Copy V1.3 from 2. September 2016

EAC extraction logfile from 9. March 2019, 11:35

Various / Car Hits The Ultimate Collection - CD1

Used drive : ATAPI iHAS124 Y Adapter: 1 ID: 0

Read mode : Secure
Utilize accurate stream : Yes
Defeat audio cache : No
Make use of C2 pointers : Yes

Read offset correction : 48
Overread into Lead-In and Lead-Out : No
Fill up missing offset samples with silence : Yes
Delete leading and trailing silent blocks : No
Null samples used in CRC calculations : Yes
Used interface : Native Win32 interface for Win NT & 2000
Gap handling : Not detected, thus appended to previous track

Used output format : User Defined Encoder
Selected bitrate : 896 kBit/s
Quality : High
Add ID3 tag : No
Command line compressor : C:\Program Files (x86)\Exact Audio Copy\FLAC\FLAC.EXE
Additional command line options : -6 -V -T "ARTIST=%artist%" -T "TITLE=%title%" -T "ALBUM=%albumtitle%" -T "DATE=%year%" -T "TRACKNUMBER=%tracknr%" -T "GENRE=%genre%" -T "COMMENT=%comment%" -T "BAND=%albuminterpret%" -T "ALBUMARTIST=%albuminterpret%" -T "COMPOSER=%composer%" %haslyrics%–tag-from-file=LYRICS="%lyricsfile%"%haslyrics% -T "DISCNUMBER=%cdnumber%" -T "TOTALDISCS=%totalcds%" -T "TOTALTRACKS=%numtracks%" %hascover%–picture="%coverfile%"%hascover% %source% -o %dest%


TOC of the extracted CD

Track | Start | Length | Start sector | End sector
––––––––––––––––––––––––––––-
1 | 0:00.00 | 3:55.46 | 0 | 17670
2 | 3:55.46 | 4:02.22 | 17671 | 35842
3 | 7:57.68 | 3:30.57 | 35843 | 51649
4 | 11:28.50 | 3:18.01 | 51650 | 66500
5 | 14:46.51 | 2:37.34 | 66501 | 78309
6 | 17:24.10 | 4:25.17 | 78310 | 98201
7 | 21:49.27 | 3:28.66 | 98202 | 113867
8 | 25:18.18 | 5:24.29 | 113868 | 138196
9 | 30:42.47 | 3:53.39 | 138197 | 155710
10 | 34:36.11 | 3:05.57 | 155711 | 169642
11 | 37:41.68 | 4:16.29 | 169643 | 188871
12 | 41:58.22 | 3:16.70 | 188872 | 203641
13 | 45:15.17 | 3:35.27 | 203642 | 219793
14 | 48:50.44 | 2:43.05 | 219794 | 232023
15 | 51:33.49 | 3:39.16 | 232024 | 248464
16 | 55:12.65 | 2:20.58 | 248465 | 259022
17 | 57:33.48 | 3:33.34 | 259023 | 275031
18 | 61:07.07 | 3:55.71 | 275032 | 292727
19 | 65:03.03 | 3:13.50 | 292728 | 307252
20 | 68:16.53 | 3:02.34 | 307253 | 320936


Track 1

Filename A:\PsPBuRnOuT's MUSIC\DRIVE\Car Hits The Ultimate Collection\Car Hits The Ultimate Collection - CD1\01.Frankie Goes To Hollywood - Relax.wav

Peak level 100.0 %
Extraction speed 15.2 X
Track quality 100.0 %
Copy CRC 8244B826
Track not present in AccurateRip database
Copy OK

Track 2

Filename A:\PsPBuRnOuT's MUSIC\DRIVE\Car Hits The Ultimate Collection\Car Hits The Ultimate Collection - CD1\02.Tears For Fears - Shout.wav

Peak level 100.0 %
Extraction speed 21.3 X
Track quality 100.0 %
Copy CRC 9A9B72D7
Track not present in AccurateRip database
Copy OK

Track 3

Filename A:\PsPBuRnOuT's MUSIC\DRIVE\Car Hits The Ultimate Collection\Car Hits The Ultimate Collection - CD1\03.Kool & The Gang - Get Down On It.wav

Peak level 91.3 %
Extraction speed 23.1 X
Track quality 100.0 %
Copy CRC 137A2DFD
Track not present in AccurateRip database
Copy OK

Track 4

Filename A:\PsPBuRnOuT's MUSIC\DRIVE\Car Hits The Ultimate Collection\Car Hits The Ultimate Collection - CD1\04.Madness - It Must Be Love.wav

Peak level 99.8 %
Extraction speed 24.5 X
Track quality 100.0 %
Copy CRC BDA30AF8
Track not present in AccurateRip database
Copy OK

Track 5

Filename A:\PsPBuRnOuT's MUSIC\DRIVE\Car Hits The Ultimate Collection\Car Hits The Ultimate Collection - CD1\05.Wet Wet Wet - With A Little Help From My Friends.wav

Peak level 100.0 %
Extraction speed 25.9 X
Track quality 100.0 %
Copy CRC A3ED7EA3
Track not present in AccurateRip database
Copy OK

Track 6

Filename A:\PsPBuRnOuT's MUSIC\DRIVE\Car Hits The Ultimate Collection\Car Hits The Ultimate Collection - CD1\06.Thompson Twins - You Take Me Up.wav

Peak level 100.0 %
Extraction speed 26.8 X
Track quality 100.0 %
Copy CRC 657BC931
Track not present in AccurateRip database
Copy OK

Track 7

Filename A:\PsPBuRnOuT's MUSIC\DRIVE\Car Hits The Ultimate Collection\Car Hits The Ultimate Collection - CD1\07.ABC - The Look Of Love (Part 1).wav

Peak level 83.4 %
Extraction speed 28.3 X
Track quality 100.0 %
Copy CRC 4A0FEC73
Track not present in AccurateRip database
Copy OK

Track 8

Filename A:\PsPBuRnOuT's MUSIC\DRIVE\Car Hits The Ultimate Collection\Car Hits The Ultimate Collection - CD1\08.Soft Cell - Say Hello, Wave Goodbye.wav

Peak level 84.1 %
Extraction speed 25.7 X
Track quality 99.9 %
Copy CRC 3E3ABF01
Track not present in AccurateRip database
Copy OK

Track 9

Filename A:\PsPBuRnOuT's MUSIC\DRIVE\Car Hits The Ultimate Collection\Car Hits The Ultimate Collection - CD1\09.The Human League - Open Your Heart.wav

Peak level 99.4 %
Extraction speed 23.0 X
Track quality 100.0 %
Copy CRC 177D1CE4
Track not present in AccurateRip database
Copy OK

Track 10

Filename A:\PsPBuRnOuT's MUSIC\DRIVE\Car Hits The Ultimate Collection\Car Hits The Ultimate Collection - CD1\10.Dexys Midnight Runners - Jackie Wilson Said (I'm In Heaven When You Smile).wav

Peak level 100.0 %
Extraction speed 25.2 X
Track quality 99.8 %
Copy CRC 7EF88282
Track not present in AccurateRip database
Copy OK

Track 11

Filename A:\PsPBuRnOuT's MUSIC\DRIVE\Car Hits The Ultimate Collection\Car Hits The Ultimate Collection - CD1\11.Shalamar - I Can Make You Feel Good.wav

Peak level 100.0 %
Extraction speed 25.5 X
Track quality 100.0 %
Copy CRC 8E3ACCD1
Track not present in AccurateRip database
Copy OK

Track 12

Filename A:\PsPBuRnOuT's MUSIC\DRIVE\Car Hits The Ultimate Collection\Car Hits The Ultimate Collection - CD1\12.Kelly Marie - Feels Like I'm In Love.wav

Peak level 78.5 %
Extraction speed 26.9 X
Track quality 99.8 %
Copy CRC C9D5BB53
Track not present in AccurateRip database
Copy OK

Track 13

Filename A:\PsPBuRnOuT's MUSIC\DRIVE\Car Hits The Ultimate Collection\Car Hits The Ultimate Collection - CD1\13.Junior - Mama Used To Say.wav

Peak level 100.0 %
Extraction speed 25.9 X
Track quality 100.0 %
Copy CRC F8F40CB7
Track not present in AccurateRip database
Copy OK

Track 14

Filename A:\PsPBuRnOuT's MUSIC\DRIVE\Car Hits The Ultimate Collection\Car Hits The Ultimate Collection - CD1\14.Samantha Fox - I Only Wanna Be With You.wav

Peak level 100.0 %
Extraction speed 33.6 X
Track quality 100.0 %
Copy CRC B1E0262C
Track not present in AccurateRip database
Copy OK

Track 15

Filename A:\PsPBuRnOuT's MUSIC\DRIVE\Car Hits The Ultimate Collection\Car Hits The Ultimate Collection - CD1\15.A Flock Of Seagulls - I Ran.wav

Peak level 88.1 %
Extraction speed 29.1 X
Track quality 99.9 %
Copy CRC DC138ED2
Track not present in AccurateRip database
Copy OK

Track 16

Filename A:\PsPBuRnOuT's MUSIC\DRIVE\Car Hits The Ultimate Collection\Car Hits The Ultimate Collection - CD1\16.The Housemartins - Happy Hour.wav

Peak level 79.4 %
Extraction speed 24.2 X
Track quality 100.0 %
Copy CRC 69C9E975
Track not present in AccurateRip database
Copy OK

Track 17

Filename A:\PsPBuRnOuT's MUSIC\DRIVE\Car Hits The Ultimate Collection\Car Hits The Ultimate Collection - CD1\17.Was Not Was - Walk The Dinosaur.wav

Peak level 99.7 %
Extraction speed 36.4 X
Track quality 100.0 %
Copy CRC F74F396D
Track not present in AccurateRip database
Copy OK

Track 18

Filename A:\PsPBuRnOuT's MUSIC\DRIVE\Car Hits The Ultimate Collection\Car Hits The Ultimate Collection - CD1\18.Level 42 - Running In The Family.wav

Peak level 100.0 %
Extraction speed 38.2 X
Track quality 100.0 %
Copy CRC 3F9B5A77
Track not present in AccurateRip database
Copy OK

Track 19

Filename A:\PsPBuRnOuT's MUSIC\DRIVE\Car Hits The Ultimate Collection\Car Hits The Ultimate Collection - CD1\19.Kylie Minogue - The Loco-Motion.wav

Peak level 84.1 %
Extraction speed 37.0 X
Track quality 100.0 %
Copy CRC 1730674B
Track not present in AccurateRip database
Copy OK

Track 20

Filename A:\PsPBuRnOuT's MUSIC\DRIVE\Car Hits The Ultimate Collection\Car Hits The Ultimate Collection - CD1\20.Rick Astley - When I Fall In Love.wav

Peak level 89.1 %
Extraction speed 38.2 X
Track quality 100.0 %
Copy CRC F0EF7662
Track not present in AccurateRip database
Copy OK


None of the tracks are present in the AccurateRip database

No errors occurred

End of status report

–– CUETools DB Plugin V2.1.6

[CTDB TOCID: OEbMRp_9r5Y9XiwcMb.69_jRa2M-] disk not present in database
Submit result: OEbMRp_9r5Y9XiwcMb.69_jRa2M- has been uploaded

Exact Audio Copy V1.3 from 2. September 2016

EAC extraction logfile from 9. March 2019, 12:41

Various / Car Hits The Ultimate Collection - CD2

Used drive : ATAPI iHAS124 Y Adapter: 1 ID: 0

Read mode : Secure
Utilize accurate stream : Yes
Defeat audio cache : No
Make use of C2 pointers : Yes

Read offset correction : 48
Overread into Lead-In and Lead-Out : No
Fill up missing offset samples with silence : Yes
Delete leading and trailing silent blocks : No
Null samples used in CRC calculations : Yes
Used interface : Native Win32 interface for Win NT & 2000
Gap handling : Not detected, thus appended to previous track

Used output format : User Defined Encoder
Selected bitrate : 896 kBit/s
Quality : High
Add ID3 tag : No
Command line compressor : C:\Program Files (x86)\Exact Audio Copy\FLAC\FLAC.EXE
Additional command line options : -6 -V -T "ARTIST=%artist%" -T "TITLE=%title%" -T "ALBUM=%albumtitle%" -T "DATE=%year%" -T "TRACKNUMBER=%tracknr%" -T "GENRE=%genre%" -T "COMMENT=%comment%" -T "BAND=%albuminterpret%" -T "ALBUMARTIST=%albuminterpret%" -T "COMPOSER=%composer%" %haslyrics%–tag-from-file=LYRICS="%lyricsfile%"%haslyrics% -T "DISCNUMBER=%cdnumber%" -T "TOTALDISCS=%totalcds%" -T "TOTALTRACKS=%numtracks%" %hascover%–picture="%coverfile%"%hascover% %source% -o %dest%


TOC of the extracted CD

Track | Start | Length | Start sector | End sector
––––––––––––––––––––––––––––-
1 | 0:00.00 | 4:01.50 | 0 | 18124
2 | 4:01.50 | 3:11.40 | 18125 | 32489
3 | 7:13.15 | 3:34.07 | 32490 | 48546
4 | 10:47.22 | 3:21.60 | 48547 | 63681
5 | 14:09.07 | 3:53.64 | 63682 | 81220
6 | 18:02.71 | 3:14.73 | 81221 | 95843
7 | 21:17.69 | 3:32.00 | 95844 | 111743
8 | 24:49.69 | 3:55.63 | 111744 | 129431
9 | 28:45.57 | 3:11.58 | 129432 | 143814
10 | 31:57.40 | 4:09.10 | 143815 | 162499
11 | 36:06.50 | 3:29.28 | 162500 | 178202
12 | 39:36.03 | 3:23.16 | 178203 | 193443
13 | 42:59.19 | 3:36.38 | 193444 | 209681
14 | 46:35.57 | 3:58.40 | 209682 | 227571
15 | 50:34.22 | 3:38.15 | 227572 | 243936
16 | 54:12.37 | 3:40.73 | 243937 | 260509
17 | 57:53.35 | 4:22.37 | 260510 | 280196
18 | 62:15.72 | 3:09.55 | 280197 | 294426
19 | 65:25.52 | 4:11.53 | 294427 | 313304
20 | 69:37.30 | 4:21.68 | 313305 | 332947


Track 1

Filename A:\PsPBuRnOuT's MUSIC\DRIVE\Car Hits The Ultimate Collection\Car Hits The Ultimate Collection - CD2\01.Hozier - Take Me To The Church.wav

Peak level 82.7 %
Extraction speed 15.4 X
Track quality 100.0 %
Copy CRC 769F4C27
Track not present in AccurateRip database
Copy OK

Track 2

Filename A:\PsPBuRnOuT's MUSIC\DRIVE\Car Hits The Ultimate Collection\Car Hits The Ultimate Collection - CD2\02.Avicii - Hey Brother.wav

Peak level 89.0 %
Extraction speed 17.7 X
Track quality 99.8 %
Copy CRC 0E04B838
Track not present in AccurateRip database
Copy OK

Track 3

Filename A:\PsPBuRnOuT's MUSIC\DRIVE\Car Hits The Ultimate Collection\Car Hits The Ultimate Collection - CD2\03.John Newman - Love Me Again.wav

Peak level 79.4 %
Extraction speed 17.0 X
Track quality 100.0 %
Copy CRC 2A77FF85
Track not present in AccurateRip database
Copy OK

Track 4

Filename A:\PsPBuRnOuT's MUSIC\DRIVE\Car Hits The Ultimate Collection\Car Hits The Ultimate Collection - CD2\04.Maroon 5 Feat. Christina Aguilera - Moves Like Jagger.wav

Peak level 84.1 %
Extraction speed 24.2 X
Track quality 100.0 %
Copy CRC 9F5AD76B
Track not present in AccurateRip database
Copy OK

Track 5

Filename A:\PsPBuRnOuT's MUSIC\DRIVE\Car Hits The Ultimate Collection\Car Hits The Ultimate Collection - CD2\05.Katy Perry Feat. Snoop Dogg - California Girls.wav

Peak level 84.1 %
Extraction speed 24.4 X
Track quality 100.0 %
Copy CRC C27A0295
Track not present in AccurateRip database
Copy OK

Track 6

Filename A:\PsPBuRnOuT's MUSIC\DRIVE\Car Hits The Ultimate Collection\Car Hits The Ultimate Collection - CD2\06.Emeli Sande - Next To Me.wav

Peak level 89.1 %
Extraction speed 25.3 X
Track quality 100.0 %
Copy CRC 01431B6E
Track not present in AccurateRip database
Copy OK

Track 7

Filename A:\PsPBuRnOuT's MUSIC\DRIVE\Car Hits The Ultimate Collection\Car Hits The Ultimate Collection - CD2\07.The Weeknd - Can't Feel My Face.wav

Peak level 89.1 %
Extraction speed 27.6 X
Track quality 100.0 %
Copy CRC 3D6F1CD5
Track not present in AccurateRip database
Copy OK

Track 8

Filename A:\PsPBuRnOuT's MUSIC\DRIVE\Car Hits The Ultimate Collection\Car Hits The Ultimate Collection - CD2\08.Ellie Goulding - Love Me Like You Do.wav

Peak level 84.1 %
Extraction speed 29.3 X
Track quality 100.0 %
Copy CRC B37FCA47
Track not present in AccurateRip database
Copy OK

Track 9

Filename A:\PsPBuRnOuT's MUSIC\DRIVE\Car Hits The Ultimate Collection\Car Hits The Ultimate Collection - CD2\09.Amy Winehouse - Back To Black.wav

Peak level 76.6 %
Extraction speed 27.7 X
Track quality 100.0 %
Copy CRC 858EF5A8
Track not present in AccurateRip database
Copy OK

Track 10

Filename A:\PsPBuRnOuT's MUSIC\DRIVE\Car Hits The Ultimate Collection\Car Hits The Ultimate Collection - CD2\10.Razorlight - America.wav

Peak level 84.1 %
Extraction speed 20.3 X
Track quality 99.9 %
Copy CRC E4BB088A
Track not present in AccurateRip database
Copy OK

Track 11

Filename A:\PsPBuRnOuT's MUSIC\DRIVE\Car Hits The Ultimate Collection\Car Hits The Ultimate Collection - CD2\11.The Dandy Warhols - Bohemian Like You.wav

Peak level 94.4 %
Extraction speed 21.2 X
Track quality 99.8 %
Copy CRC F9CCA695
Track not present in AccurateRip database
Copy OK

Track 12

Filename A:\PsPBuRnOuT's MUSIC\DRIVE\Car Hits The Ultimate Collection\Car Hits The Ultimate Collection - CD2\12.Stereophonics - Have A Nice Day.wav

Peak level 79.4 %
Extraction speed 24.8 X
Track quality 100.0 %
Copy CRC DBD61664
Track not present in AccurateRip database
Copy OK

Track 13

Filename A:\PsPBuRnOuT's MUSIC\DRIVE\Car Hits The Ultimate Collection\Car Hits The Ultimate Collection - CD2\13.Gabrielle - Rise.wav

Peak level 84.5 %
Extraction speed 34.6 X
Track quality 100.0 %
Copy CRC 9361C7B9
Track not present in AccurateRip database
Copy OK

Track 14

Filename A:\PsPBuRnOuT's MUSIC\DRIVE\Car Hits The Ultimate Collection\Car Hits The Ultimate Collection - CD2\14.Des'ree - You Gotta Be.wav

Peak level 86.7 %
Extraction speed 34.1 X
Track quality 100.0 %
Copy CRC 0E50D2B4
Track not present in AccurateRip database
Copy OK

Track 15

Filename A:\PsPBuRnOuT's MUSIC\DRIVE\Car Hits The Ultimate Collection\Car Hits The Ultimate Collection - CD2\15.Boyzone - Love Me For A Reason.wav

Peak level 94.4 %
Extraction speed 34.8 X
Track quality 100.0 %
Copy CRC 6D218CC4
Track not present in AccurateRip database
Copy OK

Track 16

Filename A:\PsPBuRnOuT's MUSIC\DRIVE\Car Hits The Ultimate Collection\Car Hits The Ultimate Collection - CD2\16.Lenny Kravitz - Fly Away.wav

Peak level 92.8 %
Extraction speed 37.7 X
Track quality 100.0 %
Copy CRC F63B2C0A
Track not present in AccurateRip database
Copy OK

Track 17

Filename A:\PsPBuRnOuT's MUSIC\DRIVE\Car Hits The Ultimate Collection\Car Hits The Ultimate Collection - CD2\17.Shed Seven - Going For Gold.wav

Peak level 94.4 %
Extraction speed 36.2 X
Track quality 100.0 %
Copy CRC 63861553
Track not present in AccurateRip database
Copy OK

Track 18

Filename A:\PsPBuRnOuT's MUSIC\DRIVE\Car Hits The Ultimate Collection\Car Hits The Ultimate Collection - CD2\18.Texas - Black Eyed Boy.wav

Peak level 100.0 %
Extraction speed 39.6 X
Track quality 100.0 %
Copy CRC 9BCF9C6D
Track not present in AccurateRip database
Copy OK

Track 19

Filename A:\PsPBuRnOuT's MUSIC\DRIVE\Car Hits The Ultimate Collection\Car Hits The Ultimate Collection - CD2\19.Ronan Keating - When You Say Nothing At All.wav

Peak level 99.9 %
Extraction speed 38.4 X
Track quality 100.0 %
Copy CRC 1A7A5AA4
Track not present in AccurateRip database
Copy OK

Track 20

Filename A:\PsPBuRnOuT's MUSIC\DRIVE\Car Hits The Ultimate Collection\Car Hits The Ultimate Collection - CD2\20.Robbie Williams - Let Me Entertain You.wav

Peak level 89.1 %
Extraction speed 24.2 X
Track quality 99.9 %
Copy CRC 34C8DDCE
Track not present in AccurateRip database
Copy OK


None of the tracks are present in the AccurateRip database

No errors occurred

End of status report

–– CUETools DB Plugin V2.1.6

[CTDB TOCID: RqecbNhe7VCDMhxZdgAet.Bh2_s-] disk not present in database
Submit result: RqecbNhe7VCDMhxZdgAet.Bh2_s- has been uploaded

Exact Audio Copy V1.3 from 2. September 2016

EAC extraction logfile from 9. March 2019, 13:46

Various / Car Hits The Ultimate Collection - CD3

Used drive : ATAPI iHAS124 Y Adapter: 1 ID: 0

Read mode : Secure
Utilize accurate stream : Yes
Defeat audio cache : No
Make use of C2 pointers : Yes

Read offset correction : 48
Overread into Lead-In and Lead-Out : No
Fill up missing offset samples with silence : Yes
Delete leading and trailing silent blocks : No
Null samples used in CRC calculations : Yes
Used interface : Native Win32 interface for Win NT & 2000
Gap handling : Not detected, thus appended to previous track

Used output format : User Defined Encoder
Selected bitrate : 896 kBit/s
Quality : High
Add ID3 tag : No
Command line compressor : C:\Program Files (x86)\Exact Audio Copy\FLAC\FLAC.EXE
Additional command line options : -6 -V -T "ARTIST=%artist%" -T "TITLE=%title%" -T "ALBUM=%albumtitle%" -T "DATE=%year%" -T "TRACKNUMBER=%tracknr%" -T "GENRE=%genre%" -T "COMMENT=%comment%" -T "BAND=%albuminterpret%" -T "ALBUMARTIST=%albuminterpret%" -T "COMPOSER=%composer%" %haslyrics%–tag-from-file=LYRICS="%lyricsfile%"%haslyrics% -T "DISCNUMBER=%cdnumber%" -T "TOTALDISCS=%totalcds%" -T "TOTALTRACKS=%numtracks%" %hascover%–picture="%coverfile%"%hascover% %source% -o %dest%


TOC of the extracted CD

Track | Start | Length | Start sector | End sector
––––––––––––––––––––––––––––-
1 | 0:00.00 | 3:17.71 | 0 | 14845
2 | 3:17.71 | 3:59.36 | 14846 | 32806
3 | 7:17.32 | 3:22.43 | 32807 | 47999
4 | 10:40.00 | 4:45.41 | 48000 | 69415
5 | 15:25.41 | 3:12.07 | 69416 | 83822
6 | 18:37.48 | 2:54.62 | 83823 | 96934
7 | 21:32.35 | 3:40.05 | 96935 | 113439
8 | 25:12.40 | 2:30.14 | 113440 | 124703
9 | 27:42.54 | 3:10.34 | 124704 | 138987
10 | 30:53.13 | 4:07.04 | 138988 | 157516
11 | 35:00.17 | 3:46.02 | 157517 | 174468
12 | 38:46.19 | 3:32.36 | 174469 | 190404
13 | 42:18.55 | 4:02.34 | 190405 | 208588
14 | 46:21.14 | 4:43.01 | 208589 | 229814
15 | 51:04.15 | 3:11.34 | 229815 | 244173
16 | 54:15.49 | 3:48.15 | 244174 | 261288
17 | 58:03.64 | 3:44.32 | 261289 | 278120
18 | 61:48.21 | 2:54.30 | 278121 | 291200
19 | 64:42.51 | 2:32.56 | 291201 | 302656
20 | 67:15.32 | 3:03.42 | 302657 | 316423


Track 1

Filename A:\PsPBuRnOuT's MUSIC\DRIVE\Car Hits The Ultimate Collection\Car Hits The Ultimate Collection - CD3\01.Madness - Driving In My Car.wav

Peak level 95.3 %
Extraction speed 9.4 X
Track quality 100.0 %
Copy CRC BD689F75
Track not present in AccurateRip database
Copy OK

Track 2

Filename A:\PsPBuRnOuT's MUSIC\DRIVE\Car Hits The Ultimate Collection\Car Hits The Ultimate Collection - CD3\02.Jane Wiedlin - Rush Hour.wav

Peak level 100.0 %
Extraction speed 10.5 X
Track quality 100.0 %
Copy CRC 6F36C581
Track not present in AccurateRip database
Copy OK

Track 3

Filename A:\PsPBuRnOuT's MUSIC\DRIVE\Car Hits The Ultimate Collection\Car Hits The Ultimate Collection - CD3\03.Frankie Goes To Hollywood - Two Tribes.wav

Peak level 93.2 %
Extraction speed 11.2 X
Track quality 100.0 %
Copy CRC C05CFE4D
Track not present in AccurateRip database
Copy OK

Track 4

Filename A:\PsPBuRnOuT's MUSIC\DRIVE\Car Hits The Ultimate Collection\Car Hits The Ultimate Collection - CD3\04.Simple Minds - Alive & Kicking.wav

Peak level 100.0 %
Extraction speed 12.1 X
Track quality 99.9 %
Copy CRC B7CA6BCC
Track not present in AccurateRip database
Copy OK

Track 5

Filename A:\PsPBuRnOuT's MUSIC\DRIVE\Car Hits The Ultimate Collection\Car Hits The Ultimate Collection - CD3\05.The Wonder Stuff - The Size Of A Cow.wav

Peak level 89.0 %
Extraction speed 12.7 X
Track quality 100.0 %
Copy CRC 5AFF37F4
Track not present in AccurateRip database
Copy OK

Track 6

Filename A:\PsPBuRnOuT's MUSIC\DRIVE\Car Hits The Ultimate Collection\Car Hits The Ultimate Collection - CD3\06.Tenpole Tudor - Swords Of A Thousand Men.wav

Peak level 100.0 %
Extraction speed 13.5 X
Track quality 100.0 %
Copy CRC A1550BEB
Track not present in AccurateRip database
Copy OK

Track 7

Filename A:\PsPBuRnOuT's MUSIC\DRIVE\Car Hits The Ultimate Collection\Car Hits The Ultimate Collection - CD3\07.Kiss - Crazy Crazy Nights.wav

Peak level 100.0 %
Extraction speed 14.0 X
Track quality 100.0 %
Copy CRC C12944EF
Track not present in AccurateRip database
Copy OK

Track 8

Filename A:\PsPBuRnOuT's MUSIC\DRIVE\Car Hits The Ultimate Collection\Car Hits The Ultimate Collection - CD3\08.The Stranglers - All Day And All Of The Night.wav

Peak level 100.0 %
Extraction speed 15.4 X
Track quality 100.0 %
Copy CRC 8CEA6A24
Track not present in AccurateRip database
Copy OK

Track 9

Filename A:\PsPBuRnOuT's MUSIC\DRIVE\Car Hits The Ultimate Collection\Car Hits The Ultimate Collection - CD3\09.Inspiral Carpets - This Is How It Feels.wav

Peak level 94.4 %
Extraction speed 14.9 X
Track quality 100.0 %
Copy CRC 768B3F29
Track not present in AccurateRip database
Copy OK

Track 10

Filename A:\PsPBuRnOuT's MUSIC\DRIVE\Car Hits The Ultimate Collection\Car Hits The Ultimate Collection - CD3\10.Ce Ce Peniston - Finally.wav

Peak level 100.0 %
Extraction speed 16.2 X
Track quality 100.0 %
Copy CRC 912B87B3
Track not present in AccurateRip database
Copy OK

Track 11

Filename A:\PsPBuRnOuT's MUSIC\DRIVE\Car Hits The Ultimate Collection\Car Hits The Ultimate Collection - CD3\11.Snap! - The Power.wav

Peak level 100.0 %
Extraction speed 16.7 X
Track quality 100.0 %
Copy CRC 62B32E9D
Track not present in AccurateRip database
Copy OK

Track 12

Filename A:\PsPBuRnOuT's MUSIC\DRIVE\Car Hits The Ultimate Collection\Car Hits The Ultimate Collection - CD3\12.Mel & Kim - Showing Out (Get Fresh At The Weekend).wav

Peak level 100.0 %
Extraction speed 16.6 X
Track quality 100.0 %
Copy CRC 08FDCEFF
Track not present in AccurateRip database
Copy OK

Track 13

Filename A:\PsPBuRnOuT's MUSIC\DRIVE\Car Hits The Ultimate Collection\Car Hits The Ultimate Collection - CD3\13.The Blow Monkeys - Digging Your Scene.wav

Peak level 100.0 %
Extraction speed 17.1 X
Track quality 100.0 %
Copy CRC 8855A9C3
Track not present in AccurateRip database
Copy OK

Track 14

Filename A:\PsPBuRnOuT's MUSIC\DRIVE\Car Hits The Ultimate Collection\Car Hits The Ultimate Collection - CD3\14.Thompson Twins - Hold Me Now.wav

Peak level 100.0 %
Extraction speed 18.3 X
Track quality 100.0 %
Copy CRC D7F78BCA
Track not present in AccurateRip database
Copy OK

Track 15

Filename A:\PsPBuRnOuT's MUSIC\DRIVE\Car Hits The Ultimate Collection\Car Hits The Ultimate Collection - CD3\15.Shakin' Stevens - Green Door.wav

Peak level 93.7 %
Extraction speed 18.1 X
Track quality 100.0 %
Copy CRC D36844F8
Track not present in AccurateRip database
Copy OK

Track 16

Filename A:\PsPBuRnOuT's MUSIC\DRIVE\Car Hits The Ultimate Collection\Car Hits The Ultimate Collection - CD3\16.Bucks Fizz - Land Of Make Believe.wav

Peak level 100.0 %
Extraction speed 19.6 X
Track quality 100.0 %
Copy CRC 03C672FC
Track not present in AccurateRip database
Copy OK

Track 17

Filename A:\PsPBuRnOuT's MUSIC\DRIVE\Car Hits The Ultimate Collection\Car Hits The Ultimate Collection - CD3\17.The Whispers - It's A Love Thing.wav

Peak level 100.0 %
Extraction speed 20.1 X
Track quality 100.0 %
Copy CRC 7A4BE933
Track not present in AccurateRip database
Copy OK

Track 18

Filename A:\PsPBuRnOuT's MUSIC\DRIVE\Car Hits The Ultimate Collection\Car Hits The Ultimate Collection - CD3\18.Tracey Ullman - My Guy.wav

Peak level 97.9 %
Extraction speed 20.7 X
Track quality 100.0 %
Copy CRC 1135BECE
Track not present in AccurateRip database
Copy OK

Track 19

Filename A:\PsPBuRnOuT's MUSIC\DRIVE\Car Hits The Ultimate Collection\Car Hits The Ultimate Collection - CD3\19.Jason Donovan - Sealed With A Kiss.wav

Peak level 100.0 %
Extraction speed 21.1 X
Track quality 100.0 %
Copy CRC 053F6896
Track not present in AccurateRip database
Copy OK

Track 20

Filename A:\PsPBuRnOuT's MUSIC\DRIVE\Car Hits The Ultimate Collection\Car Hits The Ultimate Collection - CD3\20.Alison Moyet - That Ole Devil Called Love.wav

Peak level 82.1 %
Extraction speed 20.0 X
Track quality 99.8 %
Copy CRC 7E7195E7
Track not present in AccurateRip database
Copy OK


None of the tracks are present in the AccurateRip database

No errors occurred

End of status report

–– CUETools DB Plugin V2.1.6

[CTDB TOCID: qIj5mt33TsZol.9pfH7ummS99gE-] disk not present in database
Submit result: qIj5mt33TsZol.9pfH7ummS99gE- has been uploaded

Exact Audio Copy V1.3 from 2. September 2016

EAC extraction logfile from 9. March 2019, 20:25

Various / Car Hits The Ultimate Collection - CD4

Used drive : ATAPI iHAS124 Y Adapter: 1 ID: 0

Read mode : Secure
Utilize accurate stream : Yes
Defeat audio cache : No
Make use of C2 pointers : Yes

Read offset correction : 48
Overread into Lead-In and Lead-Out : No
Fill up missing offset samples with silence : Yes
Delete leading and trailing silent blocks : No
Null samples used in CRC calculations : Yes
Used interface : Native Win32 interface for Win NT & 2000
Gap handling : Not detected, thus appended to previous track

Used output format : User Defined Encoder
Selected bitrate : 896 kBit/s
Quality : High
Add ID3 tag : No
Command line compressor : C:\Program Files (x86)\Exact Audio Copy\FLAC\FLAC.EXE
Additional command line options : -6 -V -T "ARTIST=%artist%" -T "TITLE=%title%" -T "ALBUM=%albumtitle%" -T "DATE=%year%" -T "TRACKNUMBER=%tracknr%" -T "GENRE=%genre%" -T "COMMENT=%comment%" -T "BAND=%albuminterpret%" -T "ALBUMARTIST=%albuminterpret%" -T "COMPOSER=%composer%" %haslyrics%–tag-from-file=LYRICS="%lyricsfile%"%haslyrics% -T "DISCNUMBER=%cdnumber%" -T "TOTALDISCS=%totalcds%" -T "TOTALTRACKS=%numtracks%" %hascover%–picture="%coverfile%"%hascover% %source% -o %dest%


TOC of the extracted CD

Track | Start | Length | Start sector | End sector
––––––––––––––––––––––––––––-
1 | 0:00.00 | 3:31.27 | 0 | 15851
2 | 3:31.27 | 3:34.58 | 15852 | 31959
3 | 7:06.10 | 2:57.56 | 31960 | 45290
4 | 10:03.66 | 3:50.01 | 45291 | 62541
5 | 13:53.67 | 3:51.59 | 62542 | 79925
6 | 17:45.51 | 3:55.21 | 79926 | 97571
7 | 21:40.72 | 3:05.32 | 97572 | 111478
8 | 24:46.29 | 3:31.61 | 111479 | 127364
9 | 28:18.15 | 3:08.00 | 127365 | 141464
10 | 31:26.15 | 3:34.56 | 141465 | 157570
11 | 35:00.71 | 3:23.20 | 157571 | 172815
12 | 38:24.16 | 4:00.46 | 172816 | 190861
13 | 42:24.62 | 4:01.22 | 190862 | 208958
14 | 46:26.09 | 4:16.13 | 208959 | 228171
15 | 50:42.22 | 4:46.44 | 228172 | 249665
16 | 55:28.66 | 3:28.29 | 249666 | 265294
17 | 58:57.20 | 4:07.39 | 265295 | 283858
18 | 63:04.59 | 4:06.10 | 283859 | 302318
19 | 67:10.69 | 3:25.16 | 302319 | 317709
20 | 70:36.10 | 3:20.38 | 317710 | 332747


Track 1

Filename A:\PsPBuRnOuT's MUSIC\SORTED BY YEAR\1970s\70s - The Ultimate Collection\70s - The Ultimate Collection - CD4\01.Abba - Mamma Mia.wav

Peak level 79.4 %
Extraction speed 14.8 X
Track quality 100.0 %
Copy CRC B9188CAC
Track not present in AccurateRip database
Copy OK

Track 2

Filename A:\PsPBuRnOuT's MUSIC\SORTED BY YEAR\1970s\70s - The Ultimate Collection\70s - The Ultimate Collection - CD4\02.Thelma Houston - Don't Leave Me This Way.wav

Peak level 100.0 %
Extraction speed 17.9 X
Track quality 99.9 %
Copy CRC B57AFDEC
Track not present in AccurateRip database
Copy OK

Track 3

Filename A:\PsPBuRnOuT's MUSIC\SORTED BY YEAR\1970s\70s - The Ultimate Collection\70s - The Ultimate Collection - CD4\03.Gloria Gaynor - Never Can Say Goodbye.wav

Peak level 89.1 %
Extraction speed 16.1 X
Track quality 100.0 %
Copy CRC BE6F0938
Track not present in AccurateRip database
Copy OK

Track 4

Filename A:\PsPBuRnOuT's MUSIC\SORTED BY YEAR\1970s\70s - The Ultimate Collection\70s - The Ultimate Collection - CD4\04.Sylvester - You Make Me Feel (Mighty Real).wav

Peak level 93.1 %
Extraction speed 22.9 X
Track quality 100.0 %
Copy CRC EC13FAF1
Track not present in AccurateRip database
Copy OK

Track 5

Filename A:\PsPBuRnOuT's MUSIC\SORTED BY YEAR\1970s\70s - The Ultimate Collection\70s - The Ultimate Collection - CD4\05.Amii Stewart - Light My Fire.wav

Peak level 100.0 %
Extraction speed 25.5 X
Track quality 100.0 %
Copy CRC A3ECCE5F
Track not present in AccurateRip database
Copy OK

Track 6

Filename A:\PsPBuRnOuT's MUSIC\SORTED BY YEAR\1970s\70s - The Ultimate Collection\70s - The Ultimate Collection - CD4\06.Sugar Hill Gang - Rapper's Delight.wav

Peak level 100.0 %
Extraction speed 26.4 X
Track quality 100.0 %
Copy CRC DAB81D9C
Track not present in AccurateRip database
Copy OK

Track 7

Filename A:\PsPBuRnOuT's MUSIC\SORTED BY YEAR\1970s\70s - The Ultimate Collection\70s - The Ultimate Collection - CD4\07.The Beat - Mirror In The Bathroom.wav

Peak level 100.0 %
Extraction speed 22.4 X
Track quality 99.8 %
Copy CRC 05AD662F
Track not present in AccurateRip database
Copy OK

Track 8

Filename A:\PsPBuRnOuT's MUSIC\SORTED BY YEAR\1970s\70s - The Ultimate Collection\70s - The Ultimate Collection - CD4\08.Blondie - One Way Or Another.wav

Peak level 99.5 %
Extraction speed 22.5 X
Track quality 100.0 %
Copy CRC AF4B404D
Track not present in AccurateRip database
Copy OK

Track 9

Filename A:\PsPBuRnOuT's MUSIC\SORTED BY YEAR\1970s\70s - The Ultimate Collection\70s - The Ultimate Collection - CD4\09.Squeeze - Up The Junction.wav

Peak level 100.0 %
Extraction speed 24.2 X
Track quality 99.8 %
Copy CRC 13084FF0
Track not present in AccurateRip database
Copy OK

Track 10

Filename A:\PsPBuRnOuT's MUSIC\SORTED BY YEAR\1970s\70s - The Ultimate Collection\70s - The Ultimate Collection - CD4\10.Martha & The Muffins - Echo Beach.wav

Peak level 100.0 %
Extraction speed 23.8 X
Track quality 100.0 %
Copy CRC D5496805
Track not present in AccurateRip database
Copy OK

Track 11

Filename A:\PsPBuRnOuT's MUSIC\SORTED BY YEAR\1970s\70s - The Ultimate Collection\70s - The Ultimate Collection - CD4\11.Sham 69 - Hersham Boys.wav

Peak level 100.0 %
Extraction speed 30.5 X
Track quality 100.0 %
Copy CRC 87DC51FB
Track not present in AccurateRip database
Copy OK

Track 12

Filename A:\PsPBuRnOuT's MUSIC\SORTED BY YEAR\1970s\70s - The Ultimate Collection\70s - The Ultimate Collection - CD4\12.Status Quo - Whatever You Want.wav

Peak level 89.1 %
Extraction speed 27.1 X
Track quality 99.9 %
Copy CRC 392E84A2
Track not present in AccurateRip database
Copy OK

Track 13

Filename A:\PsPBuRnOuT's MUSIC\SORTED BY YEAR\1970s\70s - The Ultimate Collection\70s - The Ultimate Collection - CD4\13.Sweet - The Ballroom Blitz.wav

Peak level 85.6 %
Extraction speed 27.5 X
Track quality 100.0 %
Copy CRC E4890E86
Track not present in AccurateRip database
Copy OK

Track 14

Filename A:\PsPBuRnOuT's MUSIC\SORTED BY YEAR\1970s\70s - The Ultimate Collection\70s - The Ultimate Collection - CD4\14.Jason Donovan & The Rocky Horror Show Cast - The Time Warp (Live).wav

Peak level 88.8 %
Extraction speed 29.0 X
Track quality 99.9 %
Copy CRC 0C5D35A7
Track not present in AccurateRip database
Copy OK

Track 15

Filename A:\PsPBuRnOuT's MUSIC\SORTED BY YEAR\1970s\70s - The Ultimate Collection\70s - The Ultimate Collection - CD4\15.10cc - Rubber Bullets.wav

Peak level 100.0 %
Extraction speed 29.7 X
Track quality 100.0 %
Copy CRC 3BF7B42D
Track not present in AccurateRip database
Copy OK

Track 16

Filename A:\PsPBuRnOuT's MUSIC\SORTED BY YEAR\1970s\70s - The Ultimate Collection\70s - The Ultimate Collection - CD4\16.Bonnie Tyler - It's A Heartache.wav

Peak level 83.5 %
Extraction speed 29.3 X
Track quality 99.8 %
Copy CRC 1A4C0BB8
Track not present in AccurateRip database
Copy OK

Track 17

Filename A:\PsPBuRnOuT's MUSIC\SORTED BY YEAR\1970s\70s - The Ultimate Collection\70s - The Ultimate Collection - CD4\17.David Parton - Isn't She Lovely.wav

Peak level 97.2 %
Extraction speed 28.9 X
Track quality 100.0 %
Copy CRC B9C0EC65
Track not present in AccurateRip database
Copy OK

Track 18

Filename A:\PsPBuRnOuT's MUSIC\SORTED BY YEAR\1970s\70s - The Ultimate Collection\70s - The Ultimate Collection - CD4\18.The Real Thing - Can You Feel The Force.wav

Peak level 91.2 %
Extraction speed 38.8 X
Track quality 100.0 %
Copy CRC 11C10402
Track not present in AccurateRip database
Copy OK

Track 19

Filename A:\PsPBuRnOuT's MUSIC\SORTED BY YEAR\1970s\70s - The Ultimate Collection\70s - The Ultimate Collection - CD4\19.The Whispers - And The Beat Goes On.wav

Peak level 100.0 %
Extraction speed 31.2 X
Track quality 99.8 %
Copy CRC 83610763
Track not present in AccurateRip database
Copy OK

Track 20

Filename A:\PsPBuRnOuT's MUSIC\SORTED BY YEAR\1970s\70s - The Ultimate Collection\70s - The Ultimate Collection - CD4\20.Positive Force - We Got He Funk.wav

Peak level 100.0 %
Extraction speed 29.6 X
Track quality 100.0 %
Copy CRC FA6AD622
Track not present in AccurateRip database
Copy OK


None of the tracks are present in the AccurateRip database

No errors occurred

End of status report

–– CUETools DB Plugin V2.1.6

[CTDB TOCID: IStWTKu6KhEsqe6_kdmgiFxUVyc-] disk not present in database
Submit result: IStWTKu6KhEsqe6_kdmgiFxUVyc- has been uploaded

Exact Audio Copy V1.3 from 2. September 2016

EAC extraction logfile from 9. March 2019, 21:09

Various / Car Hits The Ultimate Collection - CD5

Used drive : ATAPI iHAS124 Y Adapter: 1 ID: 0

Read mode : Secure
Utilize accurate stream : Yes
Defeat audio cache : No
Make use of C2 pointers : Yes

Read offset correction : 48
Overread into Lead-In and Lead-Out : No
Fill up missing offset samples with silence : Yes
Delete leading and trailing silent blocks : No
Null samples used in CRC calculations : Yes
Used interface : Native Win32 interface for Win NT & 2000
Gap handling : Not detected, thus appended to previous track

Used output format : User Defined Encoder
Selected bitrate : 896 kBit/s
Quality : High
Add ID3 tag : No
Command line compressor : C:\Program Files (x86)\Exact Audio Copy\FLAC\FLAC.EXE
Additional command line options : -6 -V -T "ARTIST=%artist%" -T "TITLE=%title%" -T "ALBUM=%albumtitle%" -T "DATE=%year%" -T "TRACKNUMBER=%tracknr%" -T "GENRE=%genre%" -T "COMMENT=%comment%" -T "BAND=%albuminterpret%" -T "ALBUMARTIST=%albuminterpret%" -T "COMPOSER=%composer%" %haslyrics%–tag-from-file=LYRICS="%lyricsfile%"%haslyrics% -T "DISCNUMBER=%cdnumber%" -T "TOTALDISCS=%totalcds%" -T "TOTALTRACKS=%numtracks%" %hascover%–picture="%coverfile%"%hascover% %source% -o %dest%


TOC of the extracted CD

Track | Start | Length | Start sector | End sector
––––––––––––––––––––––––––––-
1 | 0:00.00 | 2:39.40 | 0 | 11964
2 | 2:39.40 | 2:38.10 | 11965 | 23824
3 | 5:17.50 | 1:59.00 | 23825 | 32749
4 | 7:16.50 | 2:33.72 | 32750 | 44296
5 | 9:50.47 | 2:25.59 | 44297 | 55230
6 | 12:16.31 | 4:48.70 | 55231 | 76900
7 | 17:05.26 | 2:47.17 | 76901 | 89442
8 | 19:52.43 | 2:26.68 | 89443 | 100460
9 | 22:19.36 | 2:24.38 | 100461 | 111298
10 | 24:43.74 | 3:10.42 | 111299 | 125590
11 | 27:54.41 | 2:21.54 | 125591 | 136219
12 | 30:16.20 | 2:11.42 | 136220 | 146086
13 | 32:27.62 | 3:47.69 | 146087 | 163180
14 | 36:15.56 | 3:06.04 | 163181 | 177134
15 | 39:21.60 | 2:43.69 | 177135 | 189428
16 | 42:05.54 | 3:06.18 | 189429 | 203396
17 | 45:11.72 | 2:41.73 | 203397 | 215544
18 | 47:53.70 | 2:53.26 | 215545 | 228545
19 | 50:47.21 | 3:12.47 | 228546 | 242992
20 | 53:59.68 | 4:06.29 | 242993 | 261471


Track 1

Filename A:\PsPBuRnOuT's MUSIC\DRIVE\Car Hits The Ultimate Collection\Car Hits The Ultimate Collection - CD5\01.Martha & The Vandellas - Dancing In The Street.wav

Peak level 79.4 %
Extraction speed 7.9 X
Track quality 100.0 %
Copy CRC E4CE117B
Track not present in AccurateRip database
Copy OK

Track 2

Filename A:\PsPBuRnOuT's MUSIC\DRIVE\Car Hits The Ultimate Collection\Car Hits The Ultimate Collection - CD5\02.The Mamas & The Papas - California Dreamin'.wav

Peak level 100.0 %
Extraction speed 9.4 X
Track quality 100.0 %
Copy CRC ADA14FFF
Track not present in AccurateRip database
Copy OK

Track 3

Filename A:\PsPBuRnOuT's MUSIC\DRIVE\Car Hits The Ultimate Collection\Car Hits The Ultimate Collection - CD5\03.Tom Jones - It's Not Unusual.wav

Peak level 100.0 %
Extraction speed 10.2 X
Track quality 100.0 %
Copy CRC 48446CD4
Track not present in AccurateRip database
Copy OK

Track 4

Filename A:\PsPBuRnOuT's MUSIC\DRIVE\Car Hits The Ultimate Collection\Car Hits The Ultimate Collection - CD5\04.Desmond Dekker & The Aces - Israelites.wav

Peak level 100.0 %
Extraction speed 10.5 X
Track quality 100.0 %
Copy CRC 9D5B7C11
Track not present in AccurateRip database
Copy OK

Track 5

Filename A:\PsPBuRnOuT's MUSIC\DRIVE\Car Hits The Ultimate Collection\Car Hits The Ultimate Collection - CD5\05.Marvin Gaye & Tammi Terrell - Ain't No Mountain High Enough.wav

Peak level 100.0 %
Extraction speed 11.1 X
Track quality 100.0 %
Copy CRC 6EBA6B25
Track not present in AccurateRip database
Copy OK

Track 6

Filename A:\PsPBuRnOuT's MUSIC\DRIVE\Car Hits The Ultimate Collection\Car Hits The Ultimate Collection - CD5\06.First Class - Beach Baby.wav

Peak level 96.4 %
Extraction speed 11.2 X
Track quality 100.0 %
Copy CRC 39178DA9
Track not present in AccurateRip database
Copy OK

Track 7

Filename A:\PsPBuRnOuT's MUSIC\DRIVE\Car Hits The Ultimate Collection\Car Hits The Ultimate Collection - CD5\07.Mary Wells - My Guy.wav

Peak level 80.1 %
Extraction speed 11.8 X
Track quality 100.0 %
Copy CRC DB7261FB
Track not present in AccurateRip database
Copy OK

Track 8

Filename A:\PsPBuRnOuT's MUSIC\DRIVE\Car Hits The Ultimate Collection\Car Hits The Ultimate Collection - CD5\08.The Searchers - Sweets For My Sweet.wav

Peak level 73.6 %
Extraction speed 12.1 X
Track quality 99.8 %
Copy CRC BD559763
Track not present in AccurateRip database
Copy OK

Track 9

Filename A:\PsPBuRnOuT's MUSIC\DRIVE\Car Hits The Ultimate Collection\Car Hits The Ultimate Collection - CD5\09.The Zombies - She's Not There.wav

Peak level 97.9 %
Extraction speed 13.5 X
Track quality 100.0 %
Copy CRC 698A79DA
Track not present in AccurateRip database
Copy OK

Track 10

Filename A:\PsPBuRnOuT's MUSIC\DRIVE\Car Hits The Ultimate Collection\Car Hits The Ultimate Collection - CD5\10.The Moody Blues - Go Now.wav

Peak level 98.4 %
Extraction speed 13.1 X
Track quality 99.8 %
Copy CRC FE7CC8C4
Track not present in AccurateRip database
Copy OK

Track 11

Filename A:\PsPBuRnOuT's MUSIC\DRIVE\Car Hits The Ultimate Collection\Car Hits The Ultimate Collection - CD5\11.The Overlanders - Michelle.wav

Peak level 81.2 %
Extraction speed 13.6 X
Track quality 100.0 %
Copy CRC 575B7036
Track not present in AccurateRip database
Copy OK

Track 12

Filename A:\PsPBuRnOuT's MUSIC\DRIVE\Car Hits The Ultimate Collection\Car Hits The Ultimate Collection - CD5\12.The Pipkins - Gimme Dat Ding.wav

Peak level 83.2 %
Extraction speed 13.7 X
Track quality 100.0 %
Copy CRC 01907498
Track not present in AccurateRip database
Copy OK

Track 13

Filename A:\PsPBuRnOuT's MUSIC\DRIVE\Car Hits The Ultimate Collection\Car Hits The Ultimate Collection - CD5\13.Blue Mink - Melting Pot.wav

Peak level 84.4 %
Extraction speed 15.0 X
Track quality 100.0 %
Copy CRC 70FC06C8
Track not present in AccurateRip database
Copy OK

Track 14

Filename A:\PsPBuRnOuT's MUSIC\DRIVE\Car Hits The Ultimate Collection\Car Hits The Ultimate Collection - CD5\14.Bob & Marcia - Young Gifted & Black.wav

Peak level 75.2 %
Extraction speed 14.9 X
Track quality 100.0 %
Copy CRC 53572931
Track not present in AccurateRip database
Copy OK

Track 15

Filename A:\PsPBuRnOuT's MUSIC\DRIVE\Car Hits The Ultimate Collection\Car Hits The Ultimate Collection - CD5\15.Bob & Earl - Harlem Shuffle.wav

Peak level 87.1 %
Extraction speed 16.1 X
Track quality 100.0 %
Copy CRC 35A60A58
Track not present in AccurateRip database
Copy OK

Track 16

Filename A:\PsPBuRnOuT's MUSIC\DRIVE\Car Hits The Ultimate Collection\Car Hits The Ultimate Collection - CD5\16.The Pioneers - Let Your Yeah Be Yeah.wav

Peak level 81.7 %
Extraction speed 16.4 X
Track quality 100.0 %
Copy CRC A0FFF39B
Track not present in AccurateRip database
Copy OK

Track 17

Filename A:\PsPBuRnOuT's MUSIC\DRIVE\Car Hits The Ultimate Collection\Car Hits The Ultimate Collection - CD5\17.Diana Ross & The Supremes - You Keep Me Hangin' On.wav

Peak level 99.1 %
Extraction speed 17.0 X
Track quality 100.0 %
Copy CRC E243FC9D
Track not present in AccurateRip database
Copy OK

Track 18

Filename A:\PsPBuRnOuT's MUSIC\DRIVE\Car Hits The Ultimate Collection\Car Hits The Ultimate Collection - CD5\18.Petula Clark - I Couldn't Live Without Your Love.wav

Peak level 98.8 %
Extraction speed 16.3 X
Track quality 99.8 %
Copy CRC 3A78539E
Track not present in AccurateRip database
Copy OK

Track 19

Filename A:\PsPBuRnOuT's MUSIC\DRIVE\Car Hits The Ultimate Collection\Car Hits The Ultimate Collection - CD5\19.The Sandpipers - Guantanamera.wav

Peak level 100.0 %
Extraction speed 16.9 X
Track quality 100.0 %
Copy CRC 040CC3D8
Track not present in AccurateRip database
Copy OK

Track 20

Filename A:\PsPBuRnOuT's MUSIC\DRIVE\Car Hits The Ultimate Collection\Car Hits The Ultimate Collection - CD5\20.Ralph McTell - Streets Of London.wav

Peak level 89.0 %
Extraction speed 17.9 X
Track quality 100.0 %
Copy CRC C949CE17
Track not present in AccurateRip database
Copy OK


None of the tracks are present in the AccurateRip database

No errors occurred

End of status report

–– CUETools DB Plugin V2.1.6

[CTDB TOCID: PEY_gLFBmFgKnz0ewzW53TUELT4-] disk not present in database
Submit result: PEY_gLFBmFgKnz0ewzW53TUELT4- has been uploaded