VA - Chimes of Freedom: The Songs of Bob Dylan (2012) 4 CD Box Set

Posted By: Designol
VA - Chimes of Freedom: The Songs of Bob Dylan (2012) 4 CD Box Set

VA - Chimes of Freedom: The Songs of Bob Dylan (2012) 4 CD Box Set
EAC | FLAC | Tracks (Cue&Log) ~ 2 Gb (incl 5%) | Mp3 (CBR320) ~ 795 Mb (incl 5%) | Scans included
Tribute, Rock, Country, Rock & Roll, Pop, Folk, R&B | Amnesty International | 05:14:03

Amnesty International commemorates its 50th anniversary with the release of an album featuring the cream of the world’s music talent covering Bob Dylan songs, with contributions from a huge variety of artists including Adele, Patti Smith, Pete Townshend, Ke$ha, The Gaslight Anthem, Sting, Jackson Browne, Elvis Costello, Sinéad O’Connor, Kris Kristofferson, Bad Religion, Marianne Faithfull, My Chemical Romance, Bryan Ferry, Pete Seeger and many more. Entitled Chimes of Freedom: Songs of Bob Dylan the album features 73 tracks on four CDs.

Designed as a celebration for Amnesty International's 50th Anniversary, Chimes of Freedom is the mother of all tribute albums: a four-disc salute to Bob Dylan that runs some 76 songs performed by singers from all corners of the globe. Apart from Lennon/McCartney – the former of which was the subject of producers Jeff Ayeroff and Julie Yannatta's previous 2007 collection Instant Karma: The Amnesty International Campaign to Save Darfur – no other songwriter of the rock & roll era could attract so many different artists from so many different genres as Dylan, something that is a testament to the resilience of his catalog. From the very start of his career, Dylan saw his songs covered by all manners of artists, ranging from colleagues and peers to longhair rock bands, easy listening outfits, and weirdos like William Shatner, so the absurd abundance of Chimes of Freedom in a way fits into the grand pattern of history: his songs were always up for grabs, they've survived terrible misguided covers, they've been performed with loving faith, they've been reinvented once and again. Given its monumental length, it should be of no great surprise that Chimes of Freedom has songs that fall into each category, although it is surprisingly bereft of awfulness. Not even Miley Cyrus' painful-in-theory straight-ahead cover of "You're Gonna Make Me Lonesome When You Go" is awful: she may not know who Verlaine and Rimbaud are, but she focuses on the melody and winds up selling the song in the process. Most of the artists here perform a similar trick, choosing love songs over protests, keeping things intimate instead of anthemic. Naturally, there are exceptions to the rule, but the scales on Chimes of Freedom are tipped toward pretty stripped-down sincerity – even Ke$ha abandons Auto-Tune for a nearly a cappella interpretation of "Don't Think Twice It's Alright" – an aesthetic that's easy to digest and helps make the artists that do something different pop out dramatically: Flogging Molly's Pogues-ian run through "The Times They Are A-Changing," Bryan Ferry's eerie reading of "Bob Dylan's Dream," Elvis Costello adding spikes to "License to Kill," Sinéad O'Connor tearing up "Property of Jesus," and Queens of the Stone Age tapping into Bob's rowdy side with a tremendous "Outlaw Blues." After a parade of faithful salutes ranging from Billy Bragg's impassioned "Lay Down Your Weary Tune" to Lenny Kravitz's absurd re-creation of "Rainy Day Women #12 & 35," it's great to hear actual re-interpretations of Dylan's songs – after all, even Bob himself doesn't always sing the same song the same way twice.

Review by Stephen Thomas Erlewine, Allmusic.com

VA - Chimes of Freedom: The Songs of Bob Dylan (2012) 4 CD Box Set


Bob Dylan at Allmusic
Bob Dylan Website
Bob Dylan at Wiki

Tracklist:

CD1:

01. Johnny Cash featuring The Avett Brothers - One Too Many Mornings (03:48)
02. Raphael Saadiq - Leopard-Skin Pill-Box Hat (03:43)
03. Patti Smith - Drifter's Escape (03:21)
04. Rise Against - Ballad of Hollis Brown (05:12)
05. Tom Morello The Nightwatchman - Blind Willie McTell (05:15)
06. Pete Townshend - Corrina, Corrina (02:34)
07. Bettye LaVette - Most of the Time (05:16)
08. Charlie Winston - This Wheel's On Fire (03:07)
09. Diana Krall - Simple Twist Of Fate (03:51)
10. Brett Dennen - You Ain't Goin' Nowhere (03:04)
11. Mariachi El Bronx - Love Sick (03:41)
12. Ziggy Marley - Blowin' in the Wind (02:43)
13. The Gaslight Anthem - Changing of the Guards (05:22)
14. Silversun Pickups - Not Dark yet (06:23)
15. My Morning Jacket - You're A Big Girl Now (05:10)
16. The Airborne Toxic Event - Boots of Spanish Leather (05:12)
17. Sting - Girl from the North Country (02:54)
18. Mark Knopfler - Restless Farewell (05:51)

CD2:

01. Queens Of The Stone Age - Outlaw Blues (04:08)
02. Lenny Kravitz - Rainy Day Women # 12 & 35 (04:08)
03. Steve Earle & Lucia Micarelli - One More Cup of Coffee (Valley Below) (04:43)
04. Blake Mills & Danielle Haim - Heart Of Mine (05:30)
05. Miley Cyrus - You're Gonna Make Me Lonesome When You Go (03:33)
06. Billy Bragg - Lay Down Your Weary Tune (04:18)
07. Elvis Costello - License to Kill (05:13)
08. Angelique Kidjo - Lay, Lady, Lay (03:09)
09. Natasha Bedingfield - Ring Them Bells (04:09)
10. Jackson Browne - Love Minus Zero/No Limit (04:20)
11. Joan Baez - Seven Curses (05:04)
12. The Belle Brigade - No Time To Think (08:05)
13. Sugarland - Tonight, I'll Be Staying Here With You (03:56)
14. Jack's Mannequin - Mr. Tambourine Man (04:27)
15. Oren Lavie - 4th Time Around (04:22)
16. Sussan Deyhim - All I Really Want To Do (05:18)
17. Adele - Make You Feel My Love (04:06)

CD3:

01. K'naan - With God On Our Side (03:39)
02. Ximena Sarinana - I Want You (03:36)
03. Neil Finn With Pajama Club - She Belongs To Me (02:58)
04. Bryan Ferry - Bob Dylan's Dream (03:54)
05. Zee Avi - Tomorrow Is A Long Time (03:58)
06. Carly Simon - Just Like A Woman (05:11)
07. Flogging Molly - The Times They Are A-Changin' (03:01)
08. Fistful Of Mercy - Buckets Of Rain (03:13)
09. Joe Perry - Man Of Peace (07:42)
10. Bad Religion - It's All Over Now, Baby Blue (03:06)
11. My Chemical Romance - Desolation Row (Live) (03:01)
12. RedOne (featuring Nabil Khayat) - Knockin' On Heaven's Door (03:52)
13. Paul Rodgers & Nils Lofgren - Abandoned Love (04:32)
14. Darren Criss (featuring Chuck Criss Of Freelance Whales) - New Morning (03:06)
15. Cage The Elephant - The Lonesome Death Of Hattie Carroll (05:01)
16. Band Of Skulls - It Ain't Me, Babe (03:22)
17. Sinead O'Connor - Property Of Jesus (03:36)
18. Ed Roland & The Sweet Tea Project - Shelter From The Storm (04:11)
19. Ke$ha - Don't Think Twice, It's All Right (03:49)
20. Kronos Quartet - Don't Think Twice, It's All Right (Instrumental) (04:03)

CD4:

01. Maroon 5 - I Shall Be Released (04:09)
02. Carolina Chocolate Drops - Political World (02:48)
03. Seal & Jeff Beck - Like A Rolling Stone (07:24)
04. Taj Mahal & The Phantom Blues Band - Bob Dylan's 115th Dream (05:01)
05. Dierks Bentley - Senor (Tales of Yankee Power) (Live) (03:50)
06. Mick Hucknall - One Of Us Must Know (Sooner Or Later) (04:58)
07. Thea Gilmore - I'll Remember You (04:47)
08. State Radio - John Brown (04:49)
09. Dave Matthews Band - All Along the Watchtower (Live) (07:03)
10. Michael Franti - Subterranean Homesick Blues (02:17)
11. We Are Augustines - Mama, You Been On My Mind (03:29)
12. Lucinda Williams - Tryin' To Get To Heaven (04:42)
13. Kris Kristofferson - Quinn The Eskimo (The Mighty Quinn) (02:38)
14. Eric Burdon - Gotta Serve Somebody (04:56)
15. Evan Rachel Wood - I'd Have You Anytime (03:53)
16. Marianne Faithfull - Baby Let Me Follow You Down (Live) (02:28)
17. Pete Seeger With The Rivertown Kids - Forever Young (03:15)
18. Bob Dylan - Chimes Of Freedom (07:12)


Exact Audio Copy V1.0 beta 2 from 29. April 2011

EAC extraction logfile from 25. January 2012, 11:58

Various / Chimes of Freedom: The Songs of Bob Dylan Disc 1

Used drive : HL-DT-STDVD-RAM GH22LS30 Adapter: 2 ID: 1

Read mode : Secure
Utilize accurate stream : Yes
Defeat audio cache : Yes
Make use of C2 pointers : No

Read offset correction : 102
Overread into Lead-In and Lead-Out : No
Fill up missing offset samples with silence : Yes
Delete leading and trailing silent blocks : No
Null samples used in CRC calculations : Yes
Used interface : Native Win32 interface for Win NT & 2000
Gap handling : Appended to previous track

Used output format : Internal WAV Routines
Sample format : 44.100 Hz; 16 Bit; Stereo


TOC of the extracted CD

Track | Start | Length | Start sector | End sector
––––––––––––––––––––––––––––-
1 | 0:00.00 | 3:48.02 | 0 | 17101
2 | 3:48.02 | 3:43.18 | 17102 | 33844
3 | 7:31.20 | 3:21.47 | 33845 | 48966
4 | 10:52.67 | 5:12.30 | 48967 | 72396
5 | 16:05.22 | 5:15.48 | 72397 | 96069
6 | 21:20.70 | 2:34.25 | 96070 | 107644
7 | 23:55.20 | 5:16.24 | 107645 | 131368
8 | 29:11.44 | 3:07.00 | 131369 | 145393
9 | 32:18.44 | 3:51.03 | 145394 | 162721
10 | 36:09.47 | 3:04.20 | 162722 | 176541
11 | 39:13.67 | 3:41.48 | 176542 | 193164
12 | 42:55.40 | 2:43.36 | 193165 | 205425
13 | 45:39.01 | 5:22.48 | 205426 | 229623
14 | 51:01.49 | 6:23.07 | 229624 | 258355
15 | 57:24.56 | 5:10.60 | 258356 | 281665
16 | 62:35.41 | 5:12.31 | 281666 | 305096
17 | 67:47.72 | 2:54.20 | 305097 | 318166
18 | 70:42.17 | 5:51.73 | 318167 | 344564


Track 1

Filename E:\Lossless-Prep\VA-Chimes of Freedom- The Songs of Bob Dylan Disc 1\01-Johnny Cash featuring The Avett Brothers-One Too Many Mornings.wav

Pre-gap length 0:00:02.00

Peak level 100.0 %
Extraction speed 1.7 X
Track quality 100.0 %
Test CRC F175AB1C
Copy CRC F175AB1C
Track not present in AccurateRip database
Copy OK

Track 2

Filename E:\Lossless-Prep\VA-Chimes of Freedom- The Songs of Bob Dylan Disc 1\02-Raphael Saadiq-Leopard-Skin Pill-Box Hat.wav

Pre-gap length 0:00:00.97

Peak level 100.0 %
Extraction speed 1.9 X
Track quality 100.0 %
Test CRC EC6B1CFD
Copy CRC EC6B1CFD
Track not present in AccurateRip database
Copy OK

Track 3

Filename E:\Lossless-Prep\VA-Chimes of Freedom- The Songs of Bob Dylan Disc 1\03-Patti Smith-Drifter's Escape.wav

Pre-gap length 0:00:01.32

Peak level 100.0 %
Extraction speed 2.0 X
Track quality 100.0 %
Test CRC FC60C804
Copy CRC FC60C804
Track not present in AccurateRip database
Copy OK

Track 4

Filename E:\Lossless-Prep\VA-Chimes of Freedom- The Songs of Bob Dylan Disc 1\04-Rise Against-Ballad of Hollis Brown.wav

Pre-gap length 0:00:01.20

Peak level 100.0 %
Extraction speed 2.1 X
Track quality 99.9 %
Test CRC F768F909
Copy CRC F768F909
Track not present in AccurateRip database
Copy OK

Track 5

Filename E:\Lossless-Prep\VA-Chimes of Freedom- The Songs of Bob Dylan Disc 1\05-Tom Morello & The Nightwatchman-Blind Willie McTell.wav

Pre-gap length 0:00:00.58

Peak level 100.0 %
Extraction speed 2.5 X
Track quality 100.0 %
Test CRC D50D5973
Copy CRC D50D5973
Track not present in AccurateRip database
Copy OK

Track 6

Filename E:\Lossless-Prep\VA-Chimes of Freedom- The Songs of Bob Dylan Disc 1\06-Pete Townshend-Corrina, Corrina.wav

Pre-gap length 0:00:00.49

Peak level 99.6 %
Extraction speed 1.9 X
Track quality 99.9 %
Test CRC 7A035CC0
Copy CRC 7A035CC0
Track not present in AccurateRip database
Copy OK

Track 7

Filename E:\Lossless-Prep\VA-Chimes of Freedom- The Songs of Bob Dylan Disc 1\07-Bettye LaVette-Most of the Time.wav

Pre-gap length 0:00:01.10

Peak level 99.7 %
Extraction speed 2.7 X
Track quality 100.0 %
Test CRC C984ED2C
Copy CRC C984ED2C
Track not present in AccurateRip database
Copy OK

Track 8

Filename E:\Lossless-Prep\VA-Chimes of Freedom- The Songs of Bob Dylan Disc 1\08-Charlie Winston-This Wheel's On Fire.wav

Pre-gap length 0:00:01.65

Peak level 100.0 %
Extraction speed 2.6 X
Track quality 100.0 %
Test CRC DBFAC297
Copy CRC DBFAC297
Track not present in AccurateRip database
Copy OK

Track 9

Filename E:\Lossless-Prep\VA-Chimes of Freedom- The Songs of Bob Dylan Disc 1\09-Diana Krall-Simple Twist of Fate.wav

Pre-gap length 0:00:01.02

Peak level 98.8 %
Extraction speed 2.4 X
Track quality 99.9 %
Test CRC DF49ED1F
Copy CRC DF49ED1F
Track not present in AccurateRip database
Copy OK

Track 10

Filename E:\Lossless-Prep\VA-Chimes of Freedom- The Songs of Bob Dylan Disc 1\10-Brett Dennen-You Ain't Goin' Nowhere.wav

Pre-gap length 0:00:01.54

Peak level 100.0 %
Extraction speed 2.4 X
Track quality 99.9 %
Test CRC 65160BC2
Copy CRC 65160BC2
Track not present in AccurateRip database
Copy OK

Track 11

Filename E:\Lossless-Prep\VA-Chimes of Freedom- The Songs of Bob Dylan Disc 1\11-Mariachi El Bronx-Love Sick.wav

Pre-gap length 0:00:00.98

Peak level 100.0 %
Extraction speed 3.0 X
Track quality 100.0 %
Test CRC 913F546F
Copy CRC 913F546F
Track not present in AccurateRip database
Copy OK

Track 12

Filename E:\Lossless-Prep\VA-Chimes of Freedom- The Songs of Bob Dylan Disc 1\12-Ziggy Marley-Blowin' in the Wind.wav

Pre-gap length 0:00:00.96

Peak level 100.0 %
Extraction speed 2.9 X
Track quality 100.0 %
Test CRC F481909C
Copy CRC F481909C
Track not present in AccurateRip database
Copy OK

Track 13

Filename E:\Lossless-Prep\VA-Chimes of Freedom- The Songs of Bob Dylan Disc 1\13-The Gaslight Anthem-Changing of the Guards.wav

Pre-gap length 0:00:01.60

Peak level 100.0 %
Extraction speed 3.3 X
Track quality 100.0 %
Test CRC 6A70B5A0
Copy CRC 6A70B5A0
Track not present in AccurateRip database
Copy OK

Track 14

Filename E:\Lossless-Prep\VA-Chimes of Freedom- The Songs of Bob Dylan Disc 1\14-Silversun Pickups-Not Dark Yet.wav

Pre-gap length 0:00:01.22

Peak level 100.0 %
Extraction speed 3.2 X
Track quality 99.9 %
Test CRC 12D8FEE0
Copy CRC 12D8FEE0
Track not present in AccurateRip database
Copy OK

Track 15

Filename E:\Lossless-Prep\VA-Chimes of Freedom- The Songs of Bob Dylan Disc 1\15-My Morning Jacket-You're A Big Girl Now.wav

Pre-gap length 0:00:01.98

Peak level 99.2 %
Extraction speed 3.6 X
Track quality 100.0 %
Test CRC EC74C03B
Copy CRC EC74C03B
Track not present in AccurateRip database
Copy OK

Track 16

Filename E:\Lossless-Prep\VA-Chimes of Freedom- The Songs of Bob Dylan Disc 1\16-The Airborne Toxic Event-Boots of Spanish Leather.wav

Pre-gap length 0:00:00.50

Peak level 100.0 %
Extraction speed 3.4 X
Track quality 99.9 %
Test CRC 8AC8952A
Copy CRC 8AC8952A
Track not present in AccurateRip database
Copy OK

Track 17

Filename E:\Lossless-Prep\VA-Chimes of Freedom- The Songs of Bob Dylan Disc 1\17-Sting-Girl from the North Country.wav

Pre-gap length 0:00:01.36

Peak level 94.2 %
Extraction speed 2.9 X
Track quality 99.9 %
Test CRC 8833B694
Copy CRC 8833B694
Track not present in AccurateRip database
Copy OK

Track 18

Filename E:\Lossless-Prep\VA-Chimes of Freedom- The Songs of Bob Dylan Disc 1\18-Mark Knopfler-Restless Farewell.wav

Pre-gap length 0:00:01.20

Peak level 99.2 %
Extraction speed 3.9 X
Track quality 100.0 %
Test CRC AA9BE23B
Copy CRC AA9BE23B
Track not present in AccurateRip database
Copy OK


None of the tracks are present in the AccurateRip database

No errors occurred

End of status report

==== Log checksum 54848511BE6B1528C932679EE2CAE2790B261E98C0B79637731EDE9ECAF59879 ====

[CUETools log; Date: 08.11.2016 18:43:19; Version: 2.1.4]
[CTDB TOCID: ErMKhyuGs6HVQUajajWfHyrmWr8-] found.
Track | CTDB Status
1 | (229/229) Accurately ripped
2 | (228/229) Accurately ripped
3 | (229/229) Accurately ripped
4 | (228/229) Accurately ripped
5 | (228/229) Accurately ripped
6 | (228/229) Accurately ripped
7 | (227/229) Accurately ripped
8 | (229/229) Accurately ripped
9 | (229/229) Accurately ripped
10 | (228/229) Accurately ripped
11 | (229/229) Accurately ripped
12 | (229/229) Accurately ripped
13 | (229/229) Accurately ripped
14 | (228/229) Accurately ripped
15 | (228/229) Accurately ripped
16 | (229/229) Accurately ripped
17 | (229/229) Accurately ripped
18 | (225/229) Accurately ripped
[AccurateRip ID: 002fbb37-0280d618-0411f212] found.
Track [ CRC | V2 ] Status
01 [179ce037|ffbeb2a9] (019+108/289) Accurately ripped
02 [bce40cb4|a5cabdcc] (020+109/290) Accurately ripped
03 [841177d1|3a380fd6] (020+110/291) Accurately ripped
04 [92e33675|85d09a9b] (020+111/292) Accurately ripped
05 [25953686|6b5eec8d] (020+107/288) Accurately ripped
06 [64eed6fc|47ed617a] (020+109/290) Accurately ripped
07 [113e55e8|3726bfde] (020+108/290) Accurately ripped
08 [84d61a44|df004bdc] (020+109/289) Accurately ripped
09 [092f4e48|955ea20f] (020+108/289) Accurately ripped
10 [83272d84|1998c7a7] (020+109/291) Accurately ripped
11 [2afacd4d|618ce85f] (020+107/287) Accurately ripped
12 [2ac99a4e|0ac64046] (020+106/283) Accurately ripped
13 [d20bf312|214f40ab] (020+108/288) Accurately ripped
14 [b23ad4f6|0c80cb24] (020+107/288) Accurately ripped
15 [7132f1c6|d28f85ed] (020+106/287) Accurately ripped
16 [0d144d01|74970959] (019+108/287) Accurately ripped
17 [f6d6f35c|f4eb3624] (020+109/287) Accurately ripped
18 [4774b5f1|41a37eb5] (020+107/281) Accurately ripped
Offsetted by -6:
01 [a7474b13] (002/289) Accurately ripped
02 [2e20f3e7] (002/290) Accurately ripped
03 [f0a2f5ee] (002/291) Accurately ripped
04 [cb989ed0] (002/292) Accurately ripped
05 [7f38d07d] (002/288) Accurately ripped
06 [a5b175a3] (002/290) Accurately ripped
07 [9d5045c3] (002/290) Accurately ripped
08 [bb40b1a1] (002/289) Accurately ripped
09 [7a5ab906] (002/289) Accurately ripped
10 [2c4331d9] (002/291) Accurately ripped
11 [9877cd13] (002/287) Accurately ripped
12 [cc7786bd] (002/283) Accurately ripped
13 [ef5e93f5] (002/288) Accurately ripped
14 [ee16b978] (002/288) Accurately ripped
15 [5baf0dfb] (002/287) Accurately ripped
16 [60f86a78] (002/287) Accurately ripped
17 [fd5ea6c1] (002/287) Accurately ripped
18 [21e648a7] (002/281) Accurately ripped
Offsetted by 12:
01 [4dab6972] (022/289) Accurately ripped
02 [f6319494] (022/290) Accurately ripped
03 [18d78ba4] (022/291) Accurately ripped
04 [b1ea65be] (022/292) Accurately ripped
05 [3e46029a] (022/288) Accurately ripped
06 [bd3dbf5e] (022/290) Accurately ripped
07 [f9247633] (022/290) Accurately ripped
08 [9902eb87] (022/289) Accurately ripped
09 [ca8c1f8b] (022/289) Accurately ripped
10 [303923a5] (022/291) Accurately ripped
11 [bf7ff2bd] (021/287) Accurately ripped
12 [e837c564] (021/283) Accurately ripped
13 [07620a9b] (022/288) Accurately ripped
14 [3a890bf7] (022/288) Accurately ripped
15 [524b710c] (022/287) Accurately ripped
16 [654e1210] (022/287) Accurately ripped
17 [721a8c8f] (022/287) Accurately ripped
18 [5a212845] (020/281) Accurately ripped
Offsetted by -658:
01 [eaa36989] (000/289) No match (V2 was not tested)
02 [1c98a4df] (000/290) No match (V2 was not tested)
03 [9b84fd2c] (000/291) No match (V2 was not tested)
04 [0ec00704] (000/292) No match (V2 was not tested)
05 [40ac79ac] (000/288) No match (V2 was not tested)
06 [9b1ca066] (000/290) No match (V2 was not tested)
07 [93cbb9f1] (000/290) No match (V2 was not tested)
08 [1738dcb3] (000/289) No match (V2 was not tested)
09 [2cc5a99e] (000/289) No match (V2 was not tested)
10 [df5c0ee2] (000/291) No match (V2 was not tested)
11 [ac00fb76] (000/287) No match (V2 was not tested)
12 [a2af390b] (000/283) No match (V2 was not tested)
13 [eca58345] (000/288) No match (V2 was not tested)
14 [0830cdf6] (000/288) No match (V2 was not tested)
15 [98e14682] (000/287) No match (V2 was not tested)
16 [8c533a1f] (000/287) No match (V2 was not tested)
17 [c5a205b1] (000/287) No match (V2 was not tested)
18 [513e365c] (000/281) No match (V2 was not tested)

Track Peak [ CRC32 ] [W/O NULL] [ LOG ]
– 100,0 [BE4F6BF0] [3289B697]
01 100,0 [F175AB1C] [57B508AF] CRC32
02 100,0 [EC6B1CFD] [1EFB7C12] CRC32
03 100,0 [FC60C804] [5C142449] CRC32
04 100,0 [F768F909] [958A998B] CRC32
05 100,0 [D50D5973] [2A002A9F] CRC32
06 99,6 [7A035CC0] [052EE749] CRC32
07 99,7 [C984ED2C] [AE392B7A] CRC32
08 100,0 [DBFAC297] [D68FB675] CRC32
09 98,8 [DF49ED1F] [5B74B9E2] CRC32
10 100,0 [65160BC2] [E5C14F1C] CRC32
11 100,0 [913F546F] [15A99F31] CRC32
12 100,0 [F481909C] [34119BEE] CRC32
13 100,0 [6A70B5A0] [06E3D17D] CRC32
14 100,0 [12D8FEE0] [A53FE291] CRC32
15 99,2 [EC74C03B] [0D8D5436] CRC32
16 100,0 [8AC8952A] [85F52D09] CRC32
17 94,2 [8833B694] [51CB2250] CRC32
18 99,2 [AA9BE23B] [2083C449] CRC32

foobar2000 1.2 / Dynamic Range Meter 1.1.1
log date: 2016-11-08 18:46:09

––––––––––––––––––––––––––––––––––––––––
Analyzed: ? / Chimes of Freedom: The Songs of Bob Dylan Honoring 50 Years of Amnesty International (1)
Bettye LaVette / Chimes of Freedom: The Songs of Bob Dylan Honoring 50 Years of Amnesty International (2)
Brett Dennen / Chimes of Freedom: The Songs of Bob Dylan Honoring 50 Years of Amnesty International (3)
Charlie Winston / Chimes of Freedom: The Songs of Bob Dylan Honoring 50 Years of Amnesty International (4)
Diana Krall / Chimes of Freedom: The Songs of Bob Dylan Honoring 50 Years of Amnesty International (5)
Johnny Cash featuring The Avett Brothers / Chimes of Freedom: The Songs of Bob Dylan Honoring 50 Years of Amnesty International (6)
Mariachi El Bronx / Chimes of Freedom: The Songs of Bob Dylan Honoring 50 Years of Amnesty International (7)
Mark Knopfler / Chimes of Freedom: The Songs of Bob Dylan Honoring 50 Years of Amnesty International (8)
My Morning Jacket / Chimes of Freedom: The Songs of Bob Dylan Honoring 50 Years of Amnesty International (9)
Patti Smith / Chimes of Freedom: The Songs of Bob Dylan Honoring 50 Years of Amnesty International (10)
Pete Townshend / Chimes of Freedom: The Songs of Bob Dylan Honoring 50 Years of Amnesty International (11)
Raphael Saadiq / Chimes of Freedom: The Songs of Bob Dylan Honoring 50 Years of Amnesty International (12)
Silversun Pickups / Chimes of Freedom: The Songs of Bob Dylan Honoring 50 Years of Amnesty International (13)
Sting / Chimes of Freedom: The Songs of Bob Dylan Honoring 50 Years of Amnesty International (14)
The Airborne Toxic Event / Chimes of Freedom: The Songs of Bob Dylan Honoring 50 Years of Amnesty International (15)
The Gaslight Anthem / Chimes of Freedom: The Songs of Bob Dylan Honoring 50 Years of Amnesty International (16)
Tom Morello & The Nightwatchman / Chimes of Freedom: The Songs of Bob Dylan Honoring 50 Years of Amnesty International (17)
Ziggy Marley / Chimes of Freedom: The Songs of Bob Dylan Honoring 50 Years of Amnesty International (18)
––––––––––––––––––––––––––––––––––––––––

DR Peak RMS Duration Track
––––––––––––––––––––––––––––––––––––––––
DR6 0.00 dB -9.20 dB 5:12 04-Rise Against-Ballad of Hollis Brown
DR9 -0.02 dB -9.94 dB 5:16 07-Most of the Time
DR8 0.00 dB -9.31 dB 3:04 10-You Ain't Goin' Nowhere
DR7 0.00 dB -8.80 dB 3:07 08-This Wheel's On Fire
DR11 -0.10 dB -14.47 dB 3:51 09-Simple Twist of Fate
DR6 0.00 dB -7.17 dB 3:48 01-One Too Many Mornings
DR7 0.00 dB -8.36 dB 3:42 11-Love Sick
DR8 -0.07 dB -11.50 dB 5:52 18-Restless Farewell
DR10 -0.07 dB -14.83 dB 5:11 15-You're A Big Girl Now
DR7 0.00 dB -8.18 dB 3:22 03-Drifter's Escape
DR8 -0.03 dB -9.34 dB 2:34 06-Corrina, Corrina
DR7 0.00 dB -7.85 dB 3:43 02-Leopard-Skin Pill-Box Hat
DR7 0.00 dB -8.31 dB 6:23 14-Not Dark Yet
DR10 -0.51 dB -13.33 dB 2:54 17-Girl from the North Country
DR9 0.00 dB -13.50 dB 5:12 16-Boots of Spanish Leather
DR6 0.00 dB -8.01 dB 5:23 13-Changing of the Guards
DR9 0.00 dB -10.97 dB 5:16 05-Blind Willie McTell
DR10 0.00 dB -10.94 dB 2:43 12-Blowin' in the Wind
––––––––––––––––––––––––––––––––––––––––

Number of tracks: 18
Official DR value: DR8

Samplerate: 44100 Hz
Channels: 2
Bits per sample: 16
Bitrate: 902 kbps
Codec: FLAC
================================================================================


Exact Audio Copy V1.0 beta 2 from 29. April 2011

EAC extraction logfile from 25. January 2012, 13:07

Various Artists / Chimes of Freedom: The Songs of Bob Dylan Disc 2

Used drive : HL-DT-STDVD-RAM GH22LS30 Adapter: 2 ID: 1

Read mode : Secure
Utilize accurate stream : Yes
Defeat audio cache : Yes
Make use of C2 pointers : No

Read offset correction : 102
Overread into Lead-In and Lead-Out : No
Fill up missing offset samples with silence : Yes
Delete leading and trailing silent blocks : No
Null samples used in CRC calculations : Yes
Used interface : Native Win32 interface for Win NT & 2000
Gap handling : Appended to previous track

Used output format : Internal WAV Routines
Sample format : 44.100 Hz; 16 Bit; Stereo


TOC of the extracted CD

Track | Start | Length | Start sector | End sector
––––––––––––––––––––––––––––-
1 | 0:00.00 | 4:08.67 | 0 | 18666
2 | 4:08.67 | 4:08.15 | 18667 | 37281
3 | 8:17.07 | 4:43.56 | 37282 | 58562
4 | 13:00.63 | 5:30.61 | 58563 | 83373
5 | 18:31.49 | 3:33.08 | 83374 | 99356
6 | 22:04.57 | 4:18.68 | 99357 | 118774
7 | 26:23.50 | 5:13.17 | 118775 | 142266
8 | 31:36.67 | 3:09.35 | 142267 | 156476
9 | 34:46.27 | 4:09.30 | 156477 | 175181
10 | 38:55.57 | 4:20.74 | 175182 | 194755
11 | 43:16.56 | 5:04.63 | 194756 | 217618
12 | 48:21.44 | 8:05.48 | 217619 | 254041
13 | 56:27.17 | 3:56.55 | 254042 | 271796
14 | 60:23.72 | 4:27.03 | 271797 | 291824
15 | 64:51.00 | 4:22.42 | 291825 | 311516
16 | 69:13.42 | 5:18.13 | 311517 | 335379
17 | 74:31.55 | 4:06.63 | 335380 | 353892


Track 1

Filename E:\Lossless-Prep\VA-Chimes of Freedom- The Songs of Bob Dylan Disc 2\01-Queens Of The Stone Age-Outlaw Blues.wav

Pre-gap length 0:00:02.00

Peak level 100.0 %
Extraction speed 1.7 X
Track quality 100.0 %
Test CRC 25FBF0D5
Copy CRC 25FBF0D5
Track not present in AccurateRip database
Copy OK

Track 2

Filename E:\Lossless-Prep\VA-Chimes of Freedom- The Songs of Bob Dylan Disc 2\02-Lenny Kravitz-Rainy Day Woman #12 & 35.wav

Pre-gap length 0:00:00.77

Peak level 100.0 %
Extraction speed 1.9 X
Track quality 100.0 %
Test CRC A9BA01F5
Copy CRC A9BA01F5
Track not present in AccurateRip database
Copy OK

Track 3

Filename E:\Lossless-Prep\VA-Chimes of Freedom- The Songs of Bob Dylan Disc 2\03-Steve Earle & Lucia Micarelli-One More Cup of Coffee (Valley Below).wav

Pre-gap length 0:00:00.60

Peak level 100.0 %
Extraction speed 2.2 X
Track quality 100.0 %
Test CRC 38D918BD
Copy CRC 38D918BD
Track not present in AccurateRip database
Copy OK

Track 4

Filename E:\Lossless-Prep\VA-Chimes of Freedom- The Songs of Bob Dylan Disc 2\04-Blake Mills-Heart Of Mine.wav

Pre-gap length 0:00:01.02

Peak level 100.0 %
Extraction speed 2.4 X
Track quality 100.0 %
Test CRC 0EF844FD
Copy CRC 0EF844FD
Track not present in AccurateRip database
Copy OK

Track 5

Filename E:\Lossless-Prep\VA-Chimes of Freedom- The Songs of Bob Dylan Disc 2\05-Miley Cyrus-You're Gonna Make Me Lonesome When You Go.wav

Pre-gap length 0:00:00.72

Peak level 99.6 %
Extraction speed 2.1 X
Track quality 99.9 %
Test CRC 5148A36A
Copy CRC 5148A36A
Track not present in AccurateRip database
Copy OK

Track 6

Filename E:\Lossless-Prep\VA-Chimes of Freedom- The Songs of Bob Dylan Disc 2\06-Billy Bragg-Lay Down Your Weary Tune.wav

Pre-gap length 0:00:01.24

Peak level 100.0 %
Extraction speed 2.6 X
Track quality 100.0 %
Test CRC FC88894E
Copy CRC FC88894E
Track not present in AccurateRip database
Copy OK

Track 7

Filename E:\Lossless-Prep\VA-Chimes of Freedom- The Songs of Bob Dylan Disc 2\07-Elvis Costello-License to Kill.wav

Pre-gap length 0:00:00.97

Peak level 100.0 %
Extraction speed 2.7 X
Track quality 100.0 %
Test CRC C6AE86F3
Copy CRC C6AE86F3
Track not present in AccurateRip database
Copy OK

Track 8

Filename E:\Lossless-Prep\VA-Chimes of Freedom- The Songs of Bob Dylan Disc 2\08-Angelique Kidjo-Lay, Lady, Lay.wav

Pre-gap length 0:00:01.49

Peak level 99.9 %
Extraction speed 2.6 X
Track quality 100.0 %
Test CRC B0D3AF80
Copy CRC B0D3AF80
Track not present in AccurateRip database
Copy OK

Track 9

Filename E:\Lossless-Prep\VA-Chimes of Freedom- The Songs of Bob Dylan Disc 2\09-Natasha Bedingfield-Ring Them Bells.wav

Pre-gap length 0:00:01.37

Peak level 100.0 %
Extraction speed 2.9 X
Track quality 100.0 %
Test CRC 6EA461D2
Copy CRC 6EA461D2
Track not present in AccurateRip database
Copy OK

Track 10

Filename E:\Lossless-Prep\VA-Chimes of Freedom- The Songs of Bob Dylan Disc 2\10-Jackson Browne-Love Minus Zero,No Limit.wav

Pre-gap length 0:00:01.36

Peak level 100.0 %
Extraction speed 3.0 X
Track quality 100.0 %
Test CRC 41971D7D
Copy CRC 41971D7D
Track not present in AccurateRip database
Copy OK

Track 11

Filename E:\Lossless-Prep\VA-Chimes of Freedom- The Songs of Bob Dylan Disc 2\11-Joan Baez-Seven Curses (Live).wav

Pre-gap length 0:00:00.58

Peak level 99.9 %
Extraction speed 3.3 X
Track quality 100.0 %
Test CRC D6D86D59
Copy CRC D6D86D59
Track not present in AccurateRip database
Copy OK

Track 12

Filename E:\Lossless-Prep\VA-Chimes of Freedom- The Songs of Bob Dylan Disc 2\12-The Belle Brigade-No Time To Think.wav

Pre-gap length 0:00:01.04

Peak level 100.0 %
Extraction speed 3.5 X
Track quality 100.0 %
Test CRC 6C27646C
Copy CRC 6C27646C
Track not present in AccurateRip database
Copy OK

Track 13

Filename E:\Lossless-Prep\VA-Chimes of Freedom- The Songs of Bob Dylan Disc 2\13-Sugarland-Tonight I'll Be Staying Here With You (Live).wav

Pre-gap length 0:00:01.08

Peak level 100.0 %
Extraction speed 2.9 X
Track quality 99.9 %
Test CRC 9549AA19
Copy CRC 9549AA19
Track not present in AccurateRip database
Copy OK

Track 14

Filename E:\Lossless-Prep\VA-Chimes of Freedom- The Songs of Bob Dylan Disc 2\14-Jack's Mannequin-Mr. Tambourine Man.wav

Pre-gap length 0:00:01.57

Peak level 100.0 %
Extraction speed 3.6 X
Track quality 100.0 %
Test CRC 715FFB59
Copy CRC 715FFB59
Track not present in AccurateRip database
Copy OK

Track 15

Filename E:\Lossless-Prep\VA-Chimes of Freedom- The Songs of Bob Dylan Disc 2\15-Oren Lavie-4th Time Around.wav

Pre-gap length 0:00:01.12

Peak level 100.0 %
Extraction speed 3.7 X
Track quality 100.0 %
Test CRC C3973DBB
Copy CRC C3973DBB
Track not present in AccurateRip database
Copy OK

Track 16

Filename E:\Lossless-Prep\VA-Chimes of Freedom- The Songs of Bob Dylan Disc 2\16-Sussan Deyhim-All I Really Want To Do.wav

Peak level 100.0 %
Extraction speed 3.9 X
Track quality 100.0 %
Test CRC E786D680
Copy CRC E786D680
Track not present in AccurateRip database
Copy OK

Track 17

Filename E:\Lossless-Prep\VA-Chimes of Freedom- The Songs of Bob Dylan Disc 2\17-Adele-Make You Feel My Love (Recorded Live at WXPN).wav

Pre-gap length 0:00:01.08

Peak level 100.0 %
Extraction speed 3.8 X
Track quality 100.0 %
Test CRC A61244DB
Copy CRC A61244DB
Track not present in AccurateRip database
Copy OK


None of the tracks are present in the AccurateRip database

No errors occurred

End of status report

==== Log checksum 43ED6312460FBD9E98BAFFC8A8944AED1E5E75DE195527E0E6326F8DC3DD4B77 ====

[CUETools log; Date: 08.11.2016 18:43:41; Version: 2.1.4]
[CTDB TOCID: QOnaNbmdaLALwLtezvjaV3rUAxY-] found.
Track | CTDB Status
1 | (225/225) Accurately ripped
2 | (225/225) Accurately ripped
3 | (225/225) Accurately ripped
4 | (223/225) Accurately ripped
5 | (225/225) Accurately ripped
6 | (224/225) Accurately ripped
7 | (222/225) Accurately ripped
8 | (225/225) Accurately ripped
9 | (224/225) Accurately ripped
10 | (225/225) Accurately ripped
11 | (225/225) Accurately ripped
12 | (224/225) Accurately ripped
13 | (225/225) Accurately ripped
14 | (225/225) Accurately ripped
15 | (224/225) Accurately ripped
16 | (224/225) Accurately ripped
17 | (220/225) Accurately ripped
[AccurateRip ID: 002f9e85-025f9dcc-16126e11] found.
Track [ CRC | V2 ] Status
01 [1af0629d|3fa135b1] (020+109/281) Accurately ripped
02 [76f6f374|b7447bb3] (019+110/284) Accurately ripped
03 [973da2f4|0a186ea7] (020+109/284) Accurately ripped
04 [af30360b|96d929d6] (020+109/281) Accurately ripped
05 [c06194a4|9d00c060] (020+109/285) Accurately ripped
06 [a48d365f|7718298a] (020+109/284) Accurately ripped
07 [d960da88|b63ddf33] (021+111/288) Accurately ripped
08 [c9dfcfb4|f397c4e2] (020+108/283) Accurately ripped
09 [d686c82f|5c99d6d7] (020+108/283) Accurately ripped
10 [98f538ff|5f27f69b] (020+111/286) Accurately ripped
11 [1b3cb657|762174b2] (020+109/283) Accurately ripped
12 [ad252bab|ff90ff5d] (020+108/284) Accurately ripped
13 [61460dd0|5c6d1cd2] (020+109/283) Accurately ripped
14 [0c930369|41166baa] (019+110/282) Accurately ripped
15 [d040c9ac|184415b4] (020+109/282) Accurately ripped
16 [5c86cdbe|a34f5bb4] (020+105/274) Accurately ripped
17 [3d3dc045|08fb0f1d] (018+104/269) Accurately ripped
Offsetted by -6:
01 [e2bf41df] (002/281) Accurately ripped
02 [f7d9becf] (002/284) Accurately ripped
03 [39972662] (002/284) Accurately ripped
04 [7c9809e1] (002/281) Accurately ripped
05 [a682d0d6] (002/285) Accurately ripped
06 [cf0f69ee] (002/284) Accurately ripped
07 [7b173321] (002/288) Accurately ripped
08 [eaea8b47] (002/283) Accurately ripped
09 [d83a60ee] (002/283) Accurately ripped
10 [e877569b] (002/286) Accurately ripped
11 [e9f8dfae] (002/283) Accurately ripped
12 [84dcbee1] (002/284) Accurately ripped
13 [6371bebc] (002/283) Accurately ripped
14 [1e457b0a] (002/282) Accurately ripped
15 [68e5c843] (002/282) Accurately ripped
16 [5c33379a] (002/274) Accurately ripped
17 [a5464d75] (002/269) Accurately ripped
Offsetted by 12:
01 [9ca2cbf6] (020/281) Accurately ripped
02 [84d16e0f] (021/284) Accurately ripped
03 [51dfac54] (021/284) Accurately ripped
04 [17cffd79] (017/281) Accurately ripped
05 [ef94e753] (021/285) Accurately ripped
06 [88fe07fb] (021/284) Accurately ripped
07 [b3b51097] (021/288) Accurately ripped
08 [833355c5] (021/283) Accurately ripped
09 [20aa3cc8] (021/283) Accurately ripped
10 [98e3fdc0] (020/286) Accurately ripped
11 [5abd20bb] (021/283) Accurately ripped
12 [cd83a408] (022/284) Accurately ripped
13 [5d8df8fc] (021/283) Accurately ripped
14 [9b1e142c] (021/282) Accurately ripped
15 [42cfcc80] (021/282) Accurately ripped
16 [438e1454] (021/274) Accurately ripped
17 [34f5d197] (021/269) Accurately ripped
Offsetted by -658:
01 [aa5d9647] (000/281) No match (V2 was not tested)
02 [eb092127] (000/284) No match (V2 was not tested)
03 [60d23c0e] (000/284) No match (V2 was not tested)
04 [ef9f7e02] (000/281) No match (V2 was not tested)
05 [e7ba3d33] (000/285) No match (V2 was not tested)
06 [6e0c16ac] (000/284) No match (V2 was not tested)
07 [09df226c] (000/288) No match (V2 was not tested)
08 [f94763a6] (000/283) No match (V2 was not tested)
09 [f7a6fb5d] (000/283) No match (V2 was not tested)
10 [c4731860] (000/286) No match (V2 was not tested)
11 [ac225dcf] (000/283) No match (V2 was not tested)
12 [fdb1b91e] (000/284) No match (V2 was not tested)
13 [9124cdc3] (000/283) No match (V2 was not tested)
14 [f206efcf] (000/282) No match (V2 was not tested)
15 [215ff308] (000/282) No match (V2 was not tested)
16 [e551e785] (000/274) No match (V2 was not tested)
17 [298ca6cd] (000/269) No match (V2 was not tested)

Track Peak [ CRC32 ] [W/O NULL] [ LOG ]
– 100,0 [9DC0C55E] [80C3B6F7]
01 100,0 [25FBF0D5] [EB91CA58] CRC32
02 100,0 [A9BA01F5] [5C46E66A] CRC32
03 100,0 [38D918BD] [A032286E] CRC32
04 100,0 [0EF844FD] [EF43BDB6] CRC32
05 99,6 [5148A36A] [53A1919F] CRC32
06 100,0 [FC88894E] [C369D25E] CRC32
07 100,0 [C6AE86F3] [2F59AAA9] CRC32
08 99,9 [B0D3AF80] [2172CF51] CRC32
09 100,0 [6EA461D2] [4D66B82F] CRC32
10 100,0 [41971D7D] [F7986D00] CRC32
11 99,9 [D6D86D59] [67D20559] CRC32
12 100,0 [6C27646C] [FE9FD2A4] CRC32
13 100,0 [9549AA19] [64BC47BD] CRC32
14 100,0 [715FFB59] [8DC06428] CRC32
15 100,0 [C3973DBB] [95674E2F] CRC32
16 100,0 [E786D680] [3EDEE4C8] CRC32
17 100,0 [A61244DB] [4BA6BE24] CRC32

foobar2000 1.2 / Dynamic Range Meter 1.1.1
log date: 2016-11-08 18:46:42

––––––––––––––––––––––––––––––––––––––––
Analyzed: ? / Chimes of Freedom: The Songs of Bob Dylan Honoring 50 Years of Amnesty International (1)
Adele / Chimes of Freedom: The Songs of Bob Dylan Honoring 50 Years of Amnesty International (2)
Billy Bragg / Chimes of Freedom: The Songs of Bob Dylan Honoring 50 Years of Amnesty International (3)
Blake Mills / Chimes of Freedom: The Songs of Bob Dylan Honoring 50 Years of Amnesty International (4)
Elvis Costello / Chimes of Freedom: The Songs of Bob Dylan Honoring 50 Years of Amnesty International (5)
Jack's Mannequin / Chimes of Freedom: The Songs of Bob Dylan Honoring 50 Years of Amnesty International (6)
Jackson Browne / Chimes of Freedom: The Songs of Bob Dylan Honoring 50 Years of Amnesty International (7)
Joan Baez / Chimes of Freedom: The Songs of Bob Dylan Honoring 50 Years of Amnesty International (8)
Lenny Kravitz / Chimes of Freedom: The Songs of Bob Dylan Honoring 50 Years of Amnesty International (9)
Miley Cyrus / Chimes of Freedom: The Songs of Bob Dylan Honoring 50 Years of Amnesty International (10)
Natasha Bedingfield / Chimes of Freedom: The Songs of Bob Dylan Honoring 50 Years of Amnesty International (11)
Oren Lavie / Chimes of Freedom: The Songs of Bob Dylan Honoring 50 Years of Amnesty International (12)
Queens Of The Stone Age / Chimes of Freedom: The Songs of Bob Dylan Honoring 50 Years of Amnesty International (13)
Steve Earle & Lucia Micarelli / Chimes of Freedom: The Songs of Bob Dylan Honoring 50 Years of Amnesty International (14)
Sugarland / Chimes of Freedom: The Songs of Bob Dylan Honoring 50 Years of Amnesty International (15)
Sussan Deyhim / Chimes of Freedom: The Songs of Bob Dylan Honoring 50 Years of Amnesty International (16)
The Belle Brigade / Chimes of Freedom: The Songs of Bob Dylan Honoring 50 Years of Amnesty International (17)
––––––––––––––––––––––––––––––––––––––––

DR Peak RMS Duration Track
––––––––––––––––––––––––––––––––––––––––
DR9 0.00 dB -10.74 dB 3:09 08-Angelique Kidjo-Lay, Lady, Lay
DR9 0.00 dB -11.38 dB 4:07 17-Make You Feel My Love (Recorded Live at WXPN)
DR9 0.00 dB -10.94 dB 4:19 06-Lay Down Your Weary Tune
DR8 0.00 dB -9.40 dB 5:31 04-Heart Of Mine
DR10 0.00 dB -12.22 dB 5:13 07-License to Kill
DR7 0.00 dB -8.78 dB 4:27 14-Mr. Tambourine Man
DR7 0.00 dB -8.10 dB 4:21 10-Love Minus Zero,No Limit
DR10 0.00 dB -13.41 dB 5:05 11-Seven Curses (Live)
DR8 0.00 dB -9.56 dB 4:08 02-Rainy Day Woman #12 & 35
DR10 -0.03 dB -11.46 dB 3:33 05-You're Gonna Make Me Lonesome When You Go
DR7 0.00 dB -9.42 dB 4:09 09-Ring Them Bells
DR8 0.00 dB -10.47 dB 4:23 15-4th Time Around
DR8 0.00 dB -9.77 dB 4:09 01-Outlaw Blues
DR7 0.00 dB -8.12 dB 4:44 03-One More Cup of Coffee (Valley Below)
DR5 0.00 dB -7.20 dB 3:57 13-Tonight I'll Be Staying Here With You (Live)
DR8 0.00 dB -10.01 dB 5:18 16-All I Really Want To Do
DR7 0.00 dB -8.05 dB 8:06 12-No Time To Think
––––––––––––––––––––––––––––––––––––––––

Number of tracks: 17
Official DR value: DR8

Samplerate: 44100 Hz
Channels: 2
Bits per sample: 16
Bitrate: 976 kbps
Codec: FLAC
================================================================================


Exact Audio Copy V1.0 beta 2 from 29. April 2011

EAC extraction logfile from 25. January 2012, 14:25

Various Artists / Chimes of Freedom: The Songs of Bob Dylan Disc 3

Used drive : HL-DT-STDVD-RAM GH22LS30 Adapter: 2 ID: 1

Read mode : Secure
Utilize accurate stream : Yes
Defeat audio cache : Yes
Make use of C2 pointers : No

Read offset correction : 102
Overread into Lead-In and Lead-Out : No
Fill up missing offset samples with silence : Yes
Delete leading and trailing silent blocks : No
Null samples used in CRC calculations : Yes
Used interface : Native Win32 interface for Win NT & 2000
Gap handling : Appended to previous track

Used output format : Internal WAV Routines
Sample format : 44.100 Hz; 16 Bit; Stereo


TOC of the extracted CD

Track | Start | Length | Start sector | End sector
––––––––––––––––––––––––––––-
1 | 0:00.00 | 3:39.70 | 0 | 16494
2 | 3:39.70 | 3:36.49 | 16495 | 32743
3 | 7:16.44 | 2:58.08 | 32744 | 46101
4 | 10:14.52 | 3:54.50 | 46102 | 63701
5 | 14:09.27 | 3:58.70 | 63702 | 81621
6 | 18:08.22 | 5:11.70 | 81622 | 105016
7 | 23:20.17 | 3:01.63 | 105017 | 118654
8 | 26:22.05 | 3:13.74 | 118655 | 133203
9 | 29:36.04 | 7:42.38 | 133204 | 167891
10 | 37:18.42 | 3:06.24 | 167892 | 181865
11 | 40:24.66 | 3:01.18 | 181866 | 195458
12 | 43:26.09 | 3:52.15 | 195459 | 212873
13 | 47:18.24 | 4:32.03 | 212874 | 233276
14 | 51:50.27 | 3:06.67 | 233277 | 247293
15 | 54:57.19 | 5:01.70 | 247294 | 269938
16 | 59:59.14 | 3:22.70 | 269939 | 285158
17 | 63:22.09 | 3:36.10 | 285159 | 301368
18 | 66:58.19 | 4:11.70 | 301369 | 320263
19 | 71:10.14 | 3:49.05 | 320264 | 337443
20 | 74:59.19 | 4:03.21 | 337444 | 355689


Track 1

Filename E:\Lossless-Prep\VA-Chimes of Freedom- The Songs of Bob Dylan Disc 3\01-K'NAAN-With God On Our Side.wav

Pre-gap length 0:00:02.00

Peak level 100.0 %
Extraction speed 1.7 X
Track quality 100.0 %
Test CRC 19B25789
Copy CRC 19B25789
Track not present in AccurateRip database
Copy OK

Track 2

Filename E:\Lossless-Prep\VA-Chimes of Freedom- The Songs of Bob Dylan Disc 3\02-Ximena Sariñana-I Want You.wav

Pre-gap length 0:00:01.40

Peak level 99.1 %
Extraction speed 1.9 X
Track quality 100.0 %
Test CRC 772270CB
Copy CRC 772270CB
Track not present in AccurateRip database
Copy OK

Track 3

Filename E:\Lossless-Prep\VA-Chimes of Freedom- The Songs of Bob Dylan Disc 3\03-Neil Finn with Pajama Club-She Belongs to Me.wav

Peak level 99.7 %
Extraction speed 2.0 X
Track quality 100.0 %
Test CRC 7FE0DA88
Copy CRC 7FE0DA88
Track not present in AccurateRip database
Copy OK

Track 4

Filename E:\Lossless-Prep\VA-Chimes of Freedom- The Songs of Bob Dylan Disc 3\04-Bryan Ferry-Bob Dylan's Dream.wav

Pre-gap length 0:00:01.57

Peak level 99.5 %
Extraction speed 2.2 X
Track quality 100.0 %
Test CRC 96135323
Copy CRC 96135323
Track not present in AccurateRip database
Copy OK

Track 5

Filename E:\Lossless-Prep\VA-Chimes of Freedom- The Songs of Bob Dylan Disc 3\05-Zee Avi-Tomorrow Is A Long Time.wav

Pre-gap length 0:00:00.96

Peak level 89.1 %
Extraction speed 2.3 X
Track quality 100.0 %
Test CRC EE2011F0
Copy CRC EE2011F0
Track not present in AccurateRip database
Copy OK

Track 6

Filename E:\Lossless-Prep\VA-Chimes of Freedom- The Songs of Bob Dylan Disc 3\06-Carly Simon-Just Like a Woman.wav

Peak level 88.1 %
Extraction speed 2.6 X
Track quality 100.0 %
Test CRC C5E30645
Copy CRC C5E30645
Track not present in AccurateRip database
Copy OK

Track 7

Filename E:\Lossless-Prep\VA-Chimes of Freedom- The Songs of Bob Dylan Disc 3\07-Flogging Molly-The Times They Are A-Changin'.wav

Pre-gap length 0:00:01.32

Peak level 100.0 %
Extraction speed 2.5 X
Track quality 100.0 %
Test CRC 13C0BF1A
Copy CRC 13C0BF1A
Track not present in AccurateRip database
Copy OK

Track 8

Filename E:\Lossless-Prep\VA-Chimes of Freedom- The Songs of Bob Dylan Disc 3\08-Fistful Of Mercy-Buckets Of Rain.wav

Pre-gap length 0:00:01.18

Peak level 99.1 %
Extraction speed 2.5 X
Track quality 100.0 %
Test CRC D18AB6CC
Copy CRC D18AB6CC
Track not present in AccurateRip database
Copy OK

Track 9

Filename E:\Lossless-Prep\VA-Chimes of Freedom- The Songs of Bob Dylan Disc 3\09-Joe Perry-Man Of Peace.wav

Pre-gap length 0:00:01.33

Peak level 100.0 %
Extraction speed 3.0 X
Track quality 100.0 %
Test CRC 796E938E
Copy CRC 796E938E
Track not present in AccurateRip database
Copy OK

Track 10

Filename E:\Lossless-Prep\VA-Chimes of Freedom- The Songs of Bob Dylan Disc 3\10-Bad Religion-It's All Over Now, Baby Blue.wav

Pre-gap length 0:00:00.77

Peak level 100.0 %
Extraction speed 2.9 X
Track quality 100.0 %
Test CRC 14FA3703
Copy CRC 14FA3703
Track not present in AccurateRip database
Copy OK

Track 11

Filename E:\Lossless-Prep\VA-Chimes of Freedom- The Songs of Bob Dylan Disc 3\11-My Chemical Romance-Desolation Row (Live).wav

Pre-gap length 0:00:01.32

Peak level 99.7 %
Extraction speed 2.4 X
Track quality 99.9 %
Test CRC D92751C3
Copy CRC D92751C3
Track not present in AccurateRip database
Copy OK

Track 12

Filename E:\Lossless-Prep\VA-Chimes of Freedom- The Songs of Bob Dylan Disc 3\12-RedOne featuring Nabil Khayat-Knockin' on Heaven's Door.wav

Pre-gap length 0:00:01.42

Peak level 100.0 %
Extraction speed 3.2 X
Track quality 100.0 %
Test CRC 76688660
Copy CRC 76688660
Track not present in AccurateRip database
Copy OK

Track 13

Filename E:\Lossless-Prep\VA-Chimes of Freedom- The Songs of Bob Dylan Disc 3\13-Paul Rodgers & Nils Lofgren-Abandoned Love.wav

Pre-gap length 0:00:01.04

Peak level 99.9 %
Extraction speed 3.3 X
Track quality 100.0 %
Test CRC 04923EAB
Copy CRC 04923EAB
Track not present in AccurateRip database
Copy OK

Track 14

Filename E:\Lossless-Prep\VA-Chimes of Freedom- The Songs of Bob Dylan Disc 3\14-Darren Criss featuring Chuck Criss and Freelance Whales-New Morning.wav

Pre-gap length 0:00:00.80

Peak level 98.7 %
Extraction speed 2.7 X
Track quality 99.9 %
Test CRC E24FC1A6
Copy CRC E24FC1A6
Track not present in AccurateRip database
Copy OK

Track 15

Filename E:\Lossless-Prep\VA-Chimes of Freedom- The Songs of Bob Dylan Disc 3\15-Cage the Elephant-The Lonesome Death of Hattie Carroll.wav

Pre-gap length 0:00:01.50

Peak level 99.5 %
Extraction speed 3.5 X
Track quality 100.0 %
Test CRC 4D6FCCCF
Copy CRC 4D6FCCCF
Track not present in AccurateRip database
Copy OK

Track 16

Filename E:\Lossless-Prep\VA-Chimes of Freedom- The Songs of Bob Dylan Disc 3\16-Band of Skulls-It Ain't Me, Babe.wav

Pre-gap length 0:00:02.20

Peak level 98.9 %
Extraction speed 3.5 X
Track quality 100.0 %
Test CRC 9F468D3D
Copy CRC 9F468D3D
Track not present in AccurateRip database
Copy OK

Track 17

Filename E:\Lossless-Prep\VA-Chimes of Freedom- The Songs of Bob Dylan Disc 3\17-Sinéad O'Connor-Property of Jesus.wav

Pre-gap length 0:00:01.10

Peak level 100.0 %
Extraction speed 3.1 X
Track quality 99.9 %
Test CRC FC3E7194
Copy CRC FC3E7194
Track not present in AccurateRip database
Copy OK

Track 18

Filename E:\Lossless-Prep\VA-Chimes of Freedom- The Songs of Bob Dylan Disc 3\18-Ed Roland and The Sweet Tea Project-Shelter From The Storm.wav

Pre-gap length 0:00:01.53

Peak level 100.0 %
Extraction speed 3.7 X
Track quality 100.0 %
Test CRC 777495B0
Copy CRC 777495B0
Track not present in AccurateRip database
Copy OK

Track 19

Filename E:\Lossless-Prep\VA-Chimes of Freedom- The Songs of Bob Dylan Disc 3\19-Ke$ha-Don't Think Twice, It's All Right.wav

Pre-gap length 0:00:01.44

Peak level 99.1 %
Extraction speed 3.3 X
Track quality 99.9 %
Test CRC 5EDFEDA0
Copy CRC 5EDFEDA0
Track not present in AccurateRip database
Copy OK

Track 20

Filename E:\Lossless-Prep\VA-Chimes of Freedom- The Songs of Bob Dylan Disc 3\20-Kronos Quartet-Don't Think Twice, It's All Right (Instrumental).wav

Pre-gap length 0:00:00.93

Peak level 99.1 %
Extraction speed 3.8 X
Track quality 100.0 %
Test CRC D3386697
Copy CRC D3386697
Track not present in AccurateRip database
Copy OK


None of the tracks are present in the AccurateRip database

No errors occurred

End of status report

==== Log checksum 9796A97028F5F76B0609AD3BED23392E1D9198A95B82FDA96E52649ECDBA1EB5 ====

[CUETools log; Date: 08.11.2016 18:44:08; Version: 2.1.4]
[CTDB TOCID: nDkI6tNu0sKFhJAXTLU4M0XUhHM-] found.
Track | CTDB Status
1 | (223/223) Accurately ripped
2 | (223/223) Accurately ripped
3 | (221/223) Accurately ripped, or (2/223) differs in 176 samples @01:21:61
4 | (223/223) Accurately ripped
5 | (223/223) Accurately ripped
6 | (222/223) Accurately ripped
7 | (223/223) Accurately ripped
8 | (222/223) Accurately ripped
9 | (220/223) Accurately ripped
10 | (223/223) Accurately ripped
11 | (222/223) Accurately ripped
12 | (223/223) Accurately ripped
13 | (222/223) Accurately ripped
14 | (222/223) Accurately ripped
15 | (223/223) Accurately ripped
16 | (222/223) Accurately ripped
17 | (222/223) Accurately ripped
18 | (222/223) Accurately ripped
19 | (221/223) Accurately ripped
20 | (215/223) Accurately ripped
[AccurateRip ID: 00388cd4-03423073-f5128614] found.
Track [ CRC | V2 ] Status
01 [11495bcb|ef326a63] (019+107/277) Accurately ripped
02 [9299358d|951f7b22] (019+108/280) Accurately ripped
03 [f8965381|9e8df875] (019+105/277) Accurately ripped
04 [68f68d64|14e6d6ff] (019+106/278) Accurately ripped
05 [badd17ac|136a8188] (019+105/277) Accurately ripped
06 [4390c211|ffb6f3d2] (019+108/280) Accurately ripped
07 [643f17a1|34256aa1] (019+108/280) Accurately ripped
08 [e489f2d9|50cd798a] (019+107/279) Accurately ripped
09 [c24ad951|ffe409bd] (019+107/279) Accurately ripped
10 [bd1c523c|9c7baf4a] (019+107/277) Accurately ripped
11 [4cf0aafd|319743cf] (019+107/275) Accurately ripped
12 [4cbe7d33|d2c5f2cd] (019+107/276) Accurately ripped
13 [818c46b5|2aec4869] (019+108/277) Accurately ripped
14 [3b941b0a|85ac4949] (019+108/278) Accurately ripped
15 [d8c6d7e2|49111747] (019+109/277) Accurately ripped
16 [877dd78a|a3f97d75] (019+108/279) Accurately ripped
17 [6504f2fe|fbb30739] (019+107/275) Accurately ripped
18 [2d49b25e|b28b543a] (019+106/276) Accurately ripped
19 [2d2f0806|1ec77511] (019+106/272) Accurately ripped
20 [866d3aad|00803a03] (019+102/263) Accurately ripped
Offsetted by 12:
01 [ab030bed] (021/277) Accurately ripped
02 [03584fc9] (021/280) Accurately ripped
03 [779647b4] (021/277) Accurately ripped
04 [5245e2e0] (021/278) Accurately ripped
05 [a5dc4f72] (021/277) Accurately ripped
06 [939f8463] (021/280) Accurately ripped
07 [cf7259d7] (021/280) Accurately ripped
08 [cb3aef2a] (021/279) Accurately ripped
09 [558fef37] (022/279) Accurately ripped
10 [4a2a1108] (021/277) Accurately ripped
11 [a5f589d2] (018/275) Accurately ripped
12 [3ead46b3] (020/276) Accurately ripped
13 [ab4bc781] (020/277) Accurately ripped
14 [d66027b2] (021/278) Accurately ripped
15 [227d3f93] (021/277) Accurately ripped
16 [60a30295] (021/279) Accurately ripped
17 [c2ae0d79] (020/275) Accurately ripped
18 [da9d5253] (020/276) Accurately ripped
19 [a56df793] (020/272) Accurately ripped
20 [a254cd0a] (020/263) Accurately ripped
Offsetted by -658:
01 [c108af49] (000/277) No match (V2 was not tested)
02 [1170dcaf] (000/280) No match (V2 was not tested)
03 [be58ac39] (000/277) No match (V2 was not tested)
04 [a0c01770] (000/278) No match (V2 was not tested)
05 [03e0127f] (000/277) No match (V2 was not tested)
06 [10c884fb] (000/280) No match (V2 was not tested)
07 [ab259acd] (000/280) No match (V2 was not tested)
08 [e59f5f9a] (000/279) No match (V2 was not tested)
09 [8e5f1442] (000/279) No match (V2 was not tested)
10 [316f57ba] (000/277) No match (V2 was not tested)
11 [f2ecc98d] (000/275) No match (V2 was not tested)
12 [9c2931ce] (000/276) No match (V2 was not tested)
13 [c758a678] (000/277) No match (V2 was not tested)
14 [93de22a6] (000/278) No match (V2 was not tested)
15 [f3d7ba5d] (000/277) No match (V2 was not tested)
16 [9833295f] (000/279) No match (V2 was not tested)
17 [97496254] (000/275) No match (V2 was not tested)
18 [691dbae9] (000/276) No match (V2 was not tested)
19 [37ef430c] (000/272) No match (V2 was not tested)
20 [da040ef4] (000/263) No match (V2 was not tested)
Offsetted by -6:
01 [44ff82af] (000/277) No match (V2 was not tested)
02 [242b286a] (002/280) Accurately ripped
03 [5f6e596c] (002/277) Accurately ripped
04 [b76f27a5] (002/278) Accurately ripped
05 [a9b65fce] (002/277) Accurately ripped
06 [28a34848] (002/280) Accurately ripped
07 [804f7685] (002/280) Accurately ripped
08 [3687c28d] (002/279) Accurately ripped
09 [50db885e] (002/279) Accurately ripped
10 [f653c290] (002/277) Accurately ripped
11 [2072bb91] (002/275) Accurately ripped
12 [336df86b] (002/276) Accurately ripped
13 [f4408650] (002/277) Accurately ripped
14 [8bc8efc1] (002/278) Accurately ripped
15 [b324f74d] (002/277) Accurately ripped
16 [d3233396] (002/279) Accurately ripped
17 [3636e5bf] (002/275) Accurately ripped
18 [4707daee] (002/276) Accurately ripped
19 [9693d8e0] (000/272) No match (V2 was not tested)
20 [a1cc7181] (000/263) No match (V2 was not tested)
Offsetted by 18:
01 [846bef7c] (000/277) No match
02 [3bb15ce4] (000/280) No match
03 [11421b77] (000/277) No match
04 [028076a1] (000/278) No match
05 [80569757] (000/277) No match
06 [b028cced] (000/280) No match
07 [b375faf1] (000/280) No match
08 [efe11f77] (000/279) No match
09 [02367a2b] (000/279) No match
10 [717ca0b1] (000/277) No match
11 [dc9283d3] (000/275) No match (V2 was not tested)
12 [57fecb7c] (000/276) No match
13 [199478c3] (000/277) No match (V2 was not tested)
14 [c2658faa] (000/278) No match
15 [4754f36b] (000/277) No match
16 [f70189ad] (000/279) No match
17 [626c8b0d] (000/275) No match
18 [b09c1ad9] (000/276) No match
19 [17b926b6] (000/272) No match
20 [30f03f87] (000/263) No match

Track Peak [ CRC32 ] [W/O NULL] [ LOG ]
– 100,0 [A4BE741D] [2324F379]
01 100,0 [19B25789] [F789A391] CRC32
02 99,1 [772270CB] [55448E21] CRC32
03 99,7 [7FE0DA88] [3E6615C3] CRC32
04 99,5 [96135323] [CEEAE5A4] CRC32
05 89,1 [EE2011F0] [0BBDB27F] CRC32
06 88,1 [C5E30645] [6F924D27] CRC32
07 100,0 [13C0BF1A] [A43FFD76] CRC32
08 99,1 [D18AB6CC] [E16184E9] CRC32
09 100,0 [796E938E] [921A26F0] CRC32
10 100,0 [14FA3703] [9570B51E] CRC32
11 99,7 [D92751C3] [DACE776D] CRC32
12 100,0 [76688660] [3B0CD651] CRC32
13 99,9 [04923EAB] [211A763B] CRC32
14 98,7 [E24FC1A6] [8BF0E9FF] CRC32
15 99,5 [4D6FCCCF] [7F6EC558] CRC32
16 98,9 [9F468D3D] [95558677] CRC32
17 100,0 [FC3E7194] [92AC7E37] CRC32
18 100,0 [777495B0] [3C783433] CRC32
19 99,1 [5EDFEDA0] [F1B1649A] CRC32
20 99,1 [D3386697] [7B5ED487] CRC32

foobar2000 1.2 / Dynamic Range Meter 1.1.1
log date: 2016-11-08 18:47:15

––––––––––––––––––––––––––––––––––––––––
Analyzed: Bad Religion / Chimes of Freedom: The Songs of Bob Dylan Honoring 50 Years of Amnesty International (1)
Band of Skulls / Chimes of Freedom: The Songs of Bob Dylan Honoring 50 Years of Amnesty International (2)
Bryan Ferry / Chimes of Freedom: The Songs of Bob Dylan Honoring 50 Years of Amnesty International (3)
Cage the Elephant / Chimes of Freedom: The Songs of Bob Dylan Honoring 50 Years of Amnesty International (4)
Carly Simon / Chimes of Freedom: The Songs of Bob Dylan Honoring 50 Years of Amnesty International (5)
Darren Criss featuring Chuck Criss and Freelance Whales / Chimes of Freedom: The Songs of Bob Dylan Honoring 50 Years of Amnesty International (6)
Ed Roland and The Sweet Tea Project / Chimes of Freedom: The Songs of Bob Dylan Honoring 50 Years of Amnesty International (7)
Fistful Of Mercy / Chimes of Freedom: The Songs of Bob Dylan Honoring 50 Years of Amnesty International (8)
Flogging Molly / Chimes of Freedom: The Songs of Bob Dylan Honoring 50 Years of Amnesty International (9)
Joe Perry / Chimes of Freedom: The Songs of Bob Dylan Honoring 50 Years of Amnesty International (10)
Ke$ha / Chimes of Freedom: The Songs of Bob Dylan Honoring 50 Years of Amnesty International (11)
K'NAAN / Chimes of Freedom: The Songs of Bob Dylan Honoring 50 Years of Amnesty International (12)
Kronos Quartet / Chimes of Freedom: The Songs of Bob Dylan Honoring 50 Years of Amnesty International (13)
My Chemical Romance / Chimes of Freedom: The Songs of Bob Dylan Honoring 50 Years of Amnesty International (14)
Neil Finn with Pajama Club / Chimes of Freedom: The Songs of Bob Dylan Honoring 50 Years of Amnesty International (15)
Paul Rodgers & Nils Lofgren / Chimes of Freedom: The Songs of Bob Dylan Honoring 50 Years of Amnesty International (16)
RedOne featuring Nabil Khayat / Chimes of Freedom: The Songs of Bob Dylan Honoring 50 Years of Amnesty International (17)
Sinéad O'Connor / Chimes of Freedom: The Songs of Bob Dylan Honoring 50 Years of Amnesty International (18)
Ximena Sariñana / Chimes of Freedom: The Songs of Bob Dylan Honoring 50 Years of Amnesty International (19)
Zee Avi / Chimes of Freedom: The Songs of Bob Dylan Honoring 50 Years of Amnesty International (20)
––––––––––––––––––––––––––––––––––––––––

DR Peak RMS Duration Track
––––––––––––––––––––––––––––––––––––––––
DR6 0.00 dB -6.76 dB 3:06 10-It's All Over Now, Baby Blue
DR10 -0.09 dB -11.96 dB 3:23 16-It Ain't Me, Babe
DR11 -0.04 dB -13.68 dB 3:55 04-Bob Dylan's Dream
DR9 -0.04 dB -11.93 dB 5:02 15-The Lonesome Death of Hattie Carroll
DR10 -1.09 dB -15.70 dB 5:12 06-Just Like a Woman
DR9 -0.11 dB -12.84 dB 3:07 14-New Morning
DR7 0.00 dB -9.08 dB 4:12 18-Shelter From The Storm
DR9 -0.07 dB -9.95 dB 3:14 08-Buckets Of Rain
DR6 0.00 dB -9.06 dB 3:02 07-The Times They Are A-Changin'
DR6 0.00 dB -7.27 dB 7:43 09-Man Of Peace
DR11 -0.07 dB -14.16 dB 3:49 19-Don't Think Twice, It's All Right
DR8 0.00 dB -8.82 dB 3:40 01-With God On Our Side
DR7 -0.08 dB -9.24 dB 4:03 20-Don't Think Twice, It's All Right (Instrumental)
DR6 -0.02 dB -7.47 dB 3:01 11-Desolation Row (Live)
DR8 -0.02 dB -9.26 dB 2:58 03-She Belongs to Me
DR7 0.00 dB -8.01 dB 4:32 13-Abandoned Love
DR7 0.00 dB -9.32 dB 3:52 12-Knockin' on Heaven's Door
DR6 0.00 dB -7.04 dB 3:36 17-Property of Jesus
DR8 -0.07 dB -10.88 dB 3:37 02-I Want You
DR11 -1.00 dB -15.52 dB 3:59 05-Tomorrow Is A Long Time
––––––––––––––––––––––––––––––––––––––––

Number of tracks: 20
Official DR value: DR8

Samplerate: 44100 Hz
Channels: 2
Bits per sample: 16
Bitrate: 721 kbps
Codec: FLAC
================================================================================


Exact Audio Copy V1.0 beta 2 from 29. April 2011

EAC extraction logfile from 25. January 2012, 15:30

Various Artists / Chimes of Freedom: The Songs of Bob Dylan Disc 4

Used drive : HL-DT-STDVD-RAM GH22LS30 Adapter: 2 ID: 1

Read mode : Secure
Utilize accurate stream : Yes
Defeat audio cache : Yes
Make use of C2 pointers : No

Read offset correction : 102
Overread into Lead-In and Lead-Out : No
Fill up missing offset samples with silence : Yes
Delete leading and trailing silent blocks : No
Null samples used in CRC calculations : Yes
Used interface : Native Win32 interface for Win NT & 2000
Gap handling : Appended to previous track

Used output format : Internal WAV Routines
Sample format : 44.100 Hz; 16 Bit; Stereo


TOC of the extracted CD

Track | Start | Length | Start sector | End sector
––––––––––––––––––––––––––––-
1 | 0:00.00 | 4:09.62 | 0 | 18736
2 | 4:09.62 | 2:48.58 | 18737 | 31394
3 | 6:58.45 | 7:24.50 | 31395 | 64744
4 | 14:23.20 | 5:01.19 | 64745 | 87338
5 | 19:24.39 | 3:50.46 | 87339 | 104634
6 | 23:15.10 | 4:58.50 | 104635 | 127034
7 | 28:13.60 | 4:47.50 | 127035 | 148609
8 | 33:01.35 | 4:49.17 | 148610 | 170301
9 | 37:50.52 | 7:03.15 | 170302 | 202041
10 | 44:53.67 | 2:17.58 | 202042 | 212374
11 | 47:11.50 | 3:29.50 | 212375 | 228099
12 | 50:41.25 | 4:42.00 | 228100 | 249249
13 | 55:23.25 | 2:38.07 | 249250 | 261106
14 | 58:01.32 | 4:56.70 | 261107 | 283376
15 | 62:58.27 | 3:53.70 | 283377 | 300921
16 | 66:52.22 | 2:28.01 | 300922 | 312022
17 | 69:20.23 | 3:15.37 | 312023 | 326684
18 | 72:35.60 | 7:12.67 | 326685 | 359151


Track 1

Filename E:\Lossless-Prep\VA-Chimes of Freedom- The Songs of Bob Dylan Disc 4\01-Maroon 5-I Shall Be Released.wav

Pre-gap length 0:00:02.00

Peak level 100.0 %
Extraction speed 1.7 X
Track quality 100.0 %
Test CRC 1F1C60EA
Copy CRC 1F1C60EA
Track not present in AccurateRip database
Copy OK

Track 2

Filename E:\Lossless-Prep\VA-Chimes of Freedom- The Songs of Bob Dylan Disc 4\02-Carolina Chocolate Drops-Political World.wav

Pre-gap length 0:00:00.80

Peak level 100.0 %
Extraction speed 1.8 X
Track quality 100.0 %
Test CRC 02CEF0A9
Copy CRC 02CEF0A9
Track not present in AccurateRip database
Copy OK

Track 3

Filename E:\Lossless-Prep\VA-Chimes of Freedom- The Songs of Bob Dylan Disc 4\03-Seal & Jeff Beck-Like A Rolling Stone.wav

Peak level 100.0 %
Extraction speed 2.3 X
Track quality 100.0 %
Test CRC 6045275A
Copy CRC 6045275A
Track not present in AccurateRip database
Copy OK

Track 4

Filename E:\Lossless-Prep\VA-Chimes of Freedom- The Songs of Bob Dylan Disc 4\04-Taj Mahal-Bob Dylan's 115th Dream.wav

Pre-gap length 0:00:01.04

Peak level 100.0 %
Extraction speed 2.4 X
Track quality 100.0 %
Test CRC 3CDADCFD
Copy CRC 3CDADCFD
Track not present in AccurateRip database
Copy OK

Track 5

Filename E:\Lossless-Prep\VA-Chimes of Freedom- The Songs of Bob Dylan Disc 4\05-Dierks Bentley-Senor (Tales of Yankee Power) (Live).wav

Pre-gap length 0:00:01.44

Peak level 98.9 %
Extraction speed 2.5 X
Track quality 100.0 %
Test CRC 7E2DD908
Copy CRC 7E2DD908
Track not present in AccurateRip database
Copy OK

Track 6

Filename E:\Lossless-Prep\VA-Chimes of Freedom- The Songs of Bob Dylan Disc 4\06-Mick Hucknall-One Of Us Must Know (Sooner Or Later).wav

Pre-gap length 0:00:01.57

Peak level 100.0 %
Extraction speed 2.7 X
Track quality 100.0 %
Test CRC 65D5D1D5
Copy CRC 65D5D1D5
Track not present in AccurateRip database
Copy OK

Track 7

Filename E:\Lossless-Prep\VA-Chimes of Freedom- The Songs of Bob Dylan Disc 4\07-Thea Gilmore-I'll Remember You.wav

Pre-gap length 0:00:01.53

Peak level 100.0 %
Extraction speed 2.8 X
Track quality 100.0 %
Test CRC 2E50F570
Copy CRC 2E50F570
Track not present in AccurateRip database
Copy OK

Track 8

Filename E:\Lossless-Prep\VA-Chimes of Freedom- The Songs of Bob Dylan Disc 4\08-State Radio-John Brown.wav

Peak level 100.0 %
Extraction speed 2.9 X
Track quality 100.0 %
Test CRC B3C1265C
Copy CRC B3C1265C
Track not present in AccurateRip database
Copy OK

Track 9

Filename E:\Lossless-Prep\VA-Chimes of Freedom- The Songs of Bob Dylan Disc 4\09-Dave Matthews Band-All Along the Watchtower (Live).wav

Pre-gap length 0:00:01.50

Peak level 100.0 %
Extraction speed 3.2 X
Track quality 100.0 %
Test CRC 1DE2F4D8
Copy CRC 1DE2F4D8
Track not present in AccurateRip database
Copy OK

Track 10

Filename E:\Lossless-Prep\VA-Chimes of Freedom- The Songs of Bob Dylan Disc 4\10-Michael Franti-Subterranean Homesick Blues.wav

Pre-gap length 0:00:00.77

Peak level 100.0 %
Extraction speed 2.4 X
Track quality 99.9 %
Test CRC 90541439
Copy CRC 90541439
Track not present in AccurateRip database
Copy OK

Track 11

Filename E:\Lossless-Prep\VA-Chimes of Freedom- The Songs of Bob Dylan Disc 4\11-We Are Augustines-Mama, You Been On My Mind.wav

Pre-gap length 0:00:01.26

Peak level 98.9 %
Extraction speed 3.1 X
Track quality 100.0 %
Test CRC 6C49AEA0
Copy CRC 6C49AEA0
Track not present in AccurateRip database
Copy OK

Track 12

Filename E:\Lossless-Prep\VA-Chimes of Freedom- The Songs of Bob Dylan Disc 4\12-Lucinda Williams-Tryin' To Get To Heaven.wav

Pre-gap length 0:00:01.45

Peak level 100.0 %
Extraction speed 3.4 X
Track quality 100.0 %
Test CRC 2C05C911
Copy CRC 2C05C911
Track not present in AccurateRip database
Copy OK

Track 13

Filename E:\Lossless-Prep\VA-Chimes of Freedom- The Songs of Bob Dylan Disc 4\13-Kris Kristofferson-Quinn The Eskimo.wav

Pre-gap length 0:00:01.49

Peak level 99.2 %
Extraction speed 3.2 X
Track quality 100.0 %
Test CRC 4BF6269F
Copy CRC 4BF6269F
Track not present in AccurateRip database
Copy OK

Track 14

Filename E:\Lossless-Prep\VA-Chimes of Freedom- The Songs of Bob Dylan Disc 4\14-Eric Burdon-Gotta Serve Somebody.wav

Pre-gap length 0:00:00.88

Peak level 100.0 %
Extraction speed 3.6 X
Track quality 100.0 %
Test CRC 8734F237
Copy CRC 8734F237
Track not present in AccurateRip database
Copy OK

Track 15

Filename E:\Lossless-Prep\VA-Chimes of Freedom- The Songs of Bob Dylan Disc 4\15-Evan Rachel Wood-I'd Have You Anytime.wav

Pre-gap length 0:00:00.93

Peak level 99.0 %
Extraction speed 3.5 X
Track quality 100.0 %
Test CRC B246D4CB
Copy CRC B246D4CB
Track not present in AccurateRip database
Copy OK

Track 16

Filename E:\Lossless-Prep\VA-Chimes of Freedom- The Songs of Bob Dylan Disc 4\16-Marianne Faithfull-Baby Let Me Follow You Down (Live).wav

Pre-gap length 0:00:00.94

Peak level 100.0 %
Extraction speed 3.3 X
Track quality 100.0 %
Test CRC 4861BDFC
Copy CRC 4861BDFC
Track not present in AccurateRip database
Copy OK

Track 17

Filename E:\Lossless-Prep\VA-Chimes of Freedom- The Songs of Bob Dylan Disc 4\17-Pete Seeger-Forever Young.wav

Pre-gap length 0:00:01.70

Peak level 99.6 %
Extraction speed 3.6 X
Track quality 100.0 %
Test CRC BDBF5A92
Copy CRC BDBF5A92
Track not present in AccurateRip database
Copy OK

Track 18

Filename E:\Lossless-Prep\VA-Chimes of Freedom- The Songs of Bob Dylan Disc 4\18-Bob Dylan-Chimes Of Freedom.wav

Pre-gap length 0:00:03.38

Peak level 100.0 %
Extraction speed 3.7 X
Track quality 99.9 %
Test CRC 696A386A
Copy CRC 696A386A
Track not present in AccurateRip database
Copy OK


None of the tracks are present in the AccurateRip database

No errors occurred

End of status report

==== Log checksum 0259E4A2978253CD696F96E6CE19F91BB36BE347079AE14329B135BE1C15DA98 ====

[CUETools log; Date: 08.11.2016 18:44:33; Version: 2.1.4]
[CTDB TOCID: 6yoZ3bKH3LxxHqSttji6zLoMwhs-] found.
Track | CTDB Status
1 | (220/220) Accurately ripped
2 | (220/220) Accurately ripped
3 | (218/220) Accurately ripped
4 | (219/220) Accurately ripped
5 | (219/220) Accurately ripped
6 | (219/220) Accurately ripped
7 | (219/220) Accurately ripped
8 | (217/220) Accurately ripped
9 | (218/220) Accurately ripped
10 | (220/220) Accurately ripped
11 | (219/220) Accurately ripped
12 | (220/220) Accurately ripped
13 | (220/220) Accurately ripped
14 | (219/220) Accurately ripped
15 | (218/220) Accurately ripped
16 | (219/220) Accurately ripped
17 | (219/220) Accurately ripped
18 | (211/220) Accurately ripped
[AccurateRip ID: 00353857-02bfe159-0712b412] found.
Track [ CRC | V2 ] Status
01 [f344e760|77e7bd7a] (020+105/276) Accurately ripped
02 [fefafb6c|8814f257] (020+104/275) Accurately ripped
03 [7f8bd1b9|d772624d] (020+106/278) Accurately ripped
04 [7093f88b|ba5f8b37] (020+106/279) Accurately ripped
05 [cfc329f4|538e92ac] (020+104/278) Accurately ripped
06 [4b6c5871|6037e695] (021+105/279) Accurately ripped
07 [885383d0|e118bac4] (020+104/277) Accurately ripped
08 [56fccaac|89c3d61d] (020+103/275) Accurately ripped
09 [1c7643bd|47a417b1] (020+102/274) Accurately ripped
10 [39c66131|2e7b6bee] (020+101/273) Accurately ripped
11 [b0826070|00d02c6b] (020+103/276) Accurately ripped
12 [9fd13f61|98eacb66] (020+104/277) Accurately ripped
13 [982c847e|92cca51a] (020+105/277) Accurately ripped
14 [f8ef809e|3a465478] (020+105/273) Accurately ripped
15 [4cb076a0|ff473a43] (020+104/273) Accurately ripped
16 [9d16f152|4f31fbda] (020+103/273) Accurately ripped
17 [ce37be83|b559b8ff] (019+103/273) Accurately ripped
18 [a95efa93|831e5337] (019+099/261) Accurately ripped
Offsetted by 12:
01 [0a4b9e24] (020/276) Accurately ripped
02 [13874383] (020/275) Accurately ripped
03 [2718f689] (021/278) Accurately ripped
04 [c32c86d3] (021/279) Accurately ripped
05 [8a9cbb7e] (021/278) Accurately ripped
06 [c2e7c2fe] (021/279) Accurately ripped
07 [2e8eac89] (021/277) Accurately ripped
08 [cf35090a] (018/275) Accurately ripped
09 [a4e75ee5] (021/274) Accurately ripped
10 [1cde9541] (021/273) Accurately ripped
11 [8bfeec80] (021/276) Accurately ripped
12 [c1270705] (020/277) Accurately ripped
13 [2e141952] (021/277) Accurately ripped
14 [f7a19912] (020/273) Accurately ripped
15 [740944cb] (020/273) Accurately ripped
16 [f97b929d] (020/273) Accurately ripped
17 [d5f08902] (021/273) Accurately ripped
18 [c1e522f1] (021/261) Accurately ripped
Offsetted by -682:
01 [c81d64dd] (000/276) No match (V2 was not tested)
02 [54a24c12] (000/275) No match (V2 was not tested)
03 [f79b72b8] (000/278) No match (V2 was not tested)
04 [df163c56] (000/279) No match (V2 was not tested)
05 [dd104e88] (000/278) No match (V2 was not tested)
06 [b49e2ae9] (000/279) No match (V2 was not tested)
07 [c80eb867] (000/277) No match (V2 was not tested)
08 [3c9662ed] (000/275) No match (V2 was not tested)
09 [23244583] (000/274) No match (V2 was not tested)
10 [45ceeaca] (000/273) No match (V2 was not tested)
11 [201c90f9] (000/276) No match (V2 was not tested)
12 [9bd6283d] (000/277) No match (V2 was not tested)
13 [f2d57070] (000/277) No match (V2 was not tested)
14 [b8da9bd2] (000/273) No match (V2 was not tested)
15 [d4e10519] (000/273) No match (V2 was not tested)
16 [4f94fc68] (000/273) No match (V2 was not tested)
17 [7577836a] (000/273) No match (V2 was not tested)
18 [38caa6d8] (000/261) No match (V2 was not tested)
Offsetted by -6:
01 [c6289755] (002/276) Accurately ripped
02 [190a3224] (002/275) Accurately ripped
03 [47028688] (002/278) Accurately ripped
04 [c874c4c9] (002/279) Accurately ripped
05 [3960274e] (002/278) Accurately ripped
06 [0cb7a32c] (002/279) Accurately ripped
07 [febc6f74] (002/277) Accurately ripped
08 [baad0bad] (002/275) Accurately ripped
09 [f3b56f57] (002/274) Accurately ripped
10 [b37bc72d] (002/273) Accurately ripped
11 [c2860f38] (002/276) Accurately ripped
12 [894d5b90] (002/277) Accurately ripped
13 [eb26ba10] (002/277) Accurately ripped
14 [7992f466] (002/273) Accurately ripped
15 [83b00f8b] (002/273) Accurately ripped
16 [6ee620ae] (002/273) Accurately ripped
17 [bd5612df] (002/273) Accurately ripped
18 [decf86fa] (000/261) No match (V2 was not tested)

Track Peak [ CRC32 ] [W/O NULL] [ LOG ]
– 100,0 [4F015955] [8E08D0D3]
01 100,0 [1F1C60EA] [B214E1FC] CRC32
02 100,0 [02CEF0A9] [1756040B] CRC32
03 100,0 [6045275A] [A032C98D] CRC32
04 100,0 [3CDADCFD] [21B9E2EE] CRC32
05 98,9 [7E2DD908] [70B356ED] CRC32
06 100,0 [65D5D1D5] [AA3CAC24] CRC32
07 100,0 [2E50F570] [DAC0CD0B] CRC32
08 100,0 [B3C1265C] [AF1A59BE] CRC32
09 100,0 [1DE2F4D8] [B730228D] CRC32
10 100,0 [90541439] [1D4105D7] CRC32
11 98,9 [6C49AEA0] [B7D52E7D] CRC32
12 100,0 [2C05C911] [A4226EC8] CRC32
13 99,2 [4BF6269F] [642B2BEF] CRC32
14 100,0 [8734F237] [A1FD714F] CRC32
15 99,0 [B246D4CB] [0E68214D] CRC32
16 100,0 [4861BDFC] [4D259E35] CRC32
17 99,6 [BDBF5A92] [8F73D864] CRC32
18 100,0 [696A386A] [5FD66A9C] CRC32

foobar2000 1.2 / Dynamic Range Meter 1.1.1
log date: 2016-11-08 18:47:48

––––––––––––––––––––––––––––––––––––––––
Analyzed: ? / Chimes of Freedom: The Songs of Bob Dylan Honoring 50 Years of Amnesty International (1)
Bob Dylan / Chimes of Freedom: The Songs of Bob Dylan Honoring 50 Years of Amnesty International (2)
Carolina Chocolate Drops / Chimes of Freedom: The Songs of Bob Dylan Honoring 50 Years of Amnesty International (3)
Dave Matthews Band / Chimes of Freedom: The Songs of Bob Dylan Honoring 50 Years of Amnesty International (4)
Dierks Bentley / Chimes of Freedom: The Songs of Bob Dylan Honoring 50 Years of Amnesty International (5)
Eric Burdon / Chimes of Freedom: The Songs of Bob Dylan Honoring 50 Years of Amnesty International (6)
Evan Rachel Wood / Chimes of Freedom: The Songs of Bob Dylan Honoring 50 Years of Amnesty International (7)
Kris Kristofferson / Chimes of Freedom: The Songs of Bob Dylan Honoring 50 Years of Amnesty International (8)
Marianne Faithfull / Chimes of Freedom: The Songs of Bob Dylan Honoring 50 Years of Amnesty International (9)
Maroon 5 / Chimes of Freedom: The Songs of Bob Dylan Honoring 50 Years of Amnesty International (10)
Michael Franti / Chimes of Freedom: The Songs of Bob Dylan Honoring 50 Years of Amnesty International (11)
Mick Hucknall / Chimes of Freedom: The Songs of Bob Dylan Honoring 50 Years of Amnesty International (12)
Pete Seeger / Chimes of Freedom: The Songs of Bob Dylan Honoring 50 Years of Amnesty International (13)
Seal & Jeff Beck / Chimes of Freedom: The Songs of Bob Dylan Honoring 50 Years of Amnesty International (14)
State Radio / Chimes of Freedom: The Songs of Bob Dylan Honoring 50 Years of Amnesty International (15)
Taj Mahal / Chimes of Freedom: The Songs of Bob Dylan Honoring 50 Years of Amnesty International (16)
Thea Gilmore / Chimes of Freedom: The Songs of Bob Dylan Honoring 50 Years of Amnesty International (17)
We Are Augustines / Chimes of Freedom: The Songs of Bob Dylan Honoring 50 Years of Amnesty International (18)
––––––––––––––––––––––––––––––––––––––––

DR Peak RMS Duration Track
––––––––––––––––––––––––––––––––––––––––
DR8 0.00 dB -10.19 dB 4:42 12-Lucinda Williams-Tryin' To Get To Heaven
DR11 0.00 dB -12.44 dB 7:13 18-Chimes Of Freedom
DR9 0.00 dB -10.43 dB 2:49 02-Political World
DR6 0.00 dB -10.09 dB 7:03 09-All Along the Watchtower (Live)
DR8 -0.09 dB -9.91 dB 3:51 05-Senor (Tales of Yankee Power) (Live)
DR8 0.00 dB -9.95 dB 4:57 14-Gotta Serve Somebody
DR10 -0.09 dB -12.30 dB 3:54 15-I'd Have You Anytime
DR10 -0.07 dB -12.01 dB 2:38 13-Quinn The Eskimo
DR11 0.00 dB -15.00 dB 2:28 16-Baby Let Me Follow You Down (Live)
DR7 0.00 dB -9.01 dB 4:10 01-I Shall Be Released
DR11 0.00 dB -11.60 dB 2:18 10-Subterranean Homesick Blues
DR8 0.00 dB -9.79 dB 4:59 06-One Of Us Must Know (Sooner Or Later)
DR9 -0.03 dB -10.19 dB 3:15 17-Forever Young
DR7 0.00 dB -8.14 dB 7:25 03-Like A Rolling Stone
DR6 0.00 dB -7.64 dB 4:49 08-John Brown
DR8 0.00 dB -9.02 dB 5:01 04-Bob Dylan's 115th Dream
DR8 0.00 dB -9.82 dB 4:48 07-I'll Remember You
DR9 -0.09 dB -11.96 dB 3:30 11-Mama, You Been On My Mind
––––––––––––––––––––––––––––––––––––––––

Number of tracks: 18
Official DR value: DR9

Samplerate: 44100 Hz
Channels: 2
Bits per sample: 16
Bitrate: 754 kbps
Codec: FLAC
================================================================================

VA - Chimes of Freedom: The Songs of Bob Dylan (2012) 4 CD Box Set

All thanks to original releaser - Oatism

More interesting music in My Blog