Subcategories

VA - Dreamboats & Petticoats: 10th Anniversary Collection (2016) {4CD Box Set}

Posted By: popsakov
VA - Dreamboats & Petticoats: 10th Anniversary Collection (2016) {4CD Box Set}

VA - Dreamboats & Petticoats: 10th Anniversary Collection (2016) {4CD Box Set}
EAC Rip | FLAC (Img) + Cue + Log ~ 1,37 Gb | Scans Included (JPG, 600 dpi) ~ 33 Mb | RAR 5% Recovery
Pop, Rock & Roll, Doo Wop, Rockabilly | Universal Music On Demand #5373957

Dreamboats and Petticoats: 10th Anniversary Collection. Join us as we celebrate our favourite artists and musicians, as well as the musical itself in this 4 disc, special edition album. Split across 4 CDs each themed: ‘The Rock ‘n’ Roll Years’, ‘High School Dance, ‘Love is All Around’ and ‘Songs for the Stage’ this collection will containing 100 classic tracks from the best era music has ever seen.
***************

VA - Dreamboats & Petticoats: 10th Anniversary Collection (2016) {4CD Box Set}

Track List CD1 - The Rock 'n' Roll Years:

01. Chubby Checker - The Twist [2:36]
02. Eddie Cochran - C'mon Everybody [1:55]
03. Buddy Holly - Peggy Sue [2:29]
04. Tommy Roe - Sheila [2:04]
05. Chuck Berry - No Particular Place To Go [2:42]
06. Jerry Lee Lewis - Whole Lotta Shakin' Goin' On [2:53]
07. Jimmy Jones - Handyman [1:59]
08. Connie Francis - Stupid Cupid [2:15]
09. Little Eva - Let's Turkey Trot [2:30]
10. The Shadows - Foot Tapper [2:33]
11. Mark Wynter - Venus In Blue Jeans [2:11]
12. Little Richard - The Girl Can't Help It [2:31]
13. Bill Haley & His Comets - Shake Rattle And Roll [2:30]
14. The Everly Brothers - Bye Bye Love [2:23]
15. Johnny Kidd & The Pirates - I'll Never Get Over You [2:07]
16. The Tornados - Telstar [3:19]
17. Lonnie Donegan - Rock Island Line [3:20]
18. Duane Eddy - Shazam [1:51]
19. Jet Harris & Tony Meehan - Diamonds [2:25]
20. Jean Vincent - Be Bop A Lula [2:35]
21. Johnny Burnette - You're Sixteen [1:57]
22. The Coasters - Poison Ivy [2:43]
23. The Beach Boys - Fun Fun Fun [2:17]
24. The Big Bopper - Chantily Lace [2:22]
25. The Marcels - Blue Moon [2:18]

Exact Audio Copy V1.3 from 2. September 2016

EAC extraction logfile from 1. July 2017, 18:23

Various Artists / Dreamboats & Petticoats: 10th Anniversary Collection (CD1 of 4)

Used drive : ATAPI iHAS122 C Adapter: 1 ID: 0

Read mode : Secure
Utilize accurate stream : Yes
Defeat audio cache : Yes
Make use of C2 pointers : No

Read offset correction : 6
Overread into Lead-In and Lead-Out : No
Fill up missing offset samples with silence : Yes
Delete leading and trailing silent blocks : No
Null samples used in CRC calculations : Yes
Used interface : Native Win32 interface for Win NT & 2000

Used output format : Internal WAV Routines
Sample format : 44.100 Hz; 16 Bit; Stereo


TOC of the extracted CD

Track | Start | Length | Start sector | End sector
––––––––––––––––––––––––––––-
1 | 0:00.00 | 2:36.01 | 0 | 11700
2 | 2:36.01 | 1:55.20 | 11701 | 20345
3 | 4:31.21 | 2:29.00 | 20346 | 31520
4 | 7:00.21 | 2:04.15 | 31521 | 40835
5 | 9:04.36 | 2:42.21 | 40836 | 53006
6 | 11:46.57 | 2:52.54 | 53007 | 65960
7 | 14:39.36 | 1:59.17 | 65961 | 74902
8 | 16:38.53 | 2:15.21 | 74903 | 85048
9 | 18:53.74 | 2:29.52 | 85049 | 96275
10 | 21:23.51 | 2:32.53 | 96276 | 107728
11 | 23:56.29 | 2:10.44 | 107729 | 117522
12 | 26:06.73 | 2:31.12 | 117523 | 128859
13 | 28:38.10 | 2:29.72 | 128860 | 140106
14 | 31:08.07 | 2:22.56 | 140107 | 150812
15 | 33:30.63 | 2:06.38 | 150813 | 160300
16 | 35:37.26 | 3:19.21 | 160301 | 175246
17 | 38:56.47 | 3:20.17 | 175247 | 190263
18 | 42:16.64 | 1:50.70 | 190264 | 198583
19 | 44:07.59 | 2:25.22 | 198584 | 209480
20 | 46:33.06 | 2:35.29 | 209481 | 221134
21 | 49:08.35 | 1:57.04 | 221135 | 229913
22 | 51:05.39 | 2:42.73 | 229914 | 242136
23 | 53:48.37 | 2:17.10 | 242137 | 252421
24 | 56:05.47 | 2:21.52 | 252422 | 263048
25 | 58:27.24 | 2:17.49 | 263049 | 273372


Range status and errors

Selected range

Filename C:\Users\London\Desktop\Various Artists - Dreamboats & Petticoats- 10th Anniversary Collection (CD1 of 4).wav

Peak level 99.8 %
Extraction speed 7.0 X
Range quality 99.9 %
Test CRC B632EB84
Copy CRC B632EB84
Copy OK

No errors occurred


AccurateRip summary

Track 1 accurately ripped (confidence 3) [F94D751D] (AR v2)
Track 2 accurately ripped (confidence 3) [56E7C6D3] (AR v2)
Track 3 accurately ripped (confidence 3) [90455E7B] (AR v2)
Track 4 cannot be verified as accurate (confidence 2) [939BD5BC], AccurateRip returned [9348A80D] (AR v2)
Track 5 accurately ripped (confidence 3) [F91CF5D1] (AR v2)
Track 6 accurately ripped (confidence 3) [02AC65DC] (AR v2)
Track 7 accurately ripped (confidence 3) [135937CB] (AR v2)
Track 8 cannot be verified as accurate (confidence 2) [BA2136B2], AccurateRip returned [BA7B443D] (AR v2)
Track 9 accurately ripped (confidence 3) [EB5AFEB3] (AR v2)
Track 10 accurately ripped (confidence 3) [1E94A2AD] (AR v2)
Track 11 accurately ripped (confidence 3) [CE87C15E] (AR v2)
Track 12 accurately ripped (confidence 3) [517E17C9] (AR v2)
Track 13 accurately ripped (confidence 3) [B19A16A2] (AR v2)
Track 14 accurately ripped (confidence 3) [A6B75AF4] (AR v2)
Track 15 accurately ripped (confidence 3) [F9036296] (AR v2)
Track 16 accurately ripped (confidence 3) [7E716B4D] (AR v2)
Track 17 accurately ripped (confidence 3) [92AE5F18] (AR v2)
Track 18 accurately ripped (confidence 3) [A02D9791] (AR v2)
Track 19 accurately ripped (confidence 3) [ECD51AD8] (AR v2)
Track 20 accurately ripped (confidence 3) [9D2A8A26] (AR v2)
Track 21 accurately ripped (confidence 3) [E6BAFC87] (AR v2)
Track 22 accurately ripped (confidence 3) [C81EDBDD] (AR v2)
Track 23 accurately ripped (confidence 3) [2A1351FB] (AR v2)
Track 24 accurately ripped (confidence 3) [AA43BEC2] (AR v2)
Track 25 accurately ripped (confidence 3) [C9C90BD7] (AR v2)

23 track(s) accurately ripped
2 track(s) could not be verified as accurate

Some tracks could not be verified as accurate

End of status report

–– CUETools DB Plugin V2.1.6

[CTDB TOCID: y7kr7Oq6fhGaGclcsczqSYfJhbc-] found
Submit result: y7kr7Oq6fhGaGclcsczqSYfJhbc- has been submitted
Track | CTDB Status
1 | (17/17) Accurately ripped
2 | (17/17) Accurately ripped
3 | (17/17) Accurately ripped
4 | (15/17) Differs in 1 samples @02:03:45
5 | (17/17) Accurately ripped
6 | (17/17) Accurately ripped
7 | (17/17) Accurately ripped
8 | ( 1/17) Accurately ripped, or (15/17) differs in 1 samples @02:13:61
9 | (17/17) Accurately ripped
10 | (17/17) Accurately ripped
11 | (17/17) Accurately ripped
12 | (17/17) Accurately ripped
13 | (17/17) Accurately ripped
14 | (17/17) Accurately ripped
15 | (17/17) Accurately ripped
16 | (17/17) Accurately ripped
17 | (17/17) Accurately ripped
18 | (17/17) Accurately ripped
19 | (17/17) Accurately ripped
20 | (17/17) Accurately ripped
21 | (17/17) Accurately ripped
22 | (17/17) Accurately ripped
23 | (17/17) Accurately ripped
24 | (17/17) Accurately ripped
25 | (17/17) Accurately ripped
If you are sure that your rip contains errors, you can use CUETools to repair it.


==== Log checksum 9D74752EFB1E529E72C5E1B81E15B77B45A1813118863DA7B3EAA35E564B33F1 ====

foobar2000 1.2.6 / Dynamic Range Meter 1.1.1
log date: 2017-07-03 22:00:16

––––––––––––––––––––––––––––––––––––––––
Statistics for: 03-Peggy Sue
Number of samples: 6570900
Duration: 2:29
––––––––––––––––––––––––––––––––––––––––

Left Right

Peak Value: -0.01 dB –- -0.01 dB
Avg RMS: -12.07 dB –- -12.07 dB
DR channel: 10.75 dB –- 10.75 dB
––––––––––––––––––––––––––––––––––––––––

Official DR Value: DR11

Samplerate: 44100 Hz
Channels: 2
Bits per sample: 16
Bitrate: 712 kbps
Codec: FLAC
================================================================================
––––––––––––––––––––––––––––––––––––––––
Analyzed: Chubby Checker / Dreamboats & Petticoats: 10th Anniversary Collection (CD1 of 4) (1)
Chuck Berry / Dreamboats & Petticoats: 10th Anniversary Collection (CD1 of 4) (2)
Connie Francis / Dreamboats & Petticoats: 10th Anniversary Collection (CD1 of 4) (3)
Duane Eddy / Dreamboats & Petticoats: 10th Anniversary Collection (CD1 of 4) (4)
––––––––––––––––––––––––––––––––––––––––

DR Peak RMS Duration Track
––––––––––––––––––––––––––––––––––––––––
DR10 -1.57 dB -12.95 dB 2:36 01-The Twist
DR8 -2.68 dB -12.40 dB 2:42 05-No Particular Place To Go
DR11 -0.51 dB -13.06 dB 2:15 08-Stupid Cupid
DR12 -1.54 dB -14.86 dB 1:51 18-Shazam
––––––––––––––––––––––––––––––––––––––––

Number of tracks: 4
Official DR value: DR10

Samplerate: 44100 Hz
Channels: 2
Bits per sample: 16
Bitrate: 712 kbps
Codec: FLAC
================================================================================

––––––––––––––––––––––––––––––––––––––––
Analyzed: Eddie Cochran / Dreamboats & Petticoats: 10th Anniversary Collection (CD1 of 4) (1)
Jean Vincent / Dreamboats & Petticoats: 10th Anniversary Collection (CD1 of 4) (2)
––––––––––––––––––––––––––––––––––––––––

DR Peak RMS Duration Track
––––––––––––––––––––––––––––––––––––––––
DR12 -1.01 dB -14.70 dB 1:55 02-C'mon Everybody
DR10 -1.01 dB -12.36 dB 2:35 20-Be Bop A Lula
––––––––––––––––––––––––––––––––––––––––

Number of tracks: 2
Official DR value: DR11

Samplerate: 44100 Hz
Channels: 2
Bits per sample: 16
Bitrate: 712 kbps
Codec: FLAC
================================================================================

––––––––––––––––––––––––––––––––––––––––
Analyzed: Jerry Lee Lewis / Dreamboats & Petticoats: 10th Anniversary Collection (CD1 of 4) (1)
Jet Harris & Tony Meehan / Dreamboats & Petticoats: 10th Anniversary Collection (CD1 of 4) (2)
––––––––––––––––––––––––––––––––––––––––

DR Peak RMS Duration Track
––––––––––––––––––––––––––––––––––––––––
DR10 -0.01 dB -12.14 dB 2:53 06-Whole Lotta Shakin' Goin' On
DR12 -0.01 dB -13.97 dB 2:25 19-Diamonds
––––––––––––––––––––––––––––––––––––––––

Number of tracks: 2
Official DR value: DR11

Samplerate: 44100 Hz
Channels: 2
Bits per sample: 16
Bitrate: 712 kbps
Codec: FLAC
================================================================================

––––––––––––––––––––––––––––––––––––––––
Analyzed: Jimmy Jones / Dreamboats & Petticoats: 10th Anniversary Collection (CD1 of 4) (1)
Johnny Burnette / Dreamboats & Petticoats: 10th Anniversary Collection (CD1 of 4) (2)
––––––––––––––––––––––––––––––––––––––––

DR Peak RMS Duration Track
––––––––––––––––––––––––––––––––––––––––
DR10 -0.51 dB -11.95 dB 1:59 07-Handyman
DR11 -0.01 dB -13.47 dB 1:57 21-You're Sixteen
––––––––––––––––––––––––––––––––––––––––

Number of tracks: 2
Official DR value: DR10

Samplerate: 44100 Hz
Channels: 2
Bits per sample: 16
Bitrate: 712 kbps
Codec: FLAC
================================================================================

––––––––––––––––––––––––––––––––––––––––
Statistics for: 15-I'll Never Get Over You
Number of samples: 5578944
Duration: 2:07
––––––––––––––––––––––––––––––––––––––––

Left Right

Peak Value: -0.83 dB –- -0.83 dB
Avg RMS: -12.32 dB –- -12.32 dB
DR channel: 9.89 dB –- 9.89 dB
––––––––––––––––––––––––––––––––––––––––

Official DR Value: DR10

Samplerate: 44100 Hz
Channels: 2
Bits per sample: 16
Bitrate: 712 kbps
Codec: FLAC
================================================================================
––––––––––––––––––––––––––––––––––––––––
Analyzed: Little Eva / Dreamboats & Petticoats: 10th Anniversary Collection (CD1 of 4) (1)
Little Richard / Dreamboats & Petticoats: 10th Anniversary Collection (CD1 of 4) (2)
Lonnie Donegan / Dreamboats & Petticoats: 10th Anniversary Collection (CD1 of 4) (3)
––––––––––––––––––––––––––––––––––––––––

DR Peak RMS Duration Track
––––––––––––––––––––––––––––––––––––––––
DR11 -1.01 dB -13.64 dB 2:30 09-Let's Turkey Trot
DR10 -0.76 dB -12.38 dB 2:31 12-The Girl Can't Help It
DR9 -2.56 dB -13.56 dB 3:20 17-Rock Island Line
––––––––––––––––––––––––––––––––––––––––

Number of tracks: 3
Official DR value: DR10

Samplerate: 44100 Hz
Channels: 2
Bits per sample: 16
Bitrate: 712 kbps
Codec: FLAC
================================================================================

––––––––––––––––––––––––––––––––––––––––
Analyzed: Mark Wynter / Dreamboats & Petticoats: 10th Anniversary Collection (CD1 of 4) (1)
The Beach Boys / Dreamboats & Petticoats: 10th Anniversary Collection (CD1 of 4) (2)
The Big Bopper / Dreamboats & Petticoats: 10th Anniversary Collection (CD1 of 4) (3)
––––––––––––––––––––––––––––––––––––––––

DR Peak RMS Duration Track
––––––––––––––––––––––––––––––––––––––––
DR8 -2.34 dB -12.90 dB 2:11 11-Venus In Blue Jeans
DR12 -0.01 dB -13.16 dB 2:17 23-Fun Fun Fun
DR12 -0.01 dB -13.07 dB 2:22 24-Chantily Lace
––––––––––––––––––––––––––––––––––––––––

Number of tracks: 3
Official DR value: DR11

Samplerate: 44100 Hz
Channels: 2
Bits per sample: 16
Bitrate: 712 kbps
Codec: FLAC
================================================================================

––––––––––––––––––––––––––––––––––––––––
Statistics for: 22-Poison Ivy
Number of samples: 7187124
Duration: 2:43
––––––––––––––––––––––––––––––––––––––––

Left Right

Peak Value: -1.01 dB –- -1.01 dB
Avg RMS: -12.41 dB –- -12.42 dB
DR channel: 10.30 dB –- 10.31 dB
––––––––––––––––––––––––––––––––––––––––

Official DR Value: DR10

Samplerate: 44100 Hz
Channels: 2
Bits per sample: 16
Bitrate: 712 kbps
Codec: FLAC
================================================================================
––––––––––––––––––––––––––––––––––––––––
Analyzed: The Everly Brothers / Dreamboats & Petticoats: 10th Anniversary Collection (CD1 of 4) (1)
The Marcels / Dreamboats & Petticoats: 10th Anniversary Collection (CD1 of 4) (2)
––––––––––––––––––––––––––––––––––––––––

DR Peak RMS Duration Track
––––––––––––––––––––––––––––––––––––––––
DR11 -1.21 dB -13.84 dB 2:23 14-Bye Bye Love
DR10 -0.42 dB -12.61 dB 2:18 25-Blue Moon
––––––––––––––––––––––––––––––––––––––––

Number of tracks: 2
Official DR value: DR10

Samplerate: 44100 Hz
Channels: 2
Bits per sample: 16
Bitrate: 712 kbps
Codec: FLAC
================================================================================

––––––––––––––––––––––––––––––––––––––––
Analyzed: The Shadows / Dreamboats & Petticoats: 10th Anniversary Collection (CD1 of 4) (1)
The Tornados / Dreamboats & Petticoats: 10th Anniversary Collection (CD1 of 4) (2)
––––––––––––––––––––––––––––––––––––––––

DR Peak RMS Duration Track
––––––––––––––––––––––––––––––––––––––––
DR14 -0.01 dB -15.53 dB 2:33 10-Foot Tapper
DR8 -1.30 dB -10.55 dB 3:19 16-Telstar
––––––––––––––––––––––––––––––––––––––––

Number of tracks: 2
Official DR value: DR11

Samplerate: 44100 Hz
Channels: 2
Bits per sample: 16
Bitrate: 712 kbps
Codec: FLAC
================================================================================

––––––––––––––––––––––––––––––––––––––––
Statistics for: 04-Sheila
Number of samples: 5477220
Duration: 2:04
––––––––––––––––––––––––––––––––––––––––

Left Right

Peak Value: -0.51 dB –- -0.60 dB
Avg RMS: -12.11 dB –- -12.14 dB
DR channel: 10.34 dB –- 10.14 dB
––––––––––––––––––––––––––––––––––––––––

Official DR Value: DR10

Samplerate: 44100 Hz
Channels: 2
Bits per sample: 16
Bitrate: 712 kbps
Codec: FLAC
================================================================================

[CUETools log; Date: 03.07.2017 22:00:44; Version: 2.1.5]
[CTDB TOCID: y7kr7Oq6fhGaGclcsczqSYfJhbc-] found.
Track | CTDB Status
1 | (18/18) Accurately ripped
2 | (18/18) Accurately ripped
3 | (18/18) Accurately ripped
4 | ( 1/18) Accurately ripped, or (15/18) differs in 1 samples @02:03:45
5 | (18/18) Accurately ripped
6 | (18/18) Accurately ripped
7 | (18/18) Accurately ripped
8 | ( 2/18) Accurately ripped, or (15/18) differs in 1 samples @02:13:61
9 | (18/18) Accurately ripped
10 | (18/18) Accurately ripped
11 | (18/18) Accurately ripped
12 | (18/18) Accurately ripped
13 | (18/18) Accurately ripped
14 | (18/18) Accurately ripped
15 | (18/18) Accurately ripped
16 | (18/18) Accurately ripped
17 | (18/18) Accurately ripped
18 | (18/18) Accurately ripped
19 | (18/18) Accurately ripped
20 | (18/18) Accurately ripped
21 | (18/18) Accurately ripped
22 | (18/18) Accurately ripped
23 | (18/18) Accurately ripped
24 | (18/18) Accurately ripped
25 | (18/18) Accurately ripped
[AccurateRip ID: 0036063b-03cff677-5b0e3c19] found.
Track [ CRC | V2 ] Status
01 [04f82e6b|f94d751d] (0+3/3) Accurately ripped
02 [490bdca3|56e7c6d3] (0+3/3) Accurately ripped
03 [1efae3aa|90455e7b] (0+3/3) Accurately ripped
04 [4bda03a4|939bd5bc] (0+0/2) No match
05 [12a7abf3|f91cf5d1] (0+3/3) Accurately ripped
06 [da181ec4|02ac65dc] (0+3/3) Accurately ripped
07 [eff27b5d|135937cb] (0+3/3) Accurately ripped
08 [3227a464|ba2136b2] (0+0/2) No match
09 [6f432a61|eb5afeb3] (0+3/3) Accurately ripped
10 [0dc85b6b|1e94a2ad] (0+3/3) Accurately ripped
11 [73201549|ce87c15e] (0+3/3) Accurately ripped
12 [bee042da|517e17c9] (0+3/3) Accurately ripped
13 [8d43bac5|b19a16a2] (0+3/3) Accurately ripped
14 [a704abce|a6b75af4] (0+3/3) Accurately ripped
15 [245fe214|f9036296] (0+3/3) Accurately ripped
16 [040ef029|7e716b4d] (0+3/3) Accurately ripped
17 [61c522a5|92ae5f18] (0+3/3) Accurately ripped
18 [c87d444b|a02d9791] (0+3/3) Accurately ripped
19 [a6d59e2e|ecd51ad8] (0+3/3) Accurately ripped
20 [95a65932|9d2a8a26] (0+3/3) Accurately ripped
21 [0f545bcb|e6bafc87] (0+3/3) Accurately ripped
22 [de3fe648|c81edbdd] (0+3/3) Accurately ripped
23 [d87b3d58|2a1351fb] (0+3/3) Accurately ripped
24 [e3e37f53|aa43bec2] (0+3/3) Accurately ripped
25 [9eb993a8|c9c90bd7] (0+3/3) Accurately ripped

Track Peak [ CRC32 ] [W/O NULL] [ LOG ]
– 99,8 [B632EB84] [270D694D] CRC32
01 83,5 [94B3A5BF] [C5760992]
02 89,0 [C2250408] [1A0B8A48]
03 99,8 [9A01D86B] [201D7FFA]
04 94,2 [37F9C46B] [F52ECA5B]
05 73,4 [37F8CA26] [CB0CE750]
06 99,8 [AA94EDAE] [6BF5B809]
07 94,2 [4229A4BA] [39E8C25F]
08 94,2 [43C4A059] [B3AC0197]
09 89,0 [34D75C50] [6D1ABDD1]
10 99,8 [288E871A] [EF10D8BD]
11 76,4 [681ADF52] [0E648647]
12 91,6 [F2DCDF71] [7C788001]
13 84,0 [03729F29] [144351F3]
14 86,9 [349CA562] [E1CF9BA8]
15 90,8 [60F7DA6C] [5AE16268]
16 86,1 [66E6EDA1] [5BADA866]
17 74,5 [E0890498] [ACC703D4]
18 83,7 [DBAE7CC8] [6644E5D8]
19 99,8 [3E8B3DAC] [233AF8E2]
20 89,0 [D5232E0C] [BDF81A59]
21 99,8 [88BF4AD7] [819BC02F]
22 89,0 [B20E7E6D] [5B82DCD4]
23 99,8 [B7A90298] [27987396]
24 99,8 [F4E9ED8F] [9F0AC0F0]
25 95,3 [0F89C1B5] [1430584D]

VA - Dreamboats & Petticoats: 10th Anniversary Collection (2016) {4CD Box Set}

Track List CD2 - High School Dance:

01. Cliff Richard & The Shadows - The Young Ones [3:12]
02. Billy Fury - I'd Never Find Another You [2:37]
03. Eden Kane - Well I Ask You [2:15]
04. Ricky Nelson - Hello Mary Lou [2:18]
05. Bobby Vee - The Night Has A Thousand Eyes [2:35]
06. Dave Berry - Little Things [2:24]
07. Helen Shapiro - Walkin' Back To Happiness [2:31]
08. Kathy Kirby - Dance On [2:28]
09. The Springfields - Island Of Dreams [2:38]
10. Brian Hyland - Warmed Over Kisses [2:20]
11. Neil Sedaka - Breaking Up Is Hard To Do [2:16]
12. Kenny Lynch - Up On The Roof [2:35]
13. Bobby Darin - If I Were A Carpenter [2:22]
14. The Four Seasons - Walk Like A Man [2:16]
15. Craig Douglas - Pretty Blue Eyes [2:10]
16. Del Shannon - The Swiss Maid [2:08]
17. Bobby Vinton - Blue Velvet [2:48]
18. Adam Faith - What Do You Want [1:38]
19. The Brook Brothers - Ain't Gonna Wash For A Week [2:00]
20. The Chiffons - Sweet Talkin' Guy [2:26]
21. The Shirelles - Mama Said [2:09]
22. Mike Sarne & Wendy Richard - Come Outside [2:53]
23. Tommy Steele - Little White Bull [3:43]
24. Floyd Cramer - On The Rebound [2:07]
25. Terry Stafford - Suspicion [2:33]

Exact Audio Copy V1.3 from 2. September 2016

EAC extraction logfile from 1. July 2017, 17:42

Various Artists / Dreamboats & Petticoats: 10th Anniversary Collection (CD2 of 4)

Used drive : ATAPI iHAS122 C Adapter: 1 ID: 0

Read mode : Secure
Utilize accurate stream : Yes
Defeat audio cache : Yes
Make use of C2 pointers : No

Read offset correction : 6
Overread into Lead-In and Lead-Out : No
Fill up missing offset samples with silence : Yes
Delete leading and trailing silent blocks : No
Null samples used in CRC calculations : Yes
Used interface : Native Win32 interface for Win NT & 2000

Used output format : Internal WAV Routines
Sample format : 44.100 Hz; 16 Bit; Stereo


TOC of the extracted CD

Track | Start | Length | Start sector | End sector
––––––––––––––––––––––––––––-
1 | 0:00.00 | 3:11.56 | 0 | 14380
2 | 3:11.56 | 2:36.41 | 14381 | 26121
3 | 5:48.22 | 2:15.34 | 26122 | 36280
4 | 8:03.56 | 2:18.03 | 36281 | 46633
5 | 10:21.59 | 2:35.00 | 46634 | 58258
6 | 12:56.59 | 2:24.24 | 58259 | 69082
7 | 15:21.08 | 2:31.10 | 69083 | 80417
8 | 17:52.18 | 2:28.27 | 80418 | 91544
9 | 20:20.45 | 2:37.61 | 91545 | 103380
10 | 22:58.31 | 2:20.22 | 103381 | 113902
11 | 25:18.53 | 2:15.66 | 113903 | 124093
12 | 27:34.44 | 2:35.28 | 124094 | 135746
13 | 30:09.72 | 2:21.74 | 135747 | 146395
14 | 32:31.71 | 2:16.28 | 146396 | 156623
15 | 34:48.24 | 2:10.16 | 156624 | 166389
16 | 36:58.40 | 2:08.37 | 166390 | 176026
17 | 39:07.02 | 2:48.28 | 176027 | 188654
18 | 41:55.30 | 1:37.66 | 188655 | 195995
19 | 43:33.21 | 1:59.64 | 195996 | 204984
20 | 45:33.10 | 2:26.28 | 204985 | 215962
21 | 47:59.38 | 2:08.65 | 215963 | 225627
22 | 50:08.28 | 2:52.50 | 225628 | 238577
23 | 53:01.03 | 3:43.14 | 238578 | 255316
24 | 56:44.17 | 2:07.36 | 255317 | 264877
25 | 58:51.53 | 2:32.72 | 264878 | 276349


Range status and errors

Selected range

Filename C:\Users\London\Desktop\Various Artists - Dreamboats & Petticoats- 10th Anniversary Collection (CD2 of 4).wav

Peak level 99.8 %
Extraction speed 8.5 X
Range quality 100.0 %
Test CRC BCC4BD47
Copy CRC BCC4BD47
Copy OK

No errors occurred


AccurateRip summary

Track 1 accurately ripped (confidence 3) [9C57FD4B] (AR v2)
Track 2 accurately ripped (confidence 3) [1E58F7DE] (AR v2)
Track 3 accurately ripped (confidence 3) [0D8AD814] (AR v2)
Track 4 accurately ripped (confidence 3) [81E84338] (AR v2)
Track 5 accurately ripped (confidence 3) [1B4D9904] (AR v2)
Track 6 accurately ripped (confidence 3) [7102953B] (AR v2)
Track 7 accurately ripped (confidence 3) [FA30D5BB] (AR v2)
Track 8 accurately ripped (confidence 3) [C1A1D241] (AR v2)
Track 9 accurately ripped (confidence 3) [9D260E47] (AR v2)
Track 10 accurately ripped (confidence 3) [F28C7AE8] (AR v2)
Track 11 accurately ripped (confidence 3) [14DD58E1] (AR v2)
Track 12 accurately ripped (confidence 3) [595AFA55] (AR v2)
Track 13 accurately ripped (confidence 3) [B992653B] (AR v2)
Track 14 accurately ripped (confidence 3) [65A1782A] (AR v2)
Track 15 accurately ripped (confidence 3) [09CF8BA6] (AR v2)
Track 16 accurately ripped (confidence 3) [B2D1FF5B] (AR v2)
Track 17 accurately ripped (confidence 3) [5930AD03] (AR v2)
Track 18 accurately ripped (confidence 3) [F1FE3682] (AR v2)
Track 19 accurately ripped (confidence 3) [3F16D5D3] (AR v2)
Track 20 accurately ripped (confidence 3) [BA78CC32] (AR v2)
Track 21 accurately ripped (confidence 3) [30D17769] (AR v2)
Track 22 accurately ripped (confidence 3) [E83B3AC0] (AR v2)
Track 23 accurately ripped (confidence 3) [DCAA42C3] (AR v2)
Track 24 accurately ripped (confidence 3) [EA80643E] (AR v2)
Track 25 accurately ripped (confidence 3) [0B5F35A0] (AR v2)

All tracks accurately ripped

End of status report

–– CUETools DB Plugin V2.1.6

[CTDB TOCID: .Xwz2XQacH77Lp2FEB3LoNYMAGU-] found
Submit result: .Xwz2XQacH77Lp2FEB3LoNYMAGU- has been confirmed
Track | CTDB Status
1 | (18/18) Accurately ripped
2 | (18/18) Accurately ripped
3 | (18/18) Accurately ripped
4 | (18/18) Accurately ripped
5 | (18/18) Accurately ripped
6 | (18/18) Accurately ripped
7 | (18/18) Accurately ripped
8 | (18/18) Accurately ripped
9 | (18/18) Accurately ripped
10 | (18/18) Accurately ripped
11 | (18/18) Accurately ripped
12 | (18/18) Accurately ripped
13 | (18/18) Accurately ripped
14 | (18/18) Accurately ripped
15 | (18/18) Accurately ripped
16 | (18/18) Accurately ripped
17 | (18/18) Accurately ripped
18 | (17/18) Accurately ripped
19 | (18/18) Accurately ripped
20 | (18/18) Accurately ripped
21 | (18/18) Accurately ripped
22 | (18/18) Accurately ripped
23 | (18/18) Accurately ripped
24 | (18/18) Accurately ripped
25 | (18/18) Accurately ripped


==== Log checksum 33CECDA11C7CC4ADF3099895D9E49CB2AEA9DB418A885D10F15482F09BD0E05C ====

foobar2000 1.2.6 / Dynamic Range Meter 1.1.1
log date: 2017-07-03 22:02:32

––––––––––––––––––––––––––––––––––––––––
Analyzed: Billy Fury / Dreamboats & Petticoats: 10th Anniversary Collection (CD2 of 4) (1)
Bobby Darin / Dreamboats & Petticoats: 10th Anniversary Collection (CD2 of 4) (2)
––––––––––––––––––––––––––––––––––––––––

DR Peak RMS Duration Track
––––––––––––––––––––––––––––––––––––––––
DR10 -0.74 dB -12.93 dB 2:37 02-I'd Never Find Another You
DR10 -0.01 dB -12.14 dB 2:22 13-If I Were A Carpenter
––––––––––––––––––––––––––––––––––––––––

Number of tracks: 2
Official DR value: DR10

Samplerate: 44100 Hz
Channels: 2
Bits per sample: 16
Bitrate: 765 kbps
Codec: FLAC
================================================================================

––––––––––––––––––––––––––––––––––––––––
Analyzed: Bobby Vee / Dreamboats & Petticoats: 10th Anniversary Collection (CD2 of 4) (1)
Bobby Vinton / Dreamboats & Petticoats: 10th Anniversary Collection (CD2 of 4) (2)
––––––––––––––––––––––––––––––––––––––––

DR Peak RMS Duration Track
––––––––––––––––––––––––––––––––––––––––
DR9 -0.26 dB -10.68 dB 2:35 05-The Night Has A Thousand Eyes
DR10 -0.01 dB -12.33 dB 2:48 17-Blue Velvet
––––––––––––––––––––––––––––––––––––––––

Number of tracks: 2
Official DR value: DR9

Samplerate: 44100 Hz
Channels: 2
Bits per sample: 16
Bitrate: 765 kbps
Codec: FLAC
================================================================================

––––––––––––––––––––––––––––––––––––––––
Statistics for: 10-Warmed Over Kisses
Number of samples: 6186936
Duration: 2:20
––––––––––––––––––––––––––––––––––––––––

Left Right

Peak Value: -0.45 dB –- -0.01 dB
Avg RMS: -12.68 dB –- -11.94 dB
DR channel: 10.21 dB –- 9.47 dB
––––––––––––––––––––––––––––––––––––––––

Official DR Value: DR10

Samplerate: 44100 Hz
Channels: 2
Bits per sample: 16
Bitrate: 765 kbps
Codec: FLAC
================================================================================
––––––––––––––––––––––––––––––––––––––––
Analyzed: Cliff Richard & The Shadows / Dreamboats & Petticoats: 10th Anniversary Collection (CD2 of 4) (1)
Craig Douglas / Dreamboats & Petticoats: 10th Anniversary Collection (CD2 of 4) (2)
––––––––––––––––––––––––––––––––––––––––

DR Peak RMS Duration Track
––––––––––––––––––––––––––––––––––––––––
DR9 -1.68 dB -12.37 dB 3:12 01-The Young Ones
DR8 -0.58 dB -10.29 dB 2:10 15-Pretty Blue Eyes
––––––––––––––––––––––––––––––––––––––––

Number of tracks: 2
Official DR value: DR9

Samplerate: 44100 Hz
Channels: 2
Bits per sample: 16
Bitrate: 765 kbps
Codec: FLAC
================================================================================

––––––––––––––––––––––––––––––––––––––––
Analyzed: Dave Berry / Dreamboats & Petticoats: 10th Anniversary Collection (CD2 of 4) (1)
Del Shannon / Dreamboats & Petticoats: 10th Anniversary Collection (CD2 of 4) (2)
––––––––––––––––––––––––––––––––––––––––

DR Peak RMS Duration Track
––––––––––––––––––––––––––––––––––––––––
DR9 -2.00 dB -12.55 dB 2:24 06-Little Things
DR11 -0.69 dB -13.80 dB 2:08 16-The Swiss Maid
––––––––––––––––––––––––––––––––––––––––

Number of tracks: 2
Official DR value: DR10

Samplerate: 44100 Hz
Channels: 2
Bits per sample: 16
Bitrate: 765 kbps
Codec: FLAC
================================================================================

––––––––––––––––––––––––––––––––––––––––
Analyzed: Eden Kane / Dreamboats & Petticoats: 10th Anniversary Collection (CD2 of 4) (1)
Floyd Cramer / Dreamboats & Petticoats: 10th Anniversary Collection (CD2 of 4) (2)
––––––––––––––––––––––––––––––––––––––––

DR Peak RMS Duration Track
––––––––––––––––––––––––––––––––––––––––
DR10 -1.50 dB -13.24 dB 2:15 03-Well I Ask You
DR11 -1.17 dB -14.40 dB 2:07 24-On The Rebound
––––––––––––––––––––––––––––––––––––––––

Number of tracks: 2
Official DR value: DR10

Samplerate: 44100 Hz
Channels: 2
Bits per sample: 16
Bitrate: 765 kbps
Codec: FLAC
================================================================================

––––––––––––––––––––––––––––––––––––––––
Analyzed: Helen Shapiro / Dreamboats & Petticoats: 10th Anniversary Collection (CD2 of 4) (1)
Kathy Kirby / Dreamboats & Petticoats: 10th Anniversary Collection (CD2 of 4) (2)
Kenny Lynch / Dreamboats & Petticoats: 10th Anniversary Collection (CD2 of 4) (3)
Mike Sarne & Wendy Richard / Dreamboats & Petticoats: 10th Anniversary Collection (CD2 of 4) (4)
––––––––––––––––––––––––––––––––––––––––

DR Peak RMS Duration Track
––––––––––––––––––––––––––––––––––––––––
DR10 -1.65 dB -13.72 dB 2:31 07-Walkin' Back To Happiness
DR10 -2.00 dB -13.05 dB 2:28 08-Dance On
DR8 -2.51 dB -12.15 dB 2:35 12-Up On The Roof
DR4 -5.51 dB -10.60 dB 2:53 22-Come Outside
––––––––––––––––––––––––––––––––––––––––

Number of tracks: 4
Official DR value: DR8

Samplerate: 44100 Hz
Channels: 2
Bits per sample: 16
Bitrate: 765 kbps
Codec: FLAC
================================================================================

––––––––––––––––––––––––––––––––––––––––
Statistics for: 11-Breaking Up Is Hard To Do
Number of samples: 5992308
Duration: 2:16
––––––––––––––––––––––––––––––––––––––––

Left Right

Peak Value: -3.03 dB –- -1.20 dB
Avg RMS: -14.17 dB –- -12.66 dB
DR channel: 9.05 dB –- 9.84 dB
––––––––––––––––––––––––––––––––––––––––

Official DR Value: DR9

Samplerate: 44100 Hz
Channels: 2
Bits per sample: 16
Bitrate: 765 kbps
Codec: FLAC
================================================================================
––––––––––––––––––––––––––––––––––––––––
Analyzed: Ricky Nelson / Dreamboats & Petticoats: 10th Anniversary Collection (CD2 of 4) (1)
Terry Stafford / Dreamboats & Petticoats: 10th Anniversary Collection (CD2 of 4) (2)
––––––––––––––––––––––––––––––––––––––––

DR Peak RMS Duration Track
––––––––––––––––––––––––––––––––––––––––
DR10 -1.01 dB -13.19 dB 2:18 04-Hello Mary Lou
DR10 -2.01 dB -13.67 dB 2:33 25-Suspicion
––––––––––––––––––––––––––––––––––––––––

Number of tracks: 2
Official DR value: DR10

Samplerate: 44100 Hz
Channels: 2
Bits per sample: 16
Bitrate: 765 kbps
Codec: FLAC
================================================================================

––––––––––––––––––––––––––––––––––––––––
Analyzed: The Brook Brothers / Dreamboats & Petticoats: 10th Anniversary Collection (CD2 of 4) (1)
The Chiffons / Dreamboats & Petticoats: 10th Anniversary Collection (CD2 of 4) (2)
––––––––––––––––––––––––––––––––––––––––

DR Peak RMS Duration Track
––––––––––––––––––––––––––––––––––––––––
DR10 -1.30 dB -12.12 dB 2:00 19-Ain't Gonna Wash For A Week
DR8 -1.80 dB -12.96 dB 2:26 20-Sweet Talkin' Guy
––––––––––––––––––––––––––––––––––––––––

Number of tracks: 2
Official DR value: DR9

Samplerate: 44100 Hz
Channels: 2
Bits per sample: 16
Bitrate: 765 kbps
Codec: FLAC
================================================================================

––––––––––––––––––––––––––––––––––––––––
Analyzed: The Four Seasons / Dreamboats & Petticoats: 10th Anniversary Collection (CD2 of 4) (1)
The Shirelles / Dreamboats & Petticoats: 10th Anniversary Collection (CD2 of 4) (2)
––––––––––––––––––––––––––––––––––––––––

DR Peak RMS Duration Track
––––––––––––––––––––––––––––––––––––––––
DR9 -2.24 dB -13.24 dB 2:16 14-Walk Like A Man
DR11 -0.01 dB -13.31 dB 2:09 21-Mama Said
––––––––––––––––––––––––––––––––––––––––

Number of tracks: 2
Official DR value: DR10

Samplerate: 44100 Hz
Channels: 2
Bits per sample: 16
Bitrate: 765 kbps
Codec: FLAC
================================================================================

––––––––––––––––––––––––––––––––––––––––
Analyzed: The Springfields / Dreamboats & Petticoats: 10th Anniversary Collection (CD2 of 4) (1)
Tommy Steele / Dreamboats & Petticoats: 10th Anniversary Collection (CD2 of 4) (2)
––––––––––––––––––––––––––––––––––––––––

DR Peak RMS Duration Track
––––––––––––––––––––––––––––––––––––––––
DR10 -0.50 dB -12.53 dB 2:38 09-Island Of Dreams
DR13 -0.51 dB -16.34 dB 3:43 23-Little White Bull
––––––––––––––––––––––––––––––––––––––––

Number of tracks: 2
Official DR value: DR11

Samplerate: 44100 Hz
Channels: 2
Bits per sample: 16
Bitrate: 765 kbps
Codec: FLAC
================================================================================

[CUETools log; Date: 03.07.2017 22:02:30; Version: 2.1.5]
[CTDB TOCID: .Xwz2XQacH77Lp2FEB3LoNYMAGU-] found.
Track | CTDB Status
1 | (19/19) Accurately ripped
2 | (19/19) Accurately ripped
3 | (19/19) Accurately ripped
4 | (19/19) Accurately ripped
5 | (19/19) Accurately ripped
6 | (19/19) Accurately ripped
7 | (19/19) Accurately ripped
8 | (19/19) Accurately ripped
9 | (19/19) Accurately ripped
10 | (19/19) Accurately ripped
11 | (19/19) Accurately ripped
12 | (19/19) Accurately ripped
13 | (19/19) Accurately ripped
14 | (19/19) Accurately ripped
15 | (19/19) Accurately ripped
16 | (19/19) Accurately ripped
17 | (19/19) Accurately ripped
18 | (18/19) Accurately ripped
19 | (19/19) Accurately ripped
20 | (19/19) Accurately ripped
21 | (19/19) Accurately ripped
22 | (19/19) Accurately ripped
23 | (19/19) Accurately ripped
24 | (19/19) Accurately ripped
25 | (19/19) Accurately ripped
[AccurateRip ID: 00371bf3-03d880cd-400e6419] found.
Track [ CRC | V2 ] Status
01 [5348102a|9c57fd4b] (0+3/3) Accurately ripped
02 [a16d4d79|1e58f7de] (0+3/3) Accurately ripped
03 [fac2aa7a|0d8ad814] (0+3/3) Accurately ripped
04 [36bdf932|81e84338] (0+3/3) Accurately ripped
05 [fa8aff44|1b4d9904] (0+3/3) Accurately ripped
06 [b69ec4c7|7102953b] (0+3/3) Accurately ripped
07 [ff81b76c|fa30d5bb] (0+3/3) Accurately ripped
08 [2b8c4f61|c1a1d241] (0+3/3) Accurately ripped
09 [1bcbfb05|9d260e47] (0+3/3) Accurately ripped
10 [32ba448b|f28c7ae8] (0+3/3) Accurately ripped
11 [dfbb23d7|14dd58e1] (0+3/3) Accurately ripped
12 [77999323|595afa55] (0+3/3) Accurately ripped
13 [adbebaa0|b992653b] (0+3/3) Accurately ripped
14 [2c712310|65a1782a] (0+3/3) Accurately ripped
15 [a794267c|09cf8ba6] (0+3/3) Accurately ripped
16 [51e64f89|b2d1ff5b] (0+3/3) Accurately ripped
17 [25ccd047|5930ad03] (0+3/3) Accurately ripped
18 [2c96ee68|f1fe3682] (0+3/3) Accurately ripped
19 [809b5e6f|3f16d5d3] (0+3/3) Accurately ripped
20 [028d4e31|ba78cc32] (0+3/3) Accurately ripped
21 [fbfb0b1e|30d17769] (0+3/3) Accurately ripped
22 [06484e0b|e83b3ac0] (0+3/3) Accurately ripped
23 [84226e89|dcaa42c3] (0+3/3) Accurately ripped
24 [3c0f46be|ea80643e] (0+3/3) Accurately ripped
25 [6e4383b3|0b5f35a0] (0+3/3) Accurately ripped

Track Peak [ CRC32 ] [W/O NULL] [ LOG ]
– 99,8 [BCC4BD47] [EC353643] CRC32
01 82,4 [B15F4D1E] [E9365D9C]
02 91,8 [B14FF2ED] [3736E7D0]
03 84,1 [F1930B4B] [0783746C]
04 89,0 [6510D5D3] [782F8D8A]
05 97,0 [D3AFB133] [1389552A]
06 79,4 [9CA6561B] [4D6E5E2B]
07 82,6 [43A55F8F] [73D2C9ED]
08 79,4 [6AFD58E0] [5F3ACD9F]
09 94,4 [43C4DBD6] [0341BB23]
10 99,8 [CF4E22CA] [2CFD549C]
11 87,0 [20B9E7BD] [153F0752]
12 74,8 [5D573EC2] [D32AD987]
13 99,8 [78756347] [C43E0066]
14 77,2 [020F4C82] [1D42EAF8]
15 93,5 [697BDB69] [B2971AF2]
16 92,3 [F6A8B3E7] [AEAF2808]
17 99,8 [B6175403] [7E73911F]
18 99,8 [5BC57EA1] [48BA0BA6]
19 86,1 [566E692C] [1472C544]
20 81,2 [AA00E898] [041A5EB8]
21 99,8 [C830FF8C] [6967F3EA]
22 53,0 [AB83E3B2] [27B040AF]
23 94,3 [B2B20FC1] [65B060F8]
24 87,4 [2907E630] [8B3BE710]
25 79,3 [486804AC] [3E0A21F3]

VA - Dreamboats & Petticoats: 10th Anniversary Collection (2016) {4CD Box Set}

Track List CD3 - Love Is All Around:

01. The Troggs - Love Is All Around [2:59]
02. Chris Montez - The More I See You [2:40]
03. Brenda Lee - As Usual [2:36]
04. Lesley Gore - Maybe I Know [2:37]
05. Crispian St Peters - You Were On My Mind [2:43]
06. Joe Brown & The Bruvvers - That's What Love Will Do [2:23]
07. Marty Wilde - Sea Of Love [2:27]
08. The Searchers - Sweets For My Sweet [2:28]
09. Johnny Ray - Just Walkin' In the Rain [2:39]
10. The Platters - Smoke Gets In Your Eyes [2:40]
11. Dusty Springfield - You Don't Have To Say You Love Me [2:49]
12. Doris Day - Move Over Darling [2:39]
13. Skeeta Davis - The End Of The World [2:38]
14. Jane Morgan - The Day The Rains Came [2:57]
15. Ruby & The Romantics - Our Day Will Come [2:32]
16. Paul & Paula - Hey Paula [2:30]
17. Petula Clark - I Couldn't Live Without Your Love [2:55]
18. Emile Forde & The Checkmates - On A Slow Boat To China [2:33]
19. Michael Holliday - The Story of My Life [2:14]
20. Paul Anka - Put Your Head On My Shoulder [2:35]
21. The Kalin Twins - When [2:25]
22. Johnny Leyton - Johnny Remember Me [2:39]
23. Matt Monro - Walk Away [3:06]
24. The Cascades - Rhythm of the Rain [2:33]
25. Tab Hunter - Young Love [2:19]

Exact Audio Copy V1.3 from 2. September 2016

EAC extraction logfile from 2. July 2017, 15:01

Various Artists / Dreamboats & Petticoats: 10th Anniversary Collection (CD3 of 4)

Used drive : ATAPI iHAS122 C Adapter: 1 ID: 0

Read mode : Secure
Utilize accurate stream : Yes
Defeat audio cache : Yes
Make use of C2 pointers : No

Read offset correction : 6
Overread into Lead-In and Lead-Out : No
Fill up missing offset samples with silence : Yes
Delete leading and trailing silent blocks : No
Null samples used in CRC calculations : Yes
Used interface : Native Win32 interface for Win NT & 2000

Used output format : Internal WAV Routines
Sample format : 44.100 Hz; 16 Bit; Stereo


TOC of the extracted CD

Track | Start | Length | Start sector | End sector
––––––––––––––––––––––––––––-
1 | 0:00.00 | 2:59.05 | 0 | 13429
2 | 2:59.05 | 2:40.30 | 13430 | 25459
3 | 5:39.35 | 2:36.21 | 25460 | 37180
4 | 8:15.56 | 2:37.12 | 37181 | 48967
5 | 10:52.68 | 2:43.02 | 48968 | 61194
6 | 13:35.70 | 2:23.34 | 61195 | 71953
7 | 15:59.29 | 2:26.38 | 71954 | 82941
8 | 18:25.67 | 2:28.07 | 82942 | 94048
9 | 20:53.74 | 2:38.41 | 94049 | 105939
10 | 23:32.40 | 2:39.50 | 105940 | 117914
11 | 26:12.15 | 2:48.70 | 117915 | 130584
12 | 29:01.10 | 2:39.36 | 130585 | 142545
13 | 31:40.46 | 2:37.55 | 142546 | 154375
14 | 34:18.26 | 2:57.36 | 154376 | 167686
15 | 37:15.62 | 2:32.00 | 167687 | 179086
16 | 39:47.62 | 2:29.60 | 179087 | 190321
17 | 42:17.47 | 2:54.69 | 190322 | 203440
18 | 45:12.41 | 2:33.30 | 203441 | 214945
19 | 47:45.71 | 2:13.72 | 214946 | 224992
20 | 49:59.68 | 2:35.16 | 224993 | 236633
21 | 52:35.09 | 2:25.36 | 236634 | 247544
22 | 55:00.45 | 2:39.11 | 247545 | 259480
23 | 57:39.56 | 3:06.33 | 259481 | 273463
24 | 60:46.14 | 2:32.53 | 273464 | 284916
25 | 63:18.67 | 2:18.47 | 284917 | 295313


Range status and errors

Selected range

Filename C:\Users\London\Desktop\Various Artists - Dreamboats & Petticoats- 10th Anniversary Collection (CD3 of 4).wav

Peak level 99.8 %
Extraction speed 8.9 X
Range quality 99.9 %
Test CRC ED7A292C
Copy CRC ED7A292C
Copy OK

No errors occurred


AccurateRip summary

Track 1 accurately ripped (confidence 3) [DF0CC781] (AR v2)
Track 2 accurately ripped (confidence 3) [41248D23] (AR v2)
Track 3 accurately ripped (confidence 3) [C7FABBB2] (AR v2)
Track 4 accurately ripped (confidence 3) [D37CA80E] (AR v2)
Track 5 accurately ripped (confidence 3) [7E36622E] (AR v2)
Track 6 accurately ripped (confidence 3) [B892A2E6] (AR v2)
Track 7 accurately ripped (confidence 3) [89E3CBF5] (AR v2)
Track 8 accurately ripped (confidence 3) [57842D27] (AR v2)
Track 9 accurately ripped (confidence 3) [6C20ABA7] (AR v2)
Track 10 accurately ripped (confidence 3) [73FEE108] (AR v2)
Track 11 accurately ripped (confidence 3) [14429C3C] (AR v2)
Track 12 accurately ripped (confidence 3) [7117D8BB] (AR v2)
Track 13 accurately ripped (confidence 3) [18A6BFB1] (AR v2)
Track 14 accurately ripped (confidence 3) [7EC8F882] (AR v2)
Track 15 accurately ripped (confidence 3) [5C252730] (AR v2)
Track 16 accurately ripped (confidence 3) [41C58AB3] (AR v2)
Track 17 accurately ripped (confidence 3) [A32AAC75] (AR v2)
Track 18 accurately ripped (confidence 3) [C6F375AF] (AR v2)
Track 19 accurately ripped (confidence 3) [11322703] (AR v2)
Track 20 accurately ripped (confidence 3) [4540FA28] (AR v2)
Track 21 accurately ripped (confidence 3) [9715AD0F] (AR v2)
Track 22 accurately ripped (confidence 3) [B8D8A029] (AR v2)
Track 23 accurately ripped (confidence 3) [5ED8DC57] (AR v2)
Track 24 accurately ripped (confidence 3) [E198F624] (AR v2)
Track 25 accurately ripped (confidence 3) [4A5724AA] (AR v2)

All tracks accurately ripped

End of status report

–– CUETools DB Plugin V2.1.6

[CTDB TOCID: mlwjSM1txEL.bSj2kxniziFMxzQ-] found
Submit result: mlwjSM1txEL.bSj2kxniziFMxzQ- has been confirmed
Track | CTDB Status
1 | (17/17) Accurately ripped
2 | (17/17) Accurately ripped
3 | (17/17) Accurately ripped
4 | (17/17) Accurately ripped
5 | (17/17) Accurately ripped
6 | (17/17) Accurately ripped
7 | (17/17) Accurately ripped
8 | (17/17) Accurately ripped
9 | (17/17) Accurately ripped
10 | (17/17) Accurately ripped
11 | (17/17) Accurately ripped
12 | (17/17) Accurately ripped
13 | (17/17) Accurately ripped
14 | (17/17) Accurately ripped
15 | (17/17) Accurately ripped
16 | (17/17) Accurately ripped
17 | (17/17) Accurately ripped
18 | (17/17) Accurately ripped
19 | (17/17) Accurately ripped
20 | (17/17) Accurately ripped
21 | (17/17) Accurately ripped
22 | (17/17) Accurately ripped
23 | (17/17) Accurately ripped
24 | (17/17) Accurately ripped
25 | (17/17) Accurately ripped


==== Log checksum 7D0210D5C21FB4EDA06CC7804D6F9673B19B184E5A2B65AE39609A75F58EB15D ====

foobar2000 1.2.6 / Dynamic Range Meter 1.1.1
log date: 2017-07-03 22:03:46

––––––––––––––––––––––––––––––––––––––––
Analyzed: Chris Montez / Dreamboats & Petticoats: 10th Anniversary Collection (CD3 of 4) (1)
Crispian St Peters / Dreamboats & Petticoats: 10th Anniversary Collection (CD3 of 4) (2)
Doris Day / Dreamboats & Petticoats: 10th Anniversary Collection (CD3 of 4) (3)
––––––––––––––––––––––––––––––––––––––––

DR Peak RMS Duration Track
––––––––––––––––––––––––––––––––––––––––
DR7 -2.72 dB -11.91 dB 2:40 02-The More I See You
DR12 -1.65 dB -16.35 dB 2:43 05-You Were On My Mind
DR11 -0.01 dB -12.96 dB 2:39 12-Move Over Darling
––––––––––––––––––––––––––––––––––––––––

Number of tracks: 3
Official DR value: DR10

Samplerate: 44100 Hz
Channels: 2
Bits per sample: 16
Bitrate: 753 kbps
Codec: FLAC
================================================================================

––––––––––––––––––––––––––––––––––––––––
Analyzed: Dusty Springfield / Dreamboats & Petticoats: 10th Anniversary Collection (CD3 of 4) (1)
Emile Forde & The Checkmates / Dreamboats & Petticoats: 10th Anniversary Collection (CD3 of 4) (2)
––––––––––––––––––––––––––––––––––––––––

DR Peak RMS Duration Track
––––––––––––––––––––––––––––––––––––––––
DR7 -2.24 dB -12.44 dB 2:49 11-You Don't Have To Say You Love Me
DR8 -3.00 dB -13.05 dB 2:33 18-On A Slow Boat To China
––––––––––––––––––––––––––––––––––––––––

Number of tracks: 2
Official DR value: DR8

Samplerate: 44100 Hz
Channels: 2
Bits per sample: 16
Bitrate: 753 kbps
Codec: FLAC
================================================================================

––––––––––––––––––––––––––––––––––––––––
Statistics for: 14-The Day The Rains Came
Number of samples: 7826868
Duration: 2:57
––––––––––––––––––––––––––––––––––––––––

Left Right

Peak Value: -1.76 dB –- -2.00 dB
Avg RMS: -14.23 dB –- -13.43 dB
DR channel: 8.84 dB –- 8.36 dB
––––––––––––––––––––––––––––––––––––––––

Official DR Value: DR9

Samplerate: 44100 Hz
Channels: 2
Bits per sample: 16
Bitrate: 753 kbps
Codec: FLAC
================================================================================
––––––––––––––––––––––––––––––––––––––––
Analyzed: Joe Brown & The Bruvvers / Dreamboats & Petticoats: 10th Anniversary Collection (CD3 of 4) (1)
Johnny Leyton / Dreamboats & Petticoats: 10th Anniversary Collection (CD3 of 4) (2)
––––––––––––––––––––––––––––––––––––––––

DR Peak RMS Duration Track
––––––––––––––––––––––––––––––––––––––––
DR8 -1.95 dB -11.62 dB 2:23 06-That's What Love Will Do
DR8 -4.06 dB -13.77 dB 2:39 22-Johnny Remember Me
––––––––––––––––––––––––––––––––––––––––

Number of tracks: 2
Official DR value: DR8

Samplerate: 44100 Hz
Channels: 2
Bits per sample: 16
Bitrate: 753 kbps
Codec: FLAC
================================================================================

––––––––––––––––––––––––––––––––––––––––
Statistics for: 09-Just Walkin' In the Rain
Number of samples: 6991908
Duration: 2:39
––––––––––––––––––––––––––––––––––––––––

Left Right

Peak Value: -1.41 dB –- -0.62 dB
Avg RMS: -14.18 dB –- -14.00 dB
DR channel: 11.13 dB –- 11.36 dB
––––––––––––––––––––––––––––––––––––––––

Official DR Value: DR11

Samplerate: 44100 Hz
Channels: 2
Bits per sample: 16
Bitrate: 753 kbps
Codec: FLAC
================================================================================
––––––––––––––––––––––––––––––––––––––––
Analyzed: Lesley Gore / Dreamboats & Petticoats: 10th Anniversary Collection (CD3 of 4) (1)
Marty Wilde / Dreamboats & Petticoats: 10th Anniversary Collection (CD3 of 4) (2)
Matt Monro / Dreamboats & Petticoats: 10th Anniversary Collection (CD3 of 4) (3)
––––––––––––––––––––––––––––––––––––––––

DR Peak RMS Duration Track
––––––––––––––––––––––––––––––––––––––––
DR9 -2.60 dB -12.17 dB 2:37 04-Maybe I Know
DR7 -2.44 dB -11.04 dB 2:27 07-Sea Of Love
DR11 -1.01 dB -14.15 dB 3:06 23-Walk Away
––––––––––––––––––––––––––––––––––––––––

Number of tracks: 3
Official DR value: DR9

Samplerate: 44100 Hz
Channels: 2
Bits per sample: 16
Bitrate: 753 kbps
Codec: FLAC
================================================================================

––––––––––––––––––––––––––––––––––––––––
Statistics for: 19-The Story of My Life
Number of samples: 5907636
Duration: 2:14
––––––––––––––––––––––––––––––––––––––––

Left Right

Peak Value: -1.01 dB –- -1.01 dB
Avg RMS: -14.25 dB –- -14.21 dB
DR channel: 10.50 dB –- 10.46 dB
––––––––––––––––––––––––––––––––––––––––

Official DR Value: DR10

Samplerate: 44100 Hz
Channels: 2
Bits per sample: 16
Bitrate: 753 kbps
Codec: FLAC
================================================================================
––––––––––––––––––––––––––––––––––––––––
Analyzed: Paul & Paula / Dreamboats & Petticoats: 10th Anniversary Collection (CD3 of 4) (1)
Paul Anka / Dreamboats & Petticoats: 10th Anniversary Collection (CD3 of 4) (2)
––––––––––––––––––––––––––––––––––––––––

DR Peak RMS Duration Track
––––––––––––––––––––––––––––––––––––––––
DR10 -1.56 dB -12.94 dB 2:30 16-Hey Paula
DR8 -2.00 dB -13.03 dB 2:35 20-Put Your Head On My Shoulder
––––––––––––––––––––––––––––––––––––––––

Number of tracks: 2
Official DR value: DR9

Samplerate: 44100 Hz
Channels: 2
Bits per sample: 16
Bitrate: 753 kbps
Codec: FLAC
================================================================================

––––––––––––––––––––––––––––––––––––––––
Statistics for: 17-I Couldn't Live Without Your Love
Number of samples: 7713972
Duration: 2:55
––––––––––––––––––––––––––––––––––––––––

Left Right

Peak Value: -1.60 dB –- -1.99 dB
Avg RMS: -14.80 dB –- -14.22 dB
DR channel: 10.38 dB –- 9.60 dB
––––––––––––––––––––––––––––––––––––––––

Official DR Value: DR10

Samplerate: 44100 Hz
Channels: 2
Bits per sample: 16
Bitrate: 753 kbps
Codec: FLAC
================================================================================
––––––––––––––––––––––––––––––––––––––––
Statistics for: 15-Our Day Will Come
Number of samples: 6703200
Duration: 2:32
––––––––––––––––––––––––––––––––––––––––

Left Right

Peak Value: -0.29 dB –- -0.01 dB
Avg RMS: -14.03 dB –- -14.01 dB
DR channel: 11.80 dB –- 11.80 dB
––––––––––––––––––––––––––––––––––––––––

Official DR Value: DR12

Samplerate: 44100 Hz
Channels: 2
Bits per sample: 16
Bitrate: 753 kbps
Codec: FLAC
================================================================================
––––––––––––––––––––––––––––––––––––––––
Analyzed: Skeeta Davis / Dreamboats & Petticoats: 10th Anniversary Collection (CD3 of 4) (1)
Tab Hunter / Dreamboats & Petticoats: 10th Anniversary Collection (CD3 of 4) (2)
––––––––––––––––––––––––––––––––––––––––

DR Peak RMS Duration Track
––––––––––––––––––––––––––––––––––––––––
DR8 -3.09 dB -12.98 dB 2:38 13-The End Of The World
DR8 -2.49 dB -13.00 dB 2:19 25-Young Love
––––––––––––––––––––––––––––––––––––––––

Number of tracks: 2
Official DR value: DR8

Samplerate: 44100 Hz
Channels: 2
Bits per sample: 16
Bitrate: 753 kbps
Codec: FLAC
================================================================================

––––––––––––––––––––––––––––––––––––––––
Statistics for: 24-Rhythm of the Rain
Number of samples: 6734364
Duration: 2:33
––––––––––––––––––––––––––––––––––––––––

Left Right

Peak Value: -1.20 dB –- -1.20 dB
Avg RMS: -14.70 dB –- -13.86 dB
DR channel: 11.27 dB –- 11.18 dB
––––––––––––––––––––––––––––––––––––––––

Official DR Value: DR11

Samplerate: 44100 Hz
Channels: 2
Bits per sample: 16
Bitrate: 753 kbps
Codec: FLAC
================================================================================
––––––––––––––––––––––––––––––––––––––––
Statistics for: 21-When
Number of samples: 6415668
Duration: 2:25
––––––––––––––––––––––––––––––––––––––––

Left Right

Peak Value: -0.70 dB –- -0.70 dB
Avg RMS: -13.87 dB –- -13.39 dB
DR channel: 11.70 dB –- 11.23 dB
––––––––––––––––––––––––––––––––––––––––

Official DR Value: DR11

Samplerate: 44100 Hz
Channels: 2
Bits per sample: 16
Bitrate: 753 kbps
Codec: FLAC
================================================================================
––––––––––––––––––––––––––––––––––––––––
Statistics for: 10-Smoke Gets In Your Eyes
Number of samples: 7041300
Duration: 2:40
––––––––––––––––––––––––––––––––––––––––

Left Right

Peak Value: -2.17 dB –- -1.51 dB
Avg RMS: -14.33 dB –- -15.26 dB
DR channel: 8.96 dB –- 9.91 dB
––––––––––––––––––––––––––––––––––––––––

Official DR Value: DR9

Samplerate: 44100 Hz
Channels: 2
Bits per sample: 16
Bitrate: 753 kbps
Codec: FLAC
================================================================================
––––––––––––––––––––––––––––––––––––––––
Statistics for: 08-Sweets For My Sweet
Number of samples: 6530916
Duration: 2:28
––––––––––––––––––––––––––––––––––––––––

Left Right

Peak Value: -4.70 dB –- -4.70 dB
Avg RMS: -13.21 dB –- -13.21 dB
DR channel: 7.75 dB –- 7.75 dB
––––––––––––––––––––––––––––––––––––––––

Official DR Value: DR8

Samplerate: 44100 Hz
Channels: 2
Bits per sample: 16
Bitrate: 753 kbps
Codec: FLAC
================================================================================
––––––––––––––––––––––––––––––––––––––––
Statistics for: 01-Love Is All Around
Number of samples: 7896840
Duration: 2:59
––––––––––––––––––––––––––––––––––––––––

Left Right

Peak Value: -2.48 dB –- -2.49 dB
Avg RMS: -12.99 dB –- -12.76 dB
DR channel: 8.45 dB –- 8.22 dB
––––––––––––––––––––––––––––––––––––––––

Official DR Value: DR8

Samplerate: 44100 Hz
Channels: 2
Bits per sample: 16
Bitrate: 753 kbps
Codec: FLAC
================================================================================

[CUETools log; Date: 03.07.2017 22:03:52; Version: 2.1.5]
[CTDB TOCID: mlwjSM1txEL.bSj2kxniziFMxzQ-] found.
Track | CTDB Status
1 | (18/18) Accurately ripped
2 | (18/18) Accurately ripped
3 | (18/18) Accurately ripped
4 | (18/18) Accurately ripped
5 | (18/18) Accurately ripped
6 | (18/18) Accurately ripped
7 | (18/18) Accurately ripped
8 | (18/18) Accurately ripped
9 | (18/18) Accurately ripped
10 | (18/18) Accurately ripped
11 | (18/18) Accurately ripped
12 | (18/18) Accurately ripped
13 | (18/18) Accurately ripped
14 | (18/18) Accurately ripped
15 | (18/18) Accurately ripped
16 | (18/18) Accurately ripped
17 | (18/18) Accurately ripped
18 | (18/18) Accurately ripped
19 | (18/18) Accurately ripped
20 | (18/18) Accurately ripped
21 | (18/18) Accurately ripped
22 | (18/18) Accurately ripped
23 | (18/18) Accurately ripped
24 | (18/18) Accurately ripped
25 | (18/18) Accurately ripped
[AccurateRip ID: 003af734-04235774-520f6119] found.
Track [ CRC | V2 ] Status
01 [a661ea0f|df0cc781] (0+3/3) Accurately ripped
02 [f9a97bcb|41248d23] (0+3/3) Accurately ripped
03 [8e2209b6|c7fabbb2] (0+3/3) Accurately ripped
04 [854bcd23|d37ca80e] (0+3/3) Accurately ripped
05 [56b3e834|7e36622e] (0+3/3) Accurately ripped
06 [8a3b87e2|b892a2e6] (0+3/3) Accurately ripped
07 [481e3d78|89e3cbf5] (0+3/3) Accurately ripped
08 [2689c631|57842d27] (0+3/3) Accurately ripped
09 [29e61f3b|6c20aba7] (0+3/3) Accurately ripped
10 [bba9573a|73fee108] (0+3/3) Accurately ripped
11 [d7b66a1c|14429c3c] (0+3/3) Accurately ripped
12 [cecbc74a|7117d8bb] (0+3/3) Accurately ripped
13 [49bfe492|18a6bfb1] (0+3/3) Accurately ripped
14 [1759fffb|7ec8f882] (0+3/3) Accurately ripped
15 [1d40fdc9|5c252730] (0+3/3) Accurately ripped
16 [886006b9|41c58ab3] (0+3/3) Accurately ripped
17 [13be75d8|a32aac75] (0+3/3) Accurately ripped
18 [509f1c31|c6f375af] (0+3/3) Accurately ripped
19 [48d0a33f|11322703] (0+3/3) Accurately ripped
20 [c0c1f036|4540fa28] (0+3/3) Accurately ripped
21 [a7b25c93|9715ad0f] (0+3/3) Accurately ripped
22 [14128b90|b8d8a029] (0+3/3) Accurately ripped
23 [3278d36d|5ed8dc57] (0+3/3) Accurately ripped
24 [f0abf0f9|e198f624] (0+3/3) Accurately ripped
25 [f9bdb68a|4a5724aa] (0+3/3) Accurately ripped

Track Peak [ CRC32 ] [W/O NULL] [ LOG ]
– 99,8 [ED7A292C] [FE2BB2A1] CRC32
01 75,1 [3002EF65] [08E510EE]
02 73,1 [49E00244] [AD86AABC]
03 99,8 [323039AD] [D40F63ED]
04 74,1 [C62D5809] [F707F622]
05 82,7 [CB4D6C62] [ED79BCA0]
06 79,8 [B60D8B41] [8CC41C30]
07 75,5 [5D0A6123] [ED8905C0]
08 58,2 [ECCD8B71] [6624A8E1]
09 93,0 [02211A1C] [6C1C98E6]
10 84,0 [944EA013] [F67530BB]
11 77,2 [BE949933] [083AD896]
12 99,8 [D4AE0D9D] [5F752FAE]
13 70,0 [97E75F65] [39724A91]
14 81,6 [13536247] [14F29E04]
15 99,8 [9B8DDA51] [2E0445BB]
16 83,5 [8F4F0B41] [A230C257]
17 83,1 [52B5BEBE] [4B11C40E]
18 70,7 [03D7190F] [A705824A]
19 89,0 [E16965FD] [CD09DFE0]
20 79,4 [370C9BC8] [7DC23896]
21 92,2 [A201E3BE] [51350881]
22 62,6 [FB9E94B5] [712808F1]
23 89,0 [D1FF9C83] [CE1F1438]
24 87,0 [27FD52B7] [7252FF5C]
25 75,1 [4193CF0F] [94746781]

VA - Dreamboats & Petticoats: 10th Anniversary Collection (2016) {4CD Box Set}

Track List CD4 - Songs For The Stage:

01. Chris Montez - Let's Dance [2:29]
02. Dion - The Wanderer [2:44]
03. The Teddy Bears - To Know Him Is To Love Him [2:23]
04. Jimmy Jones - Good Timin' [2:02]
05. Daisy Wood Davis - Dream Baby Dream [2:10]
06. Johnny Kidd & The Pirates - Shakin' All Over [2:22]
07. Susan Maughan - Bobby's Girl [2:34]
08. Del Shannon - Little Town Flirt [2:49]
09. Brenda Lee - Sweet Nothin's [2:23]
10. Del Shannon - Runaway [2:15]
11. Connie Francis - Who's Sorry Now [2:18]
12. Johnny Tillotson - Poetry In Motion [2:30]
13. Conway Twitty - It's Only Make Believe [2:14]
14. Cliff Richard & The Shadows - Do You Wanna Dance [2:14]
15. Bobby Darin - Dream Lover [2:32]
16. The Platters - The Great Pretender [2:39]
17. Roy Orbison - Only The Lonely [2:27]
18. Marty Wilde - A Teenager In Love [2:20]
19. Dion - Runaround Sue [2:38]
20. Helen Shapiro - You Don’t Know [2:41]
21. The Everly Brothers - Let It Be Me [2:36]
22. Chubby Checker - Let's Twist Again [2:19]
23. Danny & The Juniors - At The Hop [2:31]
24. Bobby & The Conquests - Crying Time Again [2:33]
25. Jason Donovan ft. Hank Marvin - Dreamboats and Petticoats [2:46]

Exact Audio Copy V1.3 from 2. September 2016

EAC extraction logfile from 1. July 2017, 20:40

Various Artists / Dreamboats & Petticoats: 10th Anniversary Collection (CD4 of 4)

Used drive : ATAPI iHAS122 C Adapter: 1 ID: 0

Read mode : Secure
Utilize accurate stream : Yes
Defeat audio cache : Yes
Make use of C2 pointers : No

Read offset correction : 6
Overread into Lead-In and Lead-Out : No
Fill up missing offset samples with silence : Yes
Delete leading and trailing silent blocks : No
Null samples used in CRC calculations : Yes
Used interface : Native Win32 interface for Win NT & 2000

Used output format : Internal WAV Routines
Sample format : 44.100 Hz; 16 Bit; Stereo


TOC of the extracted CD

Track | Start | Length | Start sector | End sector
––––––––––––––––––––––––––––-
1 | 0:00.00 | 2:28.65 | 0 | 11164
2 | 2:28.65 | 2:43.45 | 11165 | 23434
3 | 5:12.35 | 2:23.08 | 23435 | 34167
4 | 7:35.43 | 2:01.68 | 34168 | 43310
5 | 9:37.36 | 2:09.56 | 43311 | 53041
6 | 11:47.17 | 2:21.43 | 53042 | 63659
7 | 14:08.60 | 2:34.03 | 63660 | 75212
8 | 16:42.63 | 2:48.68 | 75213 | 87880
9 | 19:31.56 | 2:22.65 | 87881 | 98595
10 | 21:54.46 | 2:15.07 | 98596 | 108727
11 | 24:09.53 | 2:17.72 | 108728 | 119074
12 | 26:27.50 | 2:30.24 | 119075 | 130348
13 | 28:57.74 | 2:13.53 | 130349 | 140376
14 | 31:11.52 | 2:14.19 | 140377 | 150445
15 | 33:25.71 | 2:32.28 | 150446 | 161873
16 | 35:58.24 | 2:39.37 | 161874 | 173835
17 | 38:37.61 | 2:27.22 | 173836 | 184882
18 | 41:05.08 | 2:20.21 | 184883 | 195403
19 | 43:25.29 | 2:38.33 | 195404 | 207286
20 | 46:03.62 | 2:40.56 | 207287 | 219342
21 | 48:44.43 | 2:35.38 | 219343 | 231005
22 | 51:20.06 | 2:18.38 | 231006 | 241393
23 | 53:38.44 | 2:31.01 | 241394 | 252719
24 | 56:09.45 | 2:32.57 | 252720 | 264176
25 | 58:42.27 | 2:46.14 | 264177 | 276640


Range status and errors

Selected range

Filename C:\Users\London\Desktop\Various Artists - Dreamboats & Petticoats- 10th Anniversary Collection (CD4 of 4).wav

Peak level 99.8 %
Extraction speed 8.4 X
Range quality 99.9 %
Test CRC 07716C58
Copy CRC 07716C58
Copy OK

No errors occurred


AccurateRip summary

Track 1 accurately ripped (confidence 3) [5011BEF7] (AR v2)
Track 2 accurately ripped (confidence 3) [EB07F9D4] (AR v2)
Track 3 accurately ripped (confidence 3) [C7EC6ECE] (AR v2)
Track 4 accurately ripped (confidence 3) [7D0C6072] (AR v2)
Track 5 accurately ripped (confidence 3) [8B9039BE] (AR v2)
Track 6 accurately ripped (confidence 3) [9B32BE43] (AR v2)
Track 7 accurately ripped (confidence 3) [DCA8FD79] (AR v2)
Track 8 accurately ripped (confidence 3) [549D7F53] (AR v2)
Track 9 accurately ripped (confidence 3) [4AD34AFD] (AR v2)
Track 10 accurately ripped (confidence 3) [A3F5A399] (AR v2)
Track 11 accurately ripped (confidence 3) [0934B308] (AR v2)
Track 12 accurately ripped (confidence 3) [92B4B803] (AR v2)
Track 13 accurately ripped (confidence 3) [6D0C4541] (AR v2)
Track 14 accurately ripped (confidence 3) [EF64E092] (AR v2)
Track 15 accurately ripped (confidence 3) [B7C421B4] (AR v2)
Track 16 accurately ripped (confidence 3) [EAC9C493] (AR v2)
Track 17 accurately ripped (confidence 3) [5D9F4A16] (AR v2)
Track 18 accurately ripped (confidence 3) [010B36E9] (AR v2)
Track 19 accurately ripped (confidence 3) [2D4D7BFB] (AR v2)
Track 20 accurately ripped (confidence 3) [5031F8AD] (AR v2)
Track 21 accurately ripped (confidence 3) [A44066CB] (AR v2)
Track 22 accurately ripped (confidence 3) [8338FF6E] (AR v2)
Track 23 accurately ripped (confidence 3) [A61DE952] (AR v2)
Track 24 accurately ripped (confidence 3) [7C0BE070] (AR v2)
Track 25 accurately ripped (confidence 3) [47C1FF5F] (AR v2)

All tracks accurately ripped

End of status report

–– CUETools DB Plugin V2.1.6

[CTDB TOCID: 5Kfmx0.k0iLCZ4n.gFaL_myxwWA-] found
Submit result: 5Kfmx0.k0iLCZ4n.gFaL_myxwWA- has been confirmed
Track | CTDB Status
1 | (16/16) Accurately ripped
2 | (16/16) Accurately ripped
3 | (16/16) Accurately ripped
4 | (16/16) Accurately ripped
5 | (16/16) Accurately ripped
6 | (16/16) Accurately ripped
7 | (16/16) Accurately ripped
8 | (16/16) Accurately ripped
9 | (16/16) Accurately ripped
10 | (15/16) Accurately ripped
11 | (16/16) Accurately ripped
12 | (16/16) Accurately ripped
13 | (16/16) Accurately ripped
14 | (16/16) Accurately ripped
15 | (16/16) Accurately ripped
16 | (16/16) Accurately ripped
17 | (16/16) Accurately ripped
18 | (16/16) Accurately ripped
19 | (16/16) Accurately ripped
20 | (16/16) Accurately ripped
21 | (16/16) Accurately ripped
22 | (16/16) Accurately ripped
23 | (16/16) Accurately ripped
24 | (16/16) Accurately ripped
25 | (16/16) Accurately ripped


==== Log checksum 997FDBC234EFDD3BD83B596513493194C89F456F70D089C876531C2772F4FA11 ====

foobar2000 1.2.6 / Dynamic Range Meter 1.1.1
log date: 2017-07-03 22:05:11

––––––––––––––––––––––––––––––––––––––––
Statistics for: 15-Dream Lover
Number of samples: 6719664
Duration: 2:32
––––––––––––––––––––––––––––––––––––––––

Left Right

Peak Value: -1.01 dB –- -1.61 dB
Avg RMS: -11.96 dB –- -13.64 dB
DR channel: 9.49 dB –- 9.81 dB
––––––––––––––––––––––––––––––––––––––––

Official DR Value: DR10

Samplerate: 44100 Hz
Channels: 2
Bits per sample: 16
Bitrate: 777 kbps
Codec: FLAC
================================================================================
––––––––––––––––––––––––––––––––––––––––
Statistics for: 09-Sweet Nothin's
Number of samples: 6300420
Duration: 2:23
––––––––––––––––––––––––––––––––––––––––

Left Right

Peak Value: -0.51 dB –- -0.51 dB
Avg RMS: -13.98 dB –- -14.67 dB
DR channel: 11.10 dB –- 11.99 dB
––––––––––––––––––––––––––––––––––––––––

Official DR Value: DR12

Samplerate: 44100 Hz
Channels: 2
Bits per sample: 16
Bitrate: 777 kbps
Codec: FLAC
================================================================================
––––––––––––––––––––––––––––––––––––––––
Analyzed: Chris Montez / Dreamboats & Petticoats: 10th Anniversary Collection (CD4 of 4) (1)
Chubby Checker / Dreamboats & Petticoats: 10th Anniversary Collection (CD4 of 4) (2)
––––––––––––––––––––––––––––––––––––––––

DR Peak RMS Duration Track
––––––––––––––––––––––––––––––––––––––––
DR11 -0.20 dB -12.88 dB 2:29 01-Let's Dance
DR9 -0.40 dB -10.60 dB 2:19 22-Let's Twist Again
––––––––––––––––––––––––––––––––––––––––

Number of tracks: 2
Official DR value: DR10

Samplerate: 44100 Hz
Channels: 2
Bits per sample: 16
Bitrate: 777 kbps
Codec: FLAC
================================================================================

––––––––––––––––––––––––––––––––––––––––
Statistics for: 14-Do You Wanna Dance
Number of samples: 5920572
Duration: 2:14
––––––––––––––––––––––––––––––––––––––––

Left Right

Peak Value: -0.71 dB –- -0.86 dB
Avg RMS: -11.88 dB –- -12.08 dB
DR channel: 9.76 dB –- 9.79 dB
––––––––––––––––––––––––––––––––––––––––

Official DR Value: DR10

Samplerate: 44100 Hz
Channels: 2
Bits per sample: 16
Bitrate: 777 kbps
Codec: FLAC
================================================================================
––––––––––––––––––––––––––––––––––––––––
Analyzed: Connie Francis / Dreamboats & Petticoats: 10th Anniversary Collection (CD4 of 4) (1)
Conway Twitty / Dreamboats & Petticoats: 10th Anniversary Collection (CD4 of 4) (2)
––––––––––––––––––––––––––––––––––––––––

DR Peak RMS Duration Track
––––––––––––––––––––––––––––––––––––––––
DR10 -0.01 dB -12.93 dB 2:18 11-Who's Sorry Now
DR9 -1.06 dB -12.02 dB 2:14 13-It's Only Make Believe
––––––––––––––––––––––––––––––––––––––––

Number of tracks: 2
Official DR value: DR9

Samplerate: 44100 Hz
Channels: 2
Bits per sample: 16
Bitrate: 777 kbps
Codec: FLAC
================================================================================

––––––––––––––––––––––––––––––––––––––––
Analyzed: Daisy Wood Davis / Dreamboats & Petticoats: 10th Anniversary Collection (CD4 of 4) (1)
Danny & The Juniors / Dreamboats & Petticoats: 10th Anniversary Collection (CD4 of 4) (2)
––––––––––––––––––––––––––––––––––––––––

DR Peak RMS Duration Track
––––––––––––––––––––––––––––––––––––––––
DR6 -6.37 dB -13.79 dB 2:10 05-Dream Baby Dream
DR10 -0.01 dB -11.52 dB 2:31 23-At The Hop
––––––––––––––––––––––––––––––––––––––––

Number of tracks: 2
Official DR value: DR8

Samplerate: 44100 Hz
Channels: 2
Bits per sample: 16
Bitrate: 777 kbps
Codec: FLAC
================================================================================

––––––––––––––––––––––––––––––––––––––––
Analyzed: Del Shannon / Dreamboats & Petticoats: 10th Anniversary Collection (CD4 of 4)
––––––––––––––––––––––––––––––––––––––––

DR Peak RMS Duration Track
––––––––––––––––––––––––––––––––––––––––
DR11 -0.41 dB -13.09 dB 2:49 08-Little Town Flirt
DR6 -4.27 dB -12.03 dB 2:15 10-Runaway
––––––––––––––––––––––––––––––––––––––––

Number of tracks: 2
Official DR value: DR9

Samplerate: 44100 Hz
Channels: 2
Bits per sample: 16
Bitrate: 777 kbps
Codec: FLAC
================================================================================

––––––––––––––––––––––––––––––––––––––––
Analyzed: Dion / Dreamboats & Petticoats: 10th Anniversary Collection (CD4 of 4) (1-2)
Helen Shapiro / Dreamboats & Petticoats: 10th Anniversary Collection (CD4 of 4) (3)
Jason Donovan ft. Hank Marvin / Dreamboats & Petticoats: 10th Anniversary Collection (CD4 of 4) (4)
––––––––––––––––––––––––––––––––––––––––

DR Peak RMS Duration Track
––––––––––––––––––––––––––––––––––––––––
DR12 -0.26 dB -13.67 dB 2:44 02-The Wanderer
DR8 -0.01 dB -10.60 dB 2:38 19-Runaround Sue
DR10 -1.22 dB -12.64 dB 2:41 20-You Don’t Know
DR5 -6.32 dB -12.32 dB 2:46 25-Dreamboats and Petticoats
––––––––––––––––––––––––––––––––––––––––

Number of tracks: 4
Official DR value: DR9

Samplerate: 44100 Hz
Channels: 2
Bits per sample: 16
Bitrate: 777 kbps
Codec: FLAC
================================================================================

––––––––––––––––––––––––––––––––––––––––
Analyzed: Jimmy Jones / Dreamboats & Petticoats: 10th Anniversary Collection (CD4 of 4) (1)
Johnny Kidd & The Pirates / Dreamboats & Petticoats: 10th Anniversary Collection (CD4 of 4) (2)
Johnny Tillotson / Dreamboats & Petticoats: 10th Anniversary Collection (CD4 of 4) (3)
Marty Wilde / Dreamboats & Petticoats: 10th Anniversary Collection (CD4 of 4) (4)
––––––––––––––––––––––––––––––––––––––––

DR Peak RMS Duration Track
––––––––––––––––––––––––––––––––––––––––
DR9 -1.00 dB -11.88 dB 2:02 04-Good Timin'
DR11 -0.01 dB -12.66 dB 2:22 06-Shakin' All Over
DR9 -1.95 dB -13.40 dB 2:30 12-Poetry In Motion
DR10 -0.01 dB -11.68 dB 2:20 18-A Teenager In Love
––––––––––––––––––––––––––––––––––––––––

Number of tracks: 4
Official DR value: DR10

Samplerate: 44100 Hz
Channels: 2
Bits per sample: 16
Bitrate: 777 kbps
Codec: FLAC
================================================================================

––––––––––––––––––––––––––––––––––––––––
Statistics for: 17-Only The Lonely
Number of samples: 6495636
Duration: 2:27
––––––––––––––––––––––––––––––––––––––––

Left Right

Peak Value: -1.01 dB –- -1.18 dB
Avg RMS: -14.10 dB –- -12.85 dB
DR channel: 10.51 dB –- 10.12 dB
––––––––––––––––––––––––––––––––––––––––

Official DR Value: DR10

Samplerate: 44100 Hz
Channels: 2
Bits per sample: 16
Bitrate: 777 kbps
Codec: FLAC
================================================================================
––––––––––––––––––––––––––––––––––––––––
Analyzed: Susan Maughan / Dreamboats & Petticoats: 10th Anniversary Collection (CD4 of 4) (1)
The Everly Brothers / Dreamboats & Petticoats: 10th Anniversary Collection (CD4 of 4) (2)
––––––––––––––––––––––––––––––––––––––––

DR Peak RMS Duration Track
––––––––––––––––––––––––––––––––––––––––
DR9 -0.01 dB -10.76 dB 2:34 07-Bobby's Girl
DR11 -0.01 dB -14.65 dB 2:36 21-Let It Be Me
––––––––––––––––––––––––––––––––––––––––

Number of tracks: 2
Official DR value: DR10

Samplerate: 44100 Hz
Channels: 2
Bits per sample: 16
Bitrate: 777 kbps
Codec: FLAC
================================================================================

––––––––––––––––––––––––––––––––––––––––
Statistics for: 16-The Great Pretender
Number of samples: 7033656
Duration: 2:39
––––––––––––––––––––––––––––––––––––––––

Left Right

Peak Value: -0.01 dB –- -0.01 dB
Avg RMS: -12.65 dB –- -12.64 dB
DR channel: 10.90 dB –- 10.89 dB
––––––––––––––––––––––––––––––––––––––––

Official DR Value: DR11

Samplerate: 44100 Hz
Channels: 2
Bits per sample: 16
Bitrate: 777 kbps
Codec: FLAC
================================================================================
––––––––––––––––––––––––––––––––––––––––
Statistics for: 03-To Know Him Is To Love Him
Number of samples: 6311004
Duration: 2:23
––––––––––––––––––––––––––––––––––––––––

Left Right

Peak Value: -4.76 dB –- -4.76 dB
Avg RMS: -12.78 dB –- -12.77 dB
DR channel: 5.27 dB –- 5.26 dB
––––––––––––––––––––––––––––––––––––––––

Official DR Value: DR5

Samplerate: 44100 Hz
Channels: 2
Bits per sample: 16
Bitrate: 777 kbps
Codec: FLAC
================================================================================

[CUETools log; Date: 03.07.2017 22:05:08; Version: 2.1.5]
[CTDB TOCID: 5Kfmx0.k0iLCZ4n.gFaL_myxwWA-] found.
Track | CTDB Status
1 | (17/17) Accurately ripped
2 | (17/17) Accurately ripped
3 | (17/17) Accurately ripped
4 | (17/17) Accurately ripped
5 | (17/17) Accurately ripped
6 | (17/17) Accurately ripped
7 | (17/17) Accurately ripped
8 | (17/17) Accurately ripped
9 | (17/17) Accurately ripped
10 | (16/17) Accurately ripped
11 | (17/17) Accurately ripped
12 | (17/17) Accurately ripped
13 | (17/17) Accurately ripped
14 | (17/17) Accurately ripped
15 | (17/17) Accurately ripped
16 | (17/17) Accurately ripped
17 | (17/17) Accurately ripped
18 | (17/17) Accurately ripped
19 | (17/17) Accurately ripped
20 | (17/17) Accurately ripped
21 | (17/17) Accurately ripped
22 | (17/17) Accurately ripped
23 | (17/17) Accurately ripped
24 | (17/17) Accurately ripped
25 | (17/17) Accurately ripped
[AccurateRip ID: 0036236b-03d0036f-520e6819] found.
Track [ CRC | V2 ] Status
01 [fca9ae95|5011bef7] (0+3/3) Accurately ripped
02 [d4a04ace|eb07f9d4] (0+3/3) Accurately ripped
03 [a1d4d9c5|c7ec6ece] (0+3/3) Accurately ripped
04 [4f9284a8|7d0c6072] (0+3/3) Accurately ripped
05 [2833959e|8b9039be] (0+3/3) Accurately ripped
06 [e05076e8|9b32be43] (0+3/3) Accurately ripped
07 [eb7edba6|dca8fd79] (0+3/3) Accurately ripped
08 [ddc4ba20|549d7f53] (0+3/3) Accurately ripped
09 [a05aeaf9|4ad34afd] (0+3/3) Accurately ripped
10 [5c4aaeb4|a3f5a399] (0+3/3) Accurately ripped
11 [4cd2e346|0934b308] (0+3/3) Accurately ripped
12 [66500157|92b4b803] (0+3/3) Accurately ripped
13 [cc6da6f9|6d0c4541] (0+3/3) Accurately ripped
14 [201f1587|ef64e092] (0+3/3) Accurately ripped
15 [d8f65d00|b7c421b4] (0+3/3) Accurately ripped
16 [990fded4|eac9c493] (0+3/3) Accurately ripped
17 [a92be54d|5d9f4a16] (0+3/3) Accurately ripped
18 [0bb8bd38|010b36e9] (0+3/3) Accurately ripped
19 [8dcf6f31|2d4d7bfb] (0+3/3) Accurately ripped
20 [5c5b011b|5031f8ad] (0+3/3) Accurately ripped
21 [bc6f331c|a44066cb] (0+3/3) Accurately ripped
22 [51711e50|8338ff6e] (0+3/3) Accurately ripped
23 [09173fcf|a61de952] (0+3/3) Accurately ripped
24 [ca652bf8|7c0be070] (0+3/3) Accurately ripped
25 [eeae57f9|47c1ff5f] (0+3/3) Accurately ripped

Track Peak [ CRC32 ] [W/O NULL] [ LOG ]
– 99,8 [07716C58] [3E91137D] CRC32
01 97,7 [5D09E917] [8A027384]
02 97,0 [81AB7F2C] [2B25D924]
03 57,8 [A1D7C55A] [9E59A43D]
04 89,1 [E1C82B9D] [1D286AEB]
05 48,0 [7446F31C] [90BA82FB]
06 99,8 [B40BC3C9] [A892FD78]
07 99,8 [B1C311A7] [A4BF3537]
08 95,3 [858BE384] [1FF6B076]
09 94,2 [A8A22C0E] [F1AB51C5]
10 61,1 [3FBB4DE9] [7292096D]
11 99,8 [C2B4A05C] [108FE289]
12 79,8 [EB8466F1] [7D80A4E3]
13 88,5 [99D039F6] [40679167]
14 92,1 [DA41234A] [303FE736]
15 89,0 [CE8EDFA0] [E73497F6]
16 99,8 [B3BFE62A] [F2C488AF]
17 89,0 [E33B3022] [07050B2A]
18 99,8 [9FEDE3C8] [B5618273]
19 99,8 [7018BB60] [C99F85C5]
20 86,9 [C9B20D49] [439F59E4]
21 99,8 [52CB5EBB] [2786FB61]
22 95,5 [643B1493] [02B34E7F]
23 99,8 [F872799D] [EB129D4D]
24 70,7 [4E3EC63C] [D0D0F65C]
25 48,2 [C43D9E13] [835EF7F5]

VA - Dreamboats & Petticoats: 10th Anniversary Collection (2016) {4CD Box Set}

All thanks go to London

>>> My Blog <<<

Download from icerbox.com: