Subcategories

VA - Footloose: Original Motion Picture Soundtrack (1984) 15th Anniversary Collectors' Edition 1998 [Re-Up]

Posted By: Efgrapha
VA - Footloose: Original Motion Picture Soundtrack (1984) 15th Anniversary Collectors' Edition 1998 [Re-Up]

VA - Footloose: Original Motion Picture Soundtrack (1984)
15th Anniversary Collectors' Edition 1998
EAC | FLAC (Tracks) + cue.+log ~ 410 Mb | Mp3, CBR320 kbps ~157 Mb | Scans included
Soundtrack, Score, Rock, Pop/Rock | Label: Columbia/Legacy | # 493007 2 | 00:55:05

Footloose was a throwback to '50s rock & roll movies, with a silly plot about a town where it was illegal to dance. It was a major hit, as was its soundtrack, which spent a grand total of ten weeks at number one and sold over seven million copies. It's easy to see why – the album delivers its mainstream pop, anthemic rock, and light dance-pop with style and an abundance of hooks. Six of the nine tracks became Top 40 hits, and three – Kenny Loggins' bouncy title song, the excellent power ballad "Almost Paradise" (a duet between Loverboy's Mike Reno and Heart's Ann Wilson), and Deniece Williams' frothy, charming "Let's Hear It for the Boy" – shot into the Top Ten. The sound and production of Footloose has dated badly – there is a reliance on synthesizers and drum machines that instantly announces that the record was made in 1984 – but that isn't necessarily a weakness. Not only does it function as a time capsule of a certain moment in pop music history, but many of the songs are catchy enough to transcend their production. There's nothing of substance on the Footloose soundtrack, but it's a light, entertaining listen. Sometimes, that can be better than something substantial.

Review by Stephen Thomas Erlewine, Allmusic.com

Film at IMDB
Film at Wiki

Tracklist:

01. Kenny Loggins - Footloose (03:47)
02. Deniece Williams - Let's Hear It For The Boy (04:22)
03. Mik Reno & Ann Wilson - Almost Paradise (Love Theme From Footloose) (03:49)
04. Bonnie Tyler - Holding Out For A Hero (05:50)
05. Shalamar - Dancing In The Sheets (04:05)
06. Kenny Loggins - I'm Free (Heaven Helps The Man) (03:46)
07. Karla Bonoff - Somebody's Eyes (03:29)
08. Sammy Hagar - The Girl Gets Around (03:23)
09. Moving Pictures - Never (03:47)
10. Quiet Riot - Bang Your Head (Metal Health) (Bonus Track) (03:55)
11. John Mellencamp - Hurts So Good (Bonus Track) (03:38)
12. Foreigner - Waiting For A Girl Like You (Bonus Track) (04:49)
13. Shalamar - Dancing In The Sheets (Extended 12'' Remix) (Bonus Track) (06:18)


Exact Audio Copy V0.99 prebeta 4 from 23. January 2008

EAC extraction logfile from 13. April 2011, 12:22

Various / Footloose (15th Anniversary Collector's Edition)

Used drive : Optiarc DVD RW AD-7241S Adapter: 1 ID: 1

Read mode : Secure
Utilize accurate stream : Yes
Defeat audio cache : Yes
Make use of C2 pointers : No

Read offset correction : 48
Overread into Lead-In and Lead-Out : No
Fill up missing offset samples with silence : Yes
Delete leading and trailing silent blocks : No
Null samples used in CRC calculations : Yes
Used interface : Installed external ASPI interface
Gap handling : Appended to previous track

Used output format : User Defined Encoder
Selected bitrate : 1024 kBit/s
Quality : High
Add ID3 tag : No
Command line compressor : C:\Program Files\Exact Audio Copy\Flac\flac.exe
Additional command line options : -8 -V -T "ARTIST=%a" -T "TITLE=%t" -T "ALBUM=%g" -T "DATE=%y" -T "TRACKNUMBER=%n" -T "GENRE=%m" -T "COMMENT=EAC FLAC -8" %s


TOC of the extracted CD

Track | Start | Length | Start sector | End sector
––––––––––––––––––––––––––––-
1 | 0:00.00 | 3:47.47 | 0 | 17071
2 | 3:47.47 | 4:22.13 | 17072 | 36734
3 | 8:09.60 | 3:49.40 | 36735 | 53949
4 | 11:59.25 | 5:50.52 | 53950 | 80251
5 | 17:50.02 | 4:05.15 | 80252 | 98641
6 | 21:55.17 | 3:46.70 | 98642 | 115661
7 | 25:42.12 | 3:29.03 | 115662 | 131339
8 | 29:11.15 | 3:23.55 | 131340 | 146619
9 | 32:34.70 | 3:47.67 | 146620 | 163711
10 | 36:22.62 | 3:55.30 | 163712 | 181366
11 | 40:18.17 | 3:38.73 | 181367 | 197789
12 | 43:57.15 | 4:49.35 | 197790 | 219499
13 | 48:46.50 | 6:18.22 | 219500 | 247871


Track 1

Filename F:\torrent\Footloose_15th Anniversary Collectors Edition\score\01. Kenny Loggins – Footloose.wav

Pre-gap length 0:00:02.00

Peak level 99.9 %
Track quality 100.0 %
Test CRC E81F45C6
Copy CRC E81F45C6
Accurately ripped (confidence 26) [D411D135]
Copy OK

Track 2

Filename F:\torrent\Footloose_15th Anniversary Collectors Edition\score\02. Deniece Williams – Let's Hear It For The Boy.wav

Peak level 100.0 %
Track quality 100.0 %
Test CRC F5D9F874
Copy CRC F5D9F874
Accurately ripped (confidence 25) [B856DA0E]
Copy OK

Track 3

Filename F:\torrent\Footloose_15th Anniversary Collectors Edition\score\03. Mik Reno & Ann Wilson – Almost Paradise (Love Theme From Footloose).wav

Peak level 100.0 %
Track quality 100.0 %
Test CRC 065994BE
Copy CRC 065994BE
Accurately ripped (confidence 24) [BBD9300F]
Copy OK

Track 4

Filename F:\torrent\Footloose_15th Anniversary Collectors Edition\score\04. Bonnie Tyler – Holding Out For A Hero.wav

Pre-gap length 0:00:00.70

Peak level 100.0 %
Track quality 100.0 %
Test CRC 2D04066E
Copy CRC 2D04066E
Accurately ripped (confidence 24) [19546FEB]
Copy OK

Track 5

Filename F:\torrent\Footloose_15th Anniversary Collectors Edition\score\05. Shalamar – Dancing In The Sheets.wav

Pre-gap length 0:00:00.20

Peak level 100.0 %
Track quality 100.0 %
Test CRC E0C17636
Copy CRC E0C17636
Accurately ripped (confidence 24) [2ACEDFC6]
Copy OK

Track 6

Filename F:\torrent\Footloose_15th Anniversary Collectors Edition\score\06. Kenny Loggins – I'm Free (Heaven Helps The Man).wav

Pre-gap length 0:00:00.13

Peak level 100.0 %
Track quality 100.0 %
Test CRC 280BF066
Copy CRC 280BF066
Accurately ripped (confidence 25) [0BF89AE2]
Copy OK

Track 7

Filename F:\torrent\Footloose_15th Anniversary Collectors Edition\score\07. Karla Bonoff – Somebody's Eyes.wav

Pre-gap length 0:00:00.02

Peak level 100.0 %
Track quality 100.0 %
Test CRC 8F3337D2
Copy CRC 8F3337D2
Accurately ripped (confidence 25) [0E53CC4E]
Copy OK

Track 8

Filename F:\torrent\Footloose_15th Anniversary Collectors Edition\score\08. Sammy Hagar – The Girl Gets Around.wav

Pre-gap length 0:00:00.30

Peak level 100.0 %
Track quality 100.0 %
Test CRC D21998DB
Copy CRC D21998DB
Accurately ripped (confidence 25) [63E637F6]
Copy OK

Track 9

Filename F:\torrent\Footloose_15th Anniversary Collectors Edition\score\09. Moving Pictures – Never.wav

Pre-gap length 0:00:00.30

Peak level 100.0 %
Track quality 100.0 %
Test CRC F71BDAFA
Copy CRC F71BDAFA
Accurately ripped (confidence 25) [B6ACF314]
Copy OK

Track 10

Filename F:\torrent\Footloose_15th Anniversary Collectors Edition\score\10. Quiet Riot – Bang Your Head (Metal Health) (Bonus Track).wav

Pre-gap length 0:00:00.89

Peak level 100.0 %
Track quality 100.0 %
Test CRC BE9A8C0D
Copy CRC BE9A8C0D
Accurately ripped (confidence 24) [13376D51]
Copy OK

Track 11

Filename F:\torrent\Footloose_15th Anniversary Collectors Edition\score\11. John Mellencamp – Hurts So Good (Bonus Track).wav

Pre-gap length 0:00:00.69

Peak level 100.0 %
Track quality 100.0 %
Test CRC F91F7E75
Copy CRC F91F7E75
Accurately ripped (confidence 25) [18ABDE96]
Copy OK

Track 12

Filename F:\torrent\Footloose_15th Anniversary Collectors Edition\score\12. Foreigner – Waiting For A Girl Like You (Bonus Track).wav

Pre-gap length 0:00:01.66

Peak level 100.0 %
Track quality 100.0 %
Test CRC 95F1AC2E
Copy CRC 95F1AC2E
Accurately ripped (confidence 24) [BAA7008B]
Copy OK

Track 13

Filename F:\torrent\Footloose_15th Anniversary Collectors Edition\score\13. Shalamar – Dancing In The Sheets (Extended 12'' Remix) (Bonus Track).wav

Pre-gap length 0:00:01.26

Peak level 100.0 %
Track quality 100.0 %
Test CRC A04CFD63
Copy CRC A04CFD63
Accurately ripped (confidence 25) [72F3AFFA]
Copy OK


All tracks accurately ripped

No errors occurred

End of status report

foobar2000 1.2 / Dynamic Range Meter 1.1.1
log date: 2013-07-14 11:38:28

––––––––––––––––––––––––––––––––––––––––
Analyzed: Bonnie Tyler / Footloose (15th Anniversary Collector's Edition) (1)
Deniece Williams / Footloose (15th Anniversary Collector's Edition) (2)
Foreigner / Footloose (15th Anniversary Collector's Edition) (3)
John Mellencamp / Footloose (15th Anniversary Collector's Edition) (4)
Karla Bonoff / Footloose (15th Anniversary Collector's Edition) (5)
Kenny Loggins / Footloose (15th Anniversary Collector's Edition) (6-7)
Mik Reno & Ann Wilson / Footloose (15th Anniversary Collector's Edition) (8)
Moving Pictures / Footloose (15th Anniversary Collector's Edition) (9)
Quiet Riot / Footloose (15th Anniversary Collector's Edition) (10)
Sammy Hagar / Footloose (15th Anniversary Collector's Edition) (11)
Shalamar / Footloose (15th Anniversary Collector's Edition) (12-13)
––––––––––––––––––––––––––––––––––––––––

DR Peak RMS Duration Track
––––––––––––––––––––––––––––––––––––––––
DR10 0.00 dB -11.61 dB 5:51 04-Holding Out For A Hero
DR11 0.00 dB -12.88 dB 4:22 02-Let's Hear It For The Boy
DR12 0.00 dB -14.09 dB 4:49 12-Waiting For A Girl Like You (Bonus Track)
DR11 0.00 dB -12.83 dB 3:39 11-Hurts So Good (Bonus Track)
DR11 0.00 dB -12.82 dB 3:29 07-Somebody's Eyes
DR9 0.00 dB -10.57 dB 3:48 01-Footloose
DR10 0.00 dB -12.21 dB 3:47 06-I'm Free (Heaven Helps The Man)
DR10 0.00 dB -13.76 dB 3:50 03-Almost Paradise (Love Theme From Footloose)
DR10 0.00 dB -12.69 dB 3:48 09-Never
DR9 0.00 dB -11.40 dB 3:55 10-Bang Your Head (Metal Health) (Bonus Track)
DR7 0.00 dB -8.91 dB 3:24 08-The Girl Gets Around
DR13 0.00 dB -14.25 dB 4:05 05-Dancing In The Sheets
DR11 0.00 dB -12.67 dB 6:18 13-Dancing In The Sheets (Extended 12'' Remix) (Bonus Track)
––––––––––––––––––––––––––––––––––––––––

Number of tracks: 13
Official DR value: DR10

Samplerate: 44100 Hz
Channels: 2
Bits per sample: 16
Bitrate: 988 kbps
Codec: FLAC
================================================================================

VA - Footloose: Original Motion Picture Soundtrack (1984) 15th Anniversary Collectors' Edition 1998 [Re-Up]

VA - Footloose: Original Motion Picture Soundtrack (1984) 15th Anniversary Collectors' Edition 1998 [Re-Up]

All thanks to original uploader - Sarant

More Movies & Soundtracks in Efgrapha Blog