Subcategories

VA - French R'N'B Anthology (3CD, 2019)

Posted By: ciklon5
VA - French R'N'B Anthology (3CD, 2019)

VA - French R'N'B Anthology (3CD, 2019)
FLAC tracks +cue+log | 3:10:44 | 1.4 Gb
Genre: Soul, R&B / Label: Wagram Music

SWIGG PRÉSENTE : LE MEILLEUR DU RNB FRANÇAIS DE LA GÉNÉRATION 90-2000 ! AMEL BENT, JENA LEE, K. MARO, KENZA FARAH, M. POKORA, NÂDIYA, SHERYFA LUNA, TRAGÉDIE, DIAM’S, TRIBAL KING, VITAA, WILLY DENZEY, FAUDEL, ZAHO, AMINE, YOUSSOUPHA, MATT HOUSTON, SNIPER, FATAL BAZOOKA, LESLIE, NATIVE, COLONEL REYEL, WALLEN, CORNEILLE…

Track List:
CD 1
01. Nadiya feat. Smartzee - Et C'est Parti
02. K-Maro - Femme Like U
03. Sheryfa Luna - Il Avait Lest Mots
04. Amel Bent - Ma Philosophie
05. Willy Denzey - Le Mur Du Son
06. Zaho - C'est Chelou
07. Menelik - Bye Bye
08. Matt Malley - R&B 2 Rue
09. Koxie - Garçon
10. Nuttea - Elle Te Rend Dingue Poom Poom Short
11. Jena Lee - J'aimerais Tellement
12. Corneille - Avec Classe
13. Marc Antoine - Tant Besoin De Toi
14. Clara Morgane - Sexy Girl
15. Cut Killer feat. Fabe, Koma & K-Reen - Mal Partis
16. Sniper - Grave Dans La Roche
17. Ophelie Winter - Dieu M'a Donné La Foi

CD 2
01. Vitaa - A Fleur De Toi
02. Corneille - Parce Qu'on Vient De Loin
03. Shy'm - Femme De Couleur
04. Chimène Badi - Entre Nous
05. Fatal Bazooka feat. Yelle & Christelle - Parle A Ma Main
06. Poetic Lover - Prenons Notre Temps
07. Gage - Pense À Moi
08. Logobi GT feat. BB Model - Elle Danse Sexy
09. Jenifer - Tourner Ma Page
10. Sniper - Trait Pour Trait
11. Jalane - Femme
12. Aissate - Elle Est A Toi
13. Wallen - L'olivier
14. Dieselle - Dj
15. Jessy Matador - Mini Kawoule
16. Youssoupha feat. Ayna - On Se Connaît
17. Colonel Reyel - Aurelie
18. Melgroove - Apoca Arrive

CD 3
01. Colonel Reyel - Celui
02. Saian Supa Crew - Angelo
03. Khaled - Aïcha
04. Stromae - Alors On Danse
05. Keblack - J'ai Déconné
06. Faudel - Mon Pays
07. Saya - Je Pense À Toi
08. Jessy Matador - Décalé Gwada
09. Ridsa - Là C'est Die
10. Neg 'Marrons feat. Mr. Vegas - Tout Le Monde Debout
11. IK TLF feat. Corneile - Le Meilleur Du Monde
12. Vibe - No Blaggadda
13. Lynnsha feat. D.Dy - Hommes Femmes
14. Franko - Coller La Petite
15. Logobi GT - Suncré Salé [Junior Caldera Remix]
16. Naza feat. KeBlack - On T'a Dit
17. Charlie Brown feat. Leila - Presque Arrives

Exact Audio Copy V1.3 from 2. September 2016

EAC extraction logfile from 19. September 2019, 9:01

Various Artists / French R'n'b Anthology

Used drive : PLEXTOR PX-891SAF Adapter: 1 ID: 0

Read mode : Secure
Utilize accurate stream : Yes
Defeat audio cache : Yes
Make use of C2 pointers : No

Read offset correction : 6
Overread into Lead-In and Lead-Out : No
Fill up missing offset samples with silence : Yes
Delete leading and trailing silent blocks : No
Null samples used in CRC calculations : Yes
Used interface : Native Win32 interface for Win NT & 2000
Gap handling : Appended to previous track

Used output format : User Defined Encoder
Selected bitrate : 1024 kBit/s
Quality : High
Add ID3 tag : No
Command line compressor : C:\Program Files (x86)\Exact Audio Copy\Flac\flac.exe
Additional command line options : -8 -V -T "ARTIST=%artist%" -T "TITLE=%title%" -T "ALBUM=%albumtitle%" -T "DATE=%year%" -T "TRACKNUMBER=%tracknr%" -T "GENRE=%genre%" -T "PERFORMER=%albuminterpret%" -T "COMPOSER=%composer%" %haslyrics%–tag-from-file=LYRICS="%lyricsfile%"%haslyrics% -T "ALBUMARTIST=%albumartist%" -T "DISCNUMBER=%cdnumber%" -T "TOTALDISCS=%totalcds%" -T "TOTALTRACKS=%numtracks%" -T "COMMENT=%comment%" %source% -o %dest%


TOC of the extracted CD

Track | Start | Length | Start sector | End sector
––––––––––––––––––––––––––––-
1 | 0:00.00 | 3:52.53 | 0 | 17452
2 | 3:52.53 | 4:05.48 | 17453 | 35875
3 | 7:58.26 | 3:47.06 | 35876 | 52906
4 | 11:45.32 | 3:21.43 | 52907 | 68024
5 | 15:07.00 | 3:12.61 | 68025 | 82485
6 | 18:19.61 | 3:35.64 | 82486 | 98674
7 | 21:55.50 | 3:43.49 | 98675 | 115448
8 | 25:39.24 | 3:51.70 | 115449 | 132843
9 | 29:31.19 | 3:34.30 | 132844 | 148923
10 | 33:05.49 | 4:04.61 | 148924 | 167284
11 | 37:10.35 | 3:51.53 | 167285 | 184662
12 | 41:02.13 | 3:47.30 | 184663 | 201717
13 | 44:49.43 | 3:36.10 | 201718 | 217927
14 | 48:25.53 | 3:08.39 | 217928 | 232066
15 | 51:34.17 | 3:43.71 | 232067 | 248862
16 | 55:18.13 | 4:45.03 | 248863 | 270240
17 | 60:03.16 | 3:54.15 | 270241 | 287805


Track 1

Filename D:\#cdr\#wav+flac\VA - French R'n'b Anthology\cd 1\01. Nadiya feat. Smartzee - Et C'est Parti.wav

Pre-gap length 0:00:02.00

Peak level 74.9 %
Extraction speed 4.2 X
Track quality 99.9 %
Test CRC 88A9E004
Copy CRC 88A9E004
Track not present in AccurateRip database
Copy OK

Track 2

Filename D:\#cdr\#wav+flac\VA - French R'n'b Anthology\cd 1\02. K-Maro - Femme Like U.wav

Peak level 100.0 %
Extraction speed 5.7 X
Track quality 100.0 %
Test CRC 52992ABD
Copy CRC 52992ABD
Track not present in AccurateRip database
Copy OK

Track 3

Filename D:\#cdr\#wav+flac\VA - French R'n'b Anthology\cd 1\03. Sheryfa Luna - Il Avait Lest Mots.wav

Peak level 97.1 %
Extraction speed 4.9 X
Track quality 99.9 %
Test CRC 81429716
Copy CRC 81429716
Track not present in AccurateRip database
Copy OK

Track 4

Filename D:\#cdr\#wav+flac\VA - French R'n'b Anthology\cd 1\04. Amel Bent - Ma Philosophie.wav

Peak level 89.1 %
Extraction speed 6.3 X
Track quality 100.0 %
Test CRC A88EEA06
Copy CRC A88EEA06
Track not present in AccurateRip database
Copy OK

Track 5

Filename D:\#cdr\#wav+flac\VA - French R'n'b Anthology\cd 1\05. Willy Denzey - Le Mur Du Son.wav

Peak level 98.8 %
Extraction speed 6.6 X
Track quality 100.0 %
Test CRC DFCBB94C
Copy CRC DFCBB94C
Track not present in AccurateRip database
Copy OK

Track 6

Filename D:\#cdr\#wav+flac\VA - French R'n'b Anthology\cd 1\06. Zaho - C'est Chelou.wav

Peak level 99.9 %
Extraction speed 6.9 X
Track quality 100.0 %
Test CRC 8F11480B
Copy CRC 8F11480B
Track not present in AccurateRip database
Copy OK

Track 7

Filename D:\#cdr\#wav+flac\VA - French R'n'b Anthology\cd 1\07. Menelik - Bye Bye.wav

Peak level 100.0 %
Extraction speed 7.3 X
Track quality 100.0 %
Test CRC 5DB7F977
Copy CRC 5DB7F977
Track not present in AccurateRip database
Copy OK

Track 8

Filename D:\#cdr\#wav+flac\VA - French R'n'b Anthology\cd 1\08. Matt Malley - R&B 2 Rue.wav

Peak level 100.0 %
Extraction speed 7.8 X
Track quality 100.0 %
Test CRC F9FEDF81
Copy CRC F9FEDF81
Track not present in AccurateRip database
Copy OK

Track 9

Filename D:\#cdr\#wav+flac\VA - French R'n'b Anthology\cd 1\09. Koxie - Garçon.wav

Peak level 89.1 %
Extraction speed 7.8 X
Track quality 100.0 %
Test CRC 0ECDFAF3
Copy CRC 0ECDFAF3
Track not present in AccurateRip database
Copy OK

Track 10

Filename D:\#cdr\#wav+flac\VA - French R'n'b Anthology\cd 1\10. Nuttea - Elle Te Rend Dingue Poom Poom Short.wav

Peak level 100.0 %
Extraction speed 8.4 X
Track quality 100.0 %
Test CRC 7BB3FE19
Copy CRC 7BB3FE19
Track not present in AccurateRip database
Copy OK

Track 11

Filename D:\#cdr\#wav+flac\VA - French R'n'b Anthology\cd 1\11. Jena Lee - J'aimerais Tellement.wav

Peak level 97.7 %
Extraction speed 7.1 X
Track quality 99.9 %
Test CRC 1C3475B8
Copy CRC 1C3475B8
Track not present in AccurateRip database
Copy OK

Track 12

Filename D:\#cdr\#wav+flac\VA - French R'n'b Anthology\cd 1\12. Corneille - Avec Classe.wav

Peak level 100.0 %
Extraction speed 7.3 X
Track quality 99.9 %
Test CRC D16A9F2D
Copy CRC D16A9F2D
Track not present in AccurateRip database
Copy OK

Track 13

Filename D:\#cdr\#wav+flac\VA - French R'n'b Anthology\cd 1\13. Marc Antoine - Tant Besoin De Toi.wav

Peak level 100.0 %
Extraction speed 7.5 X
Track quality 99.9 %
Test CRC 507ED303
Copy CRC 507ED303
Track not present in AccurateRip database
Copy OK

Track 14

Filename D:\#cdr\#wav+flac\VA - French R'n'b Anthology\cd 1\14. Clara Morgane - Sexy Girl.wav

Peak level 89.0 %
Extraction speed 9.1 X
Track quality 100.0 %
Test CRC 9765AD6E
Copy CRC 9765AD6E
Track not present in AccurateRip database
Copy OK

Track 15

Filename D:\#cdr\#wav+flac\VA - French R'n'b Anthology\cd 1\15. Cut Killer feat. Fabe, Koma & K-Reen - Mal Partis.wav

Peak level 100.0 %
Extraction speed 9.5 X
Track quality 100.0 %
Test CRC 9D1F3685
Copy CRC 9D1F3685
Track not present in AccurateRip database
Copy OK

Track 16

Filename D:\#cdr\#wav+flac\VA - French R'n'b Anthology\cd 1\16. Sniper - Grave Dans La Roche.wav

Peak level 100.0 %
Extraction speed 10.0 X
Track quality 100.0 %
Test CRC 231C6F46
Copy CRC 231C6F46
Track not present in AccurateRip database
Copy OK

Track 17

Filename D:\#cdr\#wav+flac\VA - French R'n'b Anthology\cd 1\17. Ophélie Winter - Dieu M'a Donne La Foi.wav

Peak level 100.0 %
Extraction speed 9.9 X
Track quality 100.0 %
Test CRC 4779D8B0
Copy CRC 4779D8B0
Track not present in AccurateRip database
Copy OK


None of the tracks are present in the AccurateRip database

No errors occurred

End of status report

–– CUETools DB Plugin V2.1.6

[CTDB TOCID: 73qbnmAYf6WU31y2saQDlXe5xbc-] disk not present in database
Submit result: 73qbnmAYf6WU31y2saQDlXe5xbc- has been uploaded


==== Log checksum 2B55FE012AE0A97959E2A0FA6BFF4D2D50888C3A01ED3012AFEC781E89A05550 ====

––––––––––––––––––––––––––––––

Exact Audio Copy V1.3 from 2. September 2016

EAC extraction logfile from 19. September 2019, 9:01

Various Artists / French R'n'b Anthology

Used drive : PLEXTOR PX-891SAF Adapter: 1 ID: 0

Read mode : Secure
Utilize accurate stream : Yes
Defeat audio cache : Yes
Make use of C2 pointers : No

Read offset correction : 6
Overread into Lead-In and Lead-Out : No
Fill up missing offset samples with silence : Yes
Delete leading and trailing silent blocks : No
Null samples used in CRC calculations : Yes
Used interface : Native Win32 interface for Win NT & 2000
Gap handling : Appended to previous track

Used output format : User Defined Encoder
Selected bitrate : 1024 kBit/s
Quality : High
Add ID3 tag : No
Command line compressor : C:\Program Files (x86)\Exact Audio Copy\Flac\flac.exe
Additional command line options : -8 -V -T "ARTIST=%artist%" -T "TITLE=%title%" -T "ALBUM=%albumtitle%" -T "DATE=%year%" -T "TRACKNUMBER=%tracknr%" -T "GENRE=%genre%" -T "PERFORMER=%albuminterpret%" -T "COMPOSER=%composer%" %haslyrics%–tag-from-file=LYRICS="%lyricsfile%"%haslyrics% -T "ALBUMARTIST=%albumartist%" -T "DISCNUMBER=%cdnumber%" -T "TOTALDISCS=%totalcds%" -T "TOTALTRACKS=%numtracks%" -T "COMMENT=%comment%" %source% -o %dest%


TOC of the extracted CD

Track | Start | Length | Start sector | End sector
––––––––––––––––––––––––––––-
1 | 0:00.00 | 3:52.53 | 0 | 17452
2 | 3:52.53 | 4:05.48 | 17453 | 35875
3 | 7:58.26 | 3:47.06 | 35876 | 52906
4 | 11:45.32 | 3:21.43 | 52907 | 68024
5 | 15:07.00 | 3:12.61 | 68025 | 82485
6 | 18:19.61 | 3:35.64 | 82486 | 98674
7 | 21:55.50 | 3:43.49 | 98675 | 115448
8 | 25:39.24 | 3:51.70 | 115449 | 132843
9 | 29:31.19 | 3:34.30 | 132844 | 148923
10 | 33:05.49 | 4:04.61 | 148924 | 167284
11 | 37:10.35 | 3:51.53 | 167285 | 184662
12 | 41:02.13 | 3:47.30 | 184663 | 201717
13 | 44:49.43 | 3:36.10 | 201718 | 217927
14 | 48:25.53 | 3:08.39 | 217928 | 232066
15 | 51:34.17 | 3:43.71 | 232067 | 248862
16 | 55:18.13 | 4:45.03 | 248863 | 270240
17 | 60:03.16 | 3:54.15 | 270241 | 287805


Track 1

Filename D:\#cdr\#wav+flac\VA - French R'n'b Anthology\cd 1\01. Nadiya feat. Smartzee - Et C'est Parti.wav

Pre-gap length 0:00:02.00

Peak level 74.9 %
Extraction speed 4.2 X
Track quality 99.9 %
Test CRC 88A9E004
Copy CRC 88A9E004
Track not present in AccurateRip database
Copy OK

Track 2

Filename D:\#cdr\#wav+flac\VA - French R'n'b Anthology\cd 1\02. K-Maro - Femme Like U.wav

Peak level 100.0 %
Extraction speed 5.7 X
Track quality 100.0 %
Test CRC 52992ABD
Copy CRC 52992ABD
Track not present in AccurateRip database
Copy OK

Track 3

Filename D:\#cdr\#wav+flac\VA - French R'n'b Anthology\cd 1\03. Sheryfa Luna - Il Avait Lest Mots.wav

Peak level 97.1 %
Extraction speed 4.9 X
Track quality 99.9 %
Test CRC 81429716
Copy CRC 81429716
Track not present in AccurateRip database
Copy OK

Track 4

Filename D:\#cdr\#wav+flac\VA - French R'n'b Anthology\cd 1\04. Amel Bent - Ma Philosophie.wav

Peak level 89.1 %
Extraction speed 6.3 X
Track quality 100.0 %
Test CRC A88EEA06
Copy CRC A88EEA06
Track not present in AccurateRip database
Copy OK

Track 5

Filename D:\#cdr\#wav+flac\VA - French R'n'b Anthology\cd 1\05. Willy Denzey - Le Mur Du Son.wav

Peak level 98.8 %
Extraction speed 6.6 X
Track quality 100.0 %
Test CRC DFCBB94C
Copy CRC DFCBB94C
Track not present in AccurateRip database
Copy OK

Track 6

Filename D:\#cdr\#wav+flac\VA - French R'n'b Anthology\cd 1\06. Zaho - C'est Chelou.wav

Peak level 99.9 %
Extraction speed 6.9 X
Track quality 100.0 %
Test CRC 8F11480B
Copy CRC 8F11480B
Track not present in AccurateRip database
Copy OK

Track 7

Filename D:\#cdr\#wav+flac\VA - French R'n'b Anthology\cd 1\07. Menelik - Bye Bye.wav

Peak level 100.0 %
Extraction speed 7.3 X
Track quality 100.0 %
Test CRC 5DB7F977
Copy CRC 5DB7F977
Track not present in AccurateRip database
Copy OK

Track 8

Filename D:\#cdr\#wav+flac\VA - French R'n'b Anthology\cd 1\08. Matt Malley - R&B 2 Rue.wav

Peak level 100.0 %
Extraction speed 7.8 X
Track quality 100.0 %
Test CRC F9FEDF81
Copy CRC F9FEDF81
Track not present in AccurateRip database
Copy OK

Track 9

Filename D:\#cdr\#wav+flac\VA - French R'n'b Anthology\cd 1\09. Koxie - Garçon.wav

Peak level 89.1 %
Extraction speed 7.8 X
Track quality 100.0 %
Test CRC 0ECDFAF3
Copy CRC 0ECDFAF3
Track not present in AccurateRip database
Copy OK

Track 10

Filename D:\#cdr\#wav+flac\VA - French R'n'b Anthology\cd 1\10. Nuttea - Elle Te Rend Dingue Poom Poom Short.wav

Peak level 100.0 %
Extraction speed 8.4 X
Track quality 100.0 %
Test CRC 7BB3FE19
Copy CRC 7BB3FE19
Track not present in AccurateRip database
Copy OK

Track 11

Filename D:\#cdr\#wav+flac\VA - French R'n'b Anthology\cd 1\11. Jena Lee - J'aimerais Tellement.wav

Peak level 97.7 %
Extraction speed 7.1 X
Track quality 99.9 %
Test CRC 1C3475B8
Copy CRC 1C3475B8
Track not present in AccurateRip database
Copy OK

Track 12

Filename D:\#cdr\#wav+flac\VA - French R'n'b Anthology\cd 1\12. Corneille - Avec Classe.wav

Peak level 100.0 %
Extraction speed 7.3 X
Track quality 99.9 %
Test CRC D16A9F2D
Copy CRC D16A9F2D
Track not present in AccurateRip database
Copy OK

Track 13

Filename D:\#cdr\#wav+flac\VA - French R'n'b Anthology\cd 1\13. Marc Antoine - Tant Besoin De Toi.wav

Peak level 100.0 %
Extraction speed 7.5 X
Track quality 99.9 %
Test CRC 507ED303
Copy CRC 507ED303
Track not present in AccurateRip database
Copy OK

Track 14

Filename D:\#cdr\#wav+flac\VA - French R'n'b Anthology\cd 1\14. Clara Morgane - Sexy Girl.wav

Peak level 89.0 %
Extraction speed 9.1 X
Track quality 100.0 %
Test CRC 9765AD6E
Copy CRC 9765AD6E
Track not present in AccurateRip database
Copy OK

Track 15

Filename D:\#cdr\#wav+flac\VA - French R'n'b Anthology\cd 1\15. Cut Killer feat. Fabe, Koma & K-Reen - Mal Partis.wav

Peak level 100.0 %
Extraction speed 9.5 X
Track quality 100.0 %
Test CRC 9D1F3685
Copy CRC 9D1F3685
Track not present in AccurateRip database
Copy OK

Track 16

Filename D:\#cdr\#wav+flac\VA - French R'n'b Anthology\cd 1\16. Sniper - Grave Dans La Roche.wav

Peak level 100.0 %
Extraction speed 10.0 X
Track quality 100.0 %
Test CRC 231C6F46
Copy CRC 231C6F46
Track not present in AccurateRip database
Copy OK

Track 17

Filename D:\#cdr\#wav+flac\VA - French R'n'b Anthology\cd 1\17. Ophélie Winter - Dieu M'a Donne La Foi.wav

Peak level 100.0 %
Extraction speed 9.9 X
Track quality 100.0 %
Test CRC 4779D8B0
Copy CRC 4779D8B0
Track not present in AccurateRip database
Copy OK


None of the tracks are present in the AccurateRip database

No errors occurred

End of status report

–– CUETools DB Plugin V2.1.6

[CTDB TOCID: 73qbnmAYf6WU31y2saQDlXe5xbc-] disk not present in database
Submit result: 73qbnmAYf6WU31y2saQDlXe5xbc- has been uploaded


==== Log checksum 2B55FE012AE0A97959E2A0FA6BFF4D2D50888C3A01ED3012AFEC781E89A05550 ====

Exact Audio Copy V1.3 from 2. September 2016

EAC extraction logfile from 19. September 2019, 9:40

Various Artists / French R'n'b Anthology

Used drive : PLEXTOR PX-891SAF Adapter: 1 ID: 0

Read mode : Secure
Utilize accurate stream : Yes
Defeat audio cache : Yes
Make use of C2 pointers : No

Read offset correction : 6
Overread into Lead-In and Lead-Out : No
Fill up missing offset samples with silence : Yes
Delete leading and trailing silent blocks : No
Null samples used in CRC calculations : Yes
Used interface : Native Win32 interface for Win NT & 2000
Gap handling : Appended to previous track

Used output format : User Defined Encoder
Selected bitrate : 1024 kBit/s
Quality : High
Add ID3 tag : No
Command line compressor : C:\Program Files (x86)\Exact Audio Copy\Flac\flac.exe
Additional command line options : -8 -V -T "ARTIST=%artist%" -T "TITLE=%title%" -T "ALBUM=%albumtitle%" -T "DATE=%year%" -T "TRACKNUMBER=%tracknr%" -T "GENRE=%genre%" -T "PERFORMER=%albuminterpret%" -T "COMPOSER=%composer%" %haslyrics%–tag-from-file=LYRICS="%lyricsfile%"%haslyrics% -T "ALBUMARTIST=%albumartist%" -T "DISCNUMBER=%cdnumber%" -T "TOTALDISCS=%totalcds%" -T "TOTALTRACKS=%numtracks%" -T "COMMENT=%comment%" %source% -o %dest%


TOC of the extracted CD

Track | Start | Length | Start sector | End sector
––––––––––––––––––––––––––––-
1 | 0:00.00 | 4:20.72 | 0 | 19571
2 | 4:20.72 | 3:52.50 | 19572 | 37021
3 | 8:13.47 | 3:32.33 | 37022 | 52954
4 | 11:46.05 | 3:18.17 | 52955 | 67821
5 | 15:04.22 | 4:10.29 | 67822 | 86600
6 | 19:14.51 | 3:45.14 | 86601 | 103489
7 | 22:59.65 | 3:53.64 | 103490 | 121028
8 | 26:53.54 | 2:35.28 | 121029 | 132681
9 | 29:29.07 | 2:51.58 | 132682 | 145564
10 | 32:20.65 | 4:30.21 | 145565 | 165835
11 | 36:51.11 | 3:47.62 | 165836 | 182922
12 | 40:38.73 | 4:34.60 | 182923 | 203532
13 | 45:13.58 | 4:06.06 | 203533 | 221988
14 | 49:19.64 | 3:04.08 | 221989 | 235796
15 | 52:23.72 | 3:10.38 | 235797 | 250084
16 | 55:34.35 | 4:32.05 | 250085 | 270489
17 | 60:06.40 | 3:21.00 | 270490 | 285564
18 | 63:27.40 | 3:08.14 | 285565 | 299678


Track 1

Filename D:\#cdr\#wav+flac\VA - French R'n'b Anthology\cd 2\01. Vitaa - A Fleur De Toi.wav

Pre-gap length 0:00:02.00

Peak level 89.1 %
Extraction speed 2.9 X
Track quality 99.9 %
Test CRC 2A8664DE
Copy CRC 2A8664DE
Track not present in AccurateRip database
Copy OK

Track 2

Filename D:\#cdr\#wav+flac\VA - French R'n'b Anthology\cd 2\02. Corneille - Parce Qu'on Vient De Loin.wav

Peak level 100.0 %
Extraction speed 3.8 X
Track quality 100.0 %
Test CRC A04DD155
Copy CRC A04DD155
Track not present in AccurateRip database
Copy OK

Track 3

Filename D:\#cdr\#wav+flac\VA - French R'n'b Anthology\cd 2\03. Shy'm - Femme De Couleur.wav

Peak level 100.0 %
Extraction speed 4.1 X
Track quality 100.0 %
Test CRC 17517C72
Copy CRC 17517C72
Track not present in AccurateRip database
Copy OK

Track 4

Filename D:\#cdr\#wav+flac\VA - French R'n'b Anthology\cd 2\04. Chimène Badi - Entre Nous.wav

Peak level 98.4 %
Extraction speed 3.4 X
Track quality 99.9 %
Test CRC C53D2182
Copy CRC C53D2182
Track not present in AccurateRip database
Copy OK

Track 5

Filename D:\#cdr\#wav+flac\VA - French R'n'b Anthology\cd 2\05. Fatal Bazooka Feat. Yelle & Christelle - Parle A Ma Main.wav

Peak level 100.0 %
Extraction speed 4.7 X
Track quality 100.0 %
Test CRC FCF2FBB2
Copy CRC FCF2FBB2
Track not present in AccurateRip database
Copy OK

Track 6

Filename D:\#cdr\#wav+flac\VA - French R'n'b Anthology\cd 2\06. Poetic Lover - Prenons Notre Temps.wav

Peak level 100.0 %
Extraction speed 4.8 X
Track quality 100.0 %
Test CRC 5FCF04FF
Copy CRC 5FCF04FF
Track not present in AccurateRip database
Copy OK

Track 7

Filename D:\#cdr\#wav+flac\VA - French R'n'b Anthology\cd 2\07. Gage - Pense À Moi.wav

Peak level 100.0 %
Extraction speed 5.1 X
Track quality 100.0 %
Test CRC 39DBCC09
Copy CRC 39DBCC09
Track not present in AccurateRip database
Copy OK

Track 8

Filename D:\#cdr\#wav+flac\VA - French R'n'b Anthology\cd 2\08. Logobi GT Feat. BB Model - Elle Danse Sexy.wav

Peak level 82.3 %
Extraction speed 3.7 X
Track quality 99.9 %
Test CRC CDD795E0
Copy CRC CDD795E0
Track not present in AccurateRip database
Copy OK

Track 9

Filename D:\#cdr\#wav+flac\VA - French R'n'b Anthology\cd 2\09. Jenifer - Tourner Ma Page.wav

Peak level 91.7 %
Extraction speed 5.2 X
Track quality 100.0 %
Test CRC 2912DD11
Copy CRC 2912DD11
Track not present in AccurateRip database
Copy OK

Track 10

Filename D:\#cdr\#wav+flac\VA - French R'n'b Anthology\cd 2\10. Sniper - Trait Pour Trait.wav

Peak level 100.0 %
Extraction speed 5.7 X
Track quality 100.0 %
Test CRC 9BED62F4
Copy CRC 9BED62F4
Track not present in AccurateRip database
Copy OK

Track 11

Filename D:\#cdr\#wav+flac\VA - French R'n'b Anthology\cd 2\11. Jalane - Femme (Cette Fois, Je Sais …).wav

Peak level 100.0 %
Extraction speed 5.8 X
Track quality 100.0 %
Test CRC C1DFB429
Copy CRC C1DFB429
Track not present in AccurateRip database
Copy OK

Track 12

Filename D:\#cdr\#wav+flac\VA - French R'n'b Anthology\cd 2\12. Aissate - Elle Est A Toi.wav

Peak level 100.0 %
Extraction speed 6.1 X
Track quality 100.0 %
Test CRC 3493C8F0
Copy CRC 3493C8F0
Track not present in AccurateRip database
Copy OK

Track 13

Filename D:\#cdr\#wav+flac\VA - French R'n'b Anthology\cd 2\13. Wallen - L'olivier.wav

Peak level 91.7 %
Extraction speed 6.3 X
Track quality 100.0 %
Test CRC A84486F0
Copy CRC A84486F0
Track not present in AccurateRip database
Copy OK

Track 14

Filename D:\#cdr\#wav+flac\VA - French R'n'b Anthology\cd 2\14. Dieselle - DJ.wav

Peak level 100.0 %
Extraction speed 6.2 X
Track quality 100.0 %
Test CRC 2697F22E
Copy CRC 2697F22E
Track not present in AccurateRip database
Copy OK

Track 15

Filename D:\#cdr\#wav+flac\VA - French R'n'b Anthology\cd 2\15. Jessy Matador - Mini Kawoule.wav

Peak level 100.0 %
Extraction speed 6.4 X
Track quality 100.0 %
Test CRC 2592B463
Copy CRC 2592B463
Track not present in AccurateRip database
Copy OK

Track 16

Filename D:\#cdr\#wav+flac\VA - French R'n'b Anthology\cd 2\16. Youssoupha Feat. Ayna - On Se Connaît.wav

Peak level 91.7 %
Extraction speed 6.9 X
Track quality 100.0 %
Test CRC 48148E51
Copy CRC 48148E51
Track not present in AccurateRip database
Copy OK

Track 17

Filename D:\#cdr\#wav+flac\VA - French R'n'b Anthology\cd 2\17. Colonel Reyel - Aurelie.wav

Peak level 91.1 %
Extraction speed 6.7 X
Track quality 100.0 %
Test CRC 920722A8
Copy CRC 920722A8
Track not present in AccurateRip database
Copy OK

Track 18

Filename D:\#cdr\#wav+flac\VA - French R'n'b Anthology\cd 2\18. Melgroove - Apoca Arrive.wav

Peak level 97.9 %
Extraction speed 1.8 X
Track quality 99.9 %
Test CRC 1E326DEE
Copy CRC 1E326DEE
Track not present in AccurateRip database
Copy OK


None of the tracks are present in the AccurateRip database

No errors occurred

End of status report

–– CUETools DB Plugin V2.1.6

[CTDB TOCID: uoZ6VVh9opAudiiNDt1ecFMlr_g-] disk not present in database
Submit result: uoZ6VVh9opAudiiNDt1ecFMlr_g- has been uploaded


==== Log checksum 96E6CFD21C0C0499A7BED49FA5BF617F365F7438B06379DB20CF9BD6609EE8EA ====

––––––––––––––––––––––––––––––

Exact Audio Copy V1.3 from 2. September 2016

EAC extraction logfile from 19. September 2019, 9:40

Various Artists / French R'n'b Anthology

Used drive : PLEXTOR PX-891SAF Adapter: 1 ID: 0

Read mode : Secure
Utilize accurate stream : Yes
Defeat audio cache : Yes
Make use of C2 pointers : No

Read offset correction : 6
Overread into Lead-In and Lead-Out : No
Fill up missing offset samples with silence : Yes
Delete leading and trailing silent blocks : No
Null samples used in CRC calculations : Yes
Used interface : Native Win32 interface for Win NT & 2000
Gap handling : Appended to previous track

Used output format : User Defined Encoder
Selected bitrate : 1024 kBit/s
Quality : High
Add ID3 tag : No
Command line compressor : C:\Program Files (x86)\Exact Audio Copy\Flac\flac.exe
Additional command line options : -8 -V -T "ARTIST=%artist%" -T "TITLE=%title%" -T "ALBUM=%albumtitle%" -T "DATE=%year%" -T "TRACKNUMBER=%tracknr%" -T "GENRE=%genre%" -T "PERFORMER=%albuminterpret%" -T "COMPOSER=%composer%" %haslyrics%–tag-from-file=LYRICS="%lyricsfile%"%haslyrics% -T "ALBUMARTIST=%albumartist%" -T "DISCNUMBER=%cdnumber%" -T "TOTALDISCS=%totalcds%" -T "TOTALTRACKS=%numtracks%" -T "COMMENT=%comment%" %source% -o %dest%


TOC of the extracted CD

Track | Start | Length | Start sector | End sector
––––––––––––––––––––––––––––-
1 | 0:00.00 | 4:20.72 | 0 | 19571
2 | 4:20.72 | 3:52.50 | 19572 | 37021
3 | 8:13.47 | 3:32.33 | 37022 | 52954
4 | 11:46.05 | 3:18.17 | 52955 | 67821
5 | 15:04.22 | 4:10.29 | 67822 | 86600
6 | 19:14.51 | 3:45.14 | 86601 | 103489
7 | 22:59.65 | 3:53.64 | 103490 | 121028
8 | 26:53.54 | 2:35.28 | 121029 | 132681
9 | 29:29.07 | 2:51.58 | 132682 | 145564
10 | 32:20.65 | 4:30.21 | 145565 | 165835
11 | 36:51.11 | 3:47.62 | 165836 | 182922
12 | 40:38.73 | 4:34.60 | 182923 | 203532
13 | 45:13.58 | 4:06.06 | 203533 | 221988
14 | 49:19.64 | 3:04.08 | 221989 | 235796
15 | 52:23.72 | 3:10.38 | 235797 | 250084
16 | 55:34.35 | 4:32.05 | 250085 | 270489
17 | 60:06.40 | 3:21.00 | 270490 | 285564
18 | 63:27.40 | 3:08.14 | 285565 | 299678


Track 1

Filename D:\#cdr\#wav+flac\VA - French R'n'b Anthology\cd 2\01. Vitaa - A Fleur De Toi.wav

Pre-gap length 0:00:02.00

Peak level 89.1 %
Extraction speed 2.9 X
Track quality 99.9 %
Test CRC 2A8664DE
Copy CRC 2A8664DE
Track not present in AccurateRip database
Copy OK

Track 2

Filename D:\#cdr\#wav+flac\VA - French R'n'b Anthology\cd 2\02. Corneille - Parce Qu'on Vient De Loin.wav

Peak level 100.0 %
Extraction speed 3.8 X
Track quality 100.0 %
Test CRC A04DD155
Copy CRC A04DD155
Track not present in AccurateRip database
Copy OK

Track 3

Filename D:\#cdr\#wav+flac\VA - French R'n'b Anthology\cd 2\03. Shy'm - Femme De Couleur.wav

Peak level 100.0 %
Extraction speed 4.1 X
Track quality 100.0 %
Test CRC 17517C72
Copy CRC 17517C72
Track not present in AccurateRip database
Copy OK

Track 4

Filename D:\#cdr\#wav+flac\VA - French R'n'b Anthology\cd 2\04. Chimène Badi - Entre Nous.wav

Peak level 98.4 %
Extraction speed 3.4 X
Track quality 99.9 %
Test CRC C53D2182
Copy CRC C53D2182
Track not present in AccurateRip database
Copy OK

Track 5

Filename D:\#cdr\#wav+flac\VA - French R'n'b Anthology\cd 2\05. Fatal Bazooka Feat. Yelle & Christelle - Parle A Ma Main.wav

Peak level 100.0 %
Extraction speed 4.7 X
Track quality 100.0 %
Test CRC FCF2FBB2
Copy CRC FCF2FBB2
Track not present in AccurateRip database
Copy OK

Track 6

Filename D:\#cdr\#wav+flac\VA - French R'n'b Anthology\cd 2\06. Poetic Lover - Prenons Notre Temps.wav

Peak level 100.0 %
Extraction speed 4.8 X
Track quality 100.0 %
Test CRC 5FCF04FF
Copy CRC 5FCF04FF
Track not present in AccurateRip database
Copy OK

Track 7

Filename D:\#cdr\#wav+flac\VA - French R'n'b Anthology\cd 2\07. Gage - Pense À Moi.wav

Peak level 100.0 %
Extraction speed 5.1 X
Track quality 100.0 %
Test CRC 39DBCC09
Copy CRC 39DBCC09
Track not present in AccurateRip database
Copy OK

Track 8

Filename D:\#cdr\#wav+flac\VA - French R'n'b Anthology\cd 2\08. Logobi GT Feat. BB Model - Elle Danse Sexy.wav

Peak level 82.3 %
Extraction speed 3.7 X
Track quality 99.9 %
Test CRC CDD795E0
Copy CRC CDD795E0
Track not present in AccurateRip database
Copy OK

Track 9

Filename D:\#cdr\#wav+flac\VA - French R'n'b Anthology\cd 2\09. Jenifer - Tourner Ma Page.wav

Peak level 91.7 %
Extraction speed 5.2 X
Track quality 100.0 %
Test CRC 2912DD11
Copy CRC 2912DD11
Track not present in AccurateRip database
Copy OK

Track 10

Filename D:\#cdr\#wav+flac\VA - French R'n'b Anthology\cd 2\10. Sniper - Trait Pour Trait.wav

Peak level 100.0 %
Extraction speed 5.7 X
Track quality 100.0 %
Test CRC 9BED62F4
Copy CRC 9BED62F4
Track not present in AccurateRip database
Copy OK

Track 11

Filename D:\#cdr\#wav+flac\VA - French R'n'b Anthology\cd 2\11. Jalane - Femme (Cette Fois, Je Sais …).wav

Peak level 100.0 %
Extraction speed 5.8 X
Track quality 100.0 %
Test CRC C1DFB429
Copy CRC C1DFB429
Track not present in AccurateRip database
Copy OK

Track 12

Filename D:\#cdr\#wav+flac\VA - French R'n'b Anthology\cd 2\12. Aissate - Elle Est A Toi.wav

Peak level 100.0 %
Extraction speed 6.1 X
Track quality 100.0 %
Test CRC 3493C8F0
Copy CRC 3493C8F0
Track not present in AccurateRip database
Copy OK

Track 13

Filename D:\#cdr\#wav+flac\VA - French R'n'b Anthology\cd 2\13. Wallen - L'olivier.wav

Peak level 91.7 %
Extraction speed 6.3 X
Track quality 100.0 %
Test CRC A84486F0
Copy CRC A84486F0
Track not present in AccurateRip database
Copy OK

Track 14

Filename D:\#cdr\#wav+flac\VA - French R'n'b Anthology\cd 2\14. Dieselle - DJ.wav

Peak level 100.0 %
Extraction speed 6.2 X
Track quality 100.0 %
Test CRC 2697F22E
Copy CRC 2697F22E
Track not present in AccurateRip database
Copy OK

Track 15

Filename D:\#cdr\#wav+flac\VA - French R'n'b Anthology\cd 2\15. Jessy Matador - Mini Kawoule.wav

Peak level 100.0 %
Extraction speed 6.4 X
Track quality 100.0 %
Test CRC 2592B463
Copy CRC 2592B463
Track not present in AccurateRip database
Copy OK

Track 16

Filename D:\#cdr\#wav+flac\VA - French R'n'b Anthology\cd 2\16. Youssoupha Feat. Ayna - On Se Connaît.wav

Peak level 91.7 %
Extraction speed 6.9 X
Track quality 100.0 %
Test CRC 48148E51
Copy CRC 48148E51
Track not present in AccurateRip database
Copy OK

Track 17

Filename D:\#cdr\#wav+flac\VA - French R'n'b Anthology\cd 2\17. Colonel Reyel - Aurelie.wav

Peak level 91.1 %
Extraction speed 6.7 X
Track quality 100.0 %
Test CRC 920722A8
Copy CRC 920722A8
Track not present in AccurateRip database
Copy OK

Track 18

Filename D:\#cdr\#wav+flac\VA - French R'n'b Anthology\cd 2\18. Melgroove - Apoca Arrive.wav

Peak level 97.9 %
Extraction speed 1.8 X
Track quality 99.9 %
Test CRC 1E326DEE
Copy CRC 1E326DEE
Track not present in AccurateRip database
Copy OK


None of the tracks are present in the AccurateRip database

No errors occurred

End of status report

–– CUETools DB Plugin V2.1.6

[CTDB TOCID: uoZ6VVh9opAudiiNDt1ecFMlr_g-] disk not present in database
Submit result: uoZ6VVh9opAudiiNDt1ecFMlr_g- has been uploaded


==== Log checksum 96E6CFD21C0C0499A7BED49FA5BF617F365F7438B06379DB20CF9BD6609EE8EA ====

Exact Audio Copy V1.3 from 2. September 2016

EAC extraction logfile from 19. September 2019, 10:51

Various Artists / French R'n'b Anthology

Used drive : PLEXTOR PX-891SAF Adapter: 1 ID: 0

Read mode : Secure
Utilize accurate stream : Yes
Defeat audio cache : Yes
Make use of C2 pointers : No

Read offset correction : 6
Overread into Lead-In and Lead-Out : No
Fill up missing offset samples with silence : Yes
Delete leading and trailing silent blocks : No
Null samples used in CRC calculations : Yes
Used interface : Native Win32 interface for Win NT & 2000
Gap handling : Appended to previous track

Used output format : User Defined Encoder
Selected bitrate : 1024 kBit/s
Quality : High
Add ID3 tag : No
Command line compressor : C:\Program Files (x86)\Exact Audio Copy\Flac\flac.exe
Additional command line options : -8 -V -T "ARTIST=%artist%" -T "TITLE=%title%" -T "ALBUM=%albumtitle%" -T "DATE=%year%" -T "TRACKNUMBER=%tracknr%" -T "GENRE=%genre%" -T "PERFORMER=%albuminterpret%" -T "COMPOSER=%composer%" %haslyrics%–tag-from-file=LYRICS="%lyricsfile%"%haslyrics% -T "ALBUMARTIST=%albumartist%" -T "DISCNUMBER=%cdnumber%" -T "TOTALDISCS=%totalcds%" -T "TOTALTRACKS=%numtracks%" -T "COMMENT=%comment%" %source% -o %dest%


TOC of the extracted CD

Track | Start | Length | Start sector | End sector
––––––––––––––––––––––––––––-
1 | 0:00.00 | 3:20.33 | 0 | 15032
2 | 3:20.33 | 3:46.19 | 15033 | 32001
3 | 7:06.52 | 4:20.43 | 32002 | 51544
4 | 11:27.20 | 3:25.35 | 51545 | 66954
5 | 14:52.55 | 3:31.27 | 66955 | 82806
6 | 18:24.07 | 3:43.62 | 82807 | 99593
7 | 22:07.69 | 3:02.04 | 99594 | 113247
8 | 25:09.73 | 2:54.21 | 113248 | 126318
9 | 28:04.19 | 3:12.46 | 126319 | 140764
10 | 31:16.65 | 3:35.07 | 140765 | 156896
11 | 34:51.72 | 4:11.58 | 156897 | 175779
12 | 39:03.55 | 4:04.36 | 175780 | 194115
13 | 43:08.16 | 3:22.21 | 194116 | 209286
14 | 46:30.37 | 3:36.00 | 209287 | 225486
15 | 50:06.37 | 3:18.28 | 225487 | 240364
16 | 53:24.65 | 3:04.55 | 240365 | 254219
17 | 56:29.45 | 3:42.35 | 254220 | 270904


Track 1

Filename D:\#cdr\#wav+flac\VA - French R'n'b Anthology\cd 3\01. Colonel Reyel - Celui.wav

Pre-gap length 0:00:02.00

Peak level 98.8 %
Extraction speed 4.9 X
Track quality 100.0 %
Test CRC C32ADE9D
Copy CRC C32ADE9D
Track not present in AccurateRip database
Copy OK

Track 2

Filename D:\#cdr\#wav+flac\VA - French R'n'b Anthology\cd 3\02. Saian Supa Crew - Angelo.wav

Peak level 99.2 %
Extraction speed 5.4 X
Track quality 100.0 %
Test CRC EB3C1080
Copy CRC EB3C1080
Track not present in AccurateRip database
Copy OK

Track 3

Filename D:\#cdr\#wav+flac\VA - French R'n'b Anthology\cd 3\03. Khaled - Aïcha.wav

Peak level 100.0 %
Extraction speed 5.1 X
Track quality 99.9 %
Test CRC 233DFD5B
Copy CRC 233DFD5B
Track not present in AccurateRip database
Copy OK

Track 4

Filename D:\#cdr\#wav+flac\VA - French R'n'b Anthology\cd 3\04. Stromae - Alors On Danse.wav

Peak level 100.0 %
Extraction speed 6.3 X
Track quality 100.0 %
Test CRC 70B099DD
Copy CRC 70B099DD
Track not present in AccurateRip database
Copy OK

Track 5

Filename D:\#cdr\#wav+flac\VA - French R'n'b Anthology\cd 3\05. Keblack - J'ai Déconné.wav

Peak level 100.0 %
Extraction speed 6.7 X
Track quality 100.0 %
Test CRC 009638C3
Copy CRC 009638C3
Track not present in AccurateRip database
Copy OK

Track 6

Filename D:\#cdr\#wav+flac\VA - French R'n'b Anthology\cd 3\06. Faudel - Mon Pays.wav

Peak level 100.0 %
Extraction speed 7.1 X
Track quality 100.0 %
Test CRC AF044B07
Copy CRC AF044B07
Track not present in AccurateRip database
Copy OK

Track 7

Filename D:\#cdr\#wav+flac\VA - French R'n'b Anthology\cd 3\07. Saya - Je Pense À Toi.wav

Peak level 91.7 %
Extraction speed 7.2 X
Track quality 100.0 %
Test CRC E92FFCFA
Copy CRC E92FFCFA
Track not present in AccurateRip database
Copy OK

Track 8

Filename D:\#cdr\#wav+flac\VA - French R'n'b Anthology\cd 3\08. Jessy Matador - Décalé Gwada.wav

Peak level 91.7 %
Extraction speed 5.8 X
Track quality 99.9 %
Test CRC 28615CB2
Copy CRC 28615CB2
Track not present in AccurateRip database
Copy OK

Track 9

Filename D:\#cdr\#wav+flac\VA - French R'n'b Anthology\cd 3\09. Ridsa - Là C'est Die.wav

Peak level 100.0 %
Extraction speed 7.8 X
Track quality 100.0 %
Test CRC 8F96DAEC
Copy CRC 8F96DAEC
Track not present in AccurateRip database
Copy OK

Track 10

Filename D:\#cdr\#wav+flac\VA - French R'n'b Anthology\cd 3\10. Neg 'Marrons Feat. Mr. Vegas - Tout Le Monde Debout.wav

Peak level 98.0 %
Extraction speed 6.6 X
Track quality 99.9 %
Test CRC 47896F0C
Copy CRC 47896F0C
Track not present in AccurateRip database
Copy OK

Track 11

Filename D:\#cdr\#wav+flac\VA - French R'n'b Anthology\cd 3\11. IK TLF Feat. Corneille - Le Meilleur Du Monde.wav

Peak level 91.7 %
Extraction speed 8.7 X
Track quality 100.0 %
Test CRC 22D3FE55
Copy CRC 22D3FE55
Track not present in AccurateRip database
Copy OK

Track 12

Filename D:\#cdr\#wav+flac\VA - French R'n'b Anthology\cd 3\12. Vibe - No Blaggadda.wav

Peak level 100.0 %
Extraction speed 8.9 X
Track quality 100.0 %
Test CRC 39DE5298
Copy CRC 39DE5298
Track not present in AccurateRip database
Copy OK

Track 13

Filename D:\#cdr\#wav+flac\VA - French R'n'b Anthology\cd 3\13. Lynnsha Feat. D.Dy - Hommes Femmes.wav

Peak level 98.9 %
Extraction speed 8.9 X
Track quality 100.0 %
Test CRC 389095BA
Copy CRC 389095BA
Track not present in AccurateRip database
Copy OK

Track 14

Filename D:\#cdr\#wav+flac\VA - French R'n'b Anthology\cd 3\14. Franko - Coller La Petite.wav

Peak level 100.0 %
Extraction speed 9.3 X
Track quality 100.0 %
Test CRC 440A1CBD
Copy CRC 440A1CBD
Track not present in AccurateRip database
Copy OK

Track 15

Filename D:\#cdr\#wav+flac\VA - French R'n'b Anthology\cd 3\15. Logobi GT - Suncré Salé [Junior Caldera Remix].wav

Peak level 100.0 %
Extraction speed 9.4 X
Track quality 100.0 %
Test CRC D66E6D07
Copy CRC D66E6D07
Track not present in AccurateRip database
Copy OK

Track 16

Filename D:\#cdr\#wav+flac\VA - French R'n'b Anthology\cd 3\16. Naza Feat. KeBlack - On T'a Dit.wav

Peak level 100.0 %
Extraction speed 9.5 X
Track quality 100.0 %
Test CRC B22DA6EA
Copy CRC B22DA6EA
Track not present in AccurateRip database
Copy OK

Track 17

Filename D:\#cdr\#wav+flac\VA - French R'n'b Anthology\cd 3\17. Charlie Brown Feat. Leila - Presque Arrives  .wav

Peak level 79.2 %
Extraction speed 8.0 X
Track quality 99.9 %
Test CRC 01FB85C1
Copy CRC 01FB85C1
Track not present in AccurateRip database
Copy OK


None of the tracks are present in the AccurateRip database

No errors occurred

End of status report

–– CUETools DB Plugin V2.1.6

[CTDB TOCID: Ld3u7zfxuSVmsbuYYPyqZDfEVpA-] disk not present in database
Submit result: Ld3u7zfxuSVmsbuYYPyqZDfEVpA- has been uploaded


==== Log checksum EBD62D694DD1901A60A17BF8673FE8E887F80B969FCE5F8B66A0DE810A836E3C ====

––––––––––––––––––––––––––––––

Exact Audio Copy V1.3 from 2. September 2016

EAC extraction logfile from 19. September 2019, 10:51

Various Artists / French R'n'b Anthology

Used drive : PLEXTOR PX-891SAF Adapter: 1 ID: 0

Read mode : Secure
Utilize accurate stream : Yes
Defeat audio cache : Yes
Make use of C2 pointers : No

Read offset correction : 6
Overread into Lead-In and Lead-Out : No
Fill up missing offset samples with silence : Yes
Delete leading and trailing silent blocks : No
Null samples used in CRC calculations : Yes
Used interface : Native Win32 interface for Win NT & 2000
Gap handling : Appended to previous track

Used output format : User Defined Encoder
Selected bitrate : 1024 kBit/s
Quality : High
Add ID3 tag : No
Command line compressor : C:\Program Files (x86)\Exact Audio Copy\Flac\flac.exe
Additional command line options : -8 -V -T "ARTIST=%artist%" -T "TITLE=%title%" -T "ALBUM=%albumtitle%" -T "DATE=%year%" -T "TRACKNUMBER=%tracknr%" -T "GENRE=%genre%" -T "PERFORMER=%albuminterpret%" -T "COMPOSER=%composer%" %haslyrics%–tag-from-file=LYRICS="%lyricsfile%"%haslyrics% -T "ALBUMARTIST=%albumartist%" -T "DISCNUMBER=%cdnumber%" -T "TOTALDISCS=%totalcds%" -T "TOTALTRACKS=%numtracks%" -T "COMMENT=%comment%" %source% -o %dest%


TOC of the extracted CD

Track | Start | Length | Start sector | End sector
––––––––––––––––––––––––––––-
1 | 0:00.00 | 3:20.33 | 0 | 15032
2 | 3:20.33 | 3:46.19 | 15033 | 32001
3 | 7:06.52 | 4:20.43 | 32002 | 51544
4 | 11:27.20 | 3:25.35 | 51545 | 66954
5 | 14:52.55 | 3:31.27 | 66955 | 82806
6 | 18:24.07 | 3:43.62 | 82807 | 99593
7 | 22:07.69 | 3:02.04 | 99594 | 113247
8 | 25:09.73 | 2:54.21 | 113248 | 126318
9 | 28:04.19 | 3:12.46 | 126319 | 140764
10 | 31:16.65 | 3:35.07 | 140765 | 156896
11 | 34:51.72 | 4:11.58 | 156897 | 175779
12 | 39:03.55 | 4:04.36 | 175780 | 194115
13 | 43:08.16 | 3:22.21 | 194116 | 209286
14 | 46:30.37 | 3:36.00 | 209287 | 225486
15 | 50:06.37 | 3:18.28 | 225487 | 240364
16 | 53:24.65 | 3:04.55 | 240365 | 254219
17 | 56:29.45 | 3:42.35 | 254220 | 270904


Track 1

Filename D:\#cdr\#wav+flac\VA - French R'n'b Anthology\cd 3\01. Colonel Reyel - Celui.wav

Pre-gap length 0:00:02.00

Peak level 98.8 %
Extraction speed 4.9 X
Track quality 100.0 %
Test CRC C32ADE9D
Copy CRC C32ADE9D
Track not present in AccurateRip database
Copy OK

Track 2

Filename D:\#cdr\#wav+flac\VA - French R'n'b Anthology\cd 3\02. Saian Supa Crew - Angelo.wav

Peak level 99.2 %
Extraction speed 5.4 X
Track quality 100.0 %
Test CRC EB3C1080
Copy CRC EB3C1080
Track not present in AccurateRip database
Copy OK

Track 3

Filename D:\#cdr\#wav+flac\VA - French R'n'b Anthology\cd 3\03. Khaled - Aïcha.wav

Peak level 100.0 %
Extraction speed 5.1 X
Track quality 99.9 %
Test CRC 233DFD5B
Copy CRC 233DFD5B
Track not present in AccurateRip database
Copy OK

Track 4

Filename D:\#cdr\#wav+flac\VA - French R'n'b Anthology\cd 3\04. Stromae - Alors On Danse.wav

Peak level 100.0 %
Extraction speed 6.3 X
Track quality 100.0 %
Test CRC 70B099DD
Copy CRC 70B099DD
Track not present in AccurateRip database
Copy OK

Track 5

Filename D:\#cdr\#wav+flac\VA - French R'n'b Anthology\cd 3\05. Keblack - J'ai Déconné.wav

Peak level 100.0 %
Extraction speed 6.7 X
Track quality 100.0 %
Test CRC 009638C3
Copy CRC 009638C3
Track not present in AccurateRip database
Copy OK

Track 6

Filename D:\#cdr\#wav+flac\VA - French R'n'b Anthology\cd 3\06. Faudel - Mon Pays.wav

Peak level 100.0 %
Extraction speed 7.1 X
Track quality 100.0 %
Test CRC AF044B07
Copy CRC AF044B07
Track not present in AccurateRip database
Copy OK

Track 7

Filename D:\#cdr\#wav+flac\VA - French R'n'b Anthology\cd 3\07. Saya - Je Pense À Toi.wav

Peak level 91.7 %
Extraction speed 7.2 X
Track quality 100.0 %
Test CRC E92FFCFA
Copy CRC E92FFCFA
Track not present in AccurateRip database
Copy OK

Track 8

Filename D:\#cdr\#wav+flac\VA - French R'n'b Anthology\cd 3\08. Jessy Matador - Décalé Gwada.wav

Peak level 91.7 %
Extraction speed 5.8 X
Track quality 99.9 %
Test CRC 28615CB2
Copy CRC 28615CB2
Track not present in AccurateRip database
Copy OK

Track 9

Filename D:\#cdr\#wav+flac\VA - French R'n'b Anthology\cd 3\09. Ridsa - Là C'est Die.wav

Peak level 100.0 %
Extraction speed 7.8 X
Track quality 100.0 %
Test CRC 8F96DAEC
Copy CRC 8F96DAEC
Track not present in AccurateRip database
Copy OK

Track 10

Filename D:\#cdr\#wav+flac\VA - French R'n'b Anthology\cd 3\10. Neg 'Marrons Feat. Mr. Vegas - Tout Le Monde Debout.wav

Peak level 98.0 %
Extraction speed 6.6 X
Track quality 99.9 %
Test CRC 47896F0C
Copy CRC 47896F0C
Track not present in AccurateRip database
Copy OK

Track 11

Filename D:\#cdr\#wav+flac\VA - French R'n'b Anthology\cd 3\11. IK TLF Feat. Corneille - Le Meilleur Du Monde.wav

Peak level 91.7 %
Extraction speed 8.7 X
Track quality 100.0 %
Test CRC 22D3FE55
Copy CRC 22D3FE55
Track not present in AccurateRip database
Copy OK

Track 12

Filename D:\#cdr\#wav+flac\VA - French R'n'b Anthology\cd 3\12. Vibe - No Blaggadda.wav

Peak level 100.0 %
Extraction speed 8.9 X
Track quality 100.0 %
Test CRC 39DE5298
Copy CRC 39DE5298
Track not present in AccurateRip database
Copy OK

Track 13

Filename D:\#cdr\#wav+flac\VA - French R'n'b Anthology\cd 3\13. Lynnsha Feat. D.Dy - Hommes Femmes.wav

Peak level 98.9 %
Extraction speed 8.9 X
Track quality 100.0 %
Test CRC 389095BA
Copy CRC 389095BA
Track not present in AccurateRip database
Copy OK

Track 14

Filename D:\#cdr\#wav+flac\VA - French R'n'b Anthology\cd 3\14. Franko - Coller La Petite.wav

Peak level 100.0 %
Extraction speed 9.3 X
Track quality 100.0 %
Test CRC 440A1CBD
Copy CRC 440A1CBD
Track not present in AccurateRip database
Copy OK

Track 15

Filename D:\#cdr\#wav+flac\VA - French R'n'b Anthology\cd 3\15. Logobi GT - Suncré Salé [Junior Caldera Remix].wav

Peak level 100.0 %
Extraction speed 9.4 X
Track quality 100.0 %
Test CRC D66E6D07
Copy CRC D66E6D07
Track not present in AccurateRip database
Copy OK

Track 16

Filename D:\#cdr\#wav+flac\VA - French R'n'b Anthology\cd 3\16. Naza Feat. KeBlack - On T'a Dit.wav

Peak level 100.0 %
Extraction speed 9.5 X
Track quality 100.0 %
Test CRC B22DA6EA
Copy CRC B22DA6EA
Track not present in AccurateRip database
Copy OK

Track 17

Filename D:\#cdr\#wav+flac\VA - French R'n'b Anthology\cd 3\17. Charlie Brown Feat. Leila - Presque Arrives  .wav

Peak level 79.2 %
Extraction speed 8.0 X
Track quality 99.9 %
Test CRC 01FB85C1
Copy CRC 01FB85C1
Track not present in AccurateRip database
Copy OK


None of the tracks are present in the AccurateRip database

No errors occurred

End of status report

–– CUETools DB Plugin V2.1.6

[CTDB TOCID: Ld3u7zfxuSVmsbuYYPyqZDfEVpA-] disk not present in database
Submit result: Ld3u7zfxuSVmsbuYYPyqZDfEVpA- has been uploaded


==== Log checksum EBD62D694DD1901A60A17BF8673FE8E887F80B969FCE5F8B66A0DE810A836E3C ====